Tags
Language
Tags

The Who - Who's Next (1971) Expanded Remastered 1995 [Re-Up]

Posted By: Designol
The Who - Who's Next (1971) Expanded Remastered 1995 [Re-Up]

The Who - Who's Next (1971) Expanded Remastered 1995
EAC | FLAC | Tracks (Cue&Log) ~ 481 Mb | Mp3 (CBR320) ~ 178 Mb | Scans ~ 151 Mb
Classic Rock, Hard Rock, Psychedelic Rock | Label: Polydor | # 527 760-2 | Time: 01:18:00

A mix of old favorites and buried treasures makes this edition of Who's Next a definite must. One of the defining albums of 70s hard rock from one of the 60s most successful bands, the original album includes some of The Who's best-known work, such as the anthemic "Baba O'Riley" and "Won't Get Fooled Again", the by turns sorrowful and angry "Behind Blue Eyes", and perennial favorite "My Wife". The new tracks on this album are equally worth hearing, including "Pure and Easy" (an alternate edition of which is available on Odds & Sods) and the original version of "Behind Blue Eyes". A hard rock classic, Who's Next is required listening for rock fans of all ages.

Much of Who's Next derives from Lifehouse, an ambitious sci-fi rock opera Pete Townshend abandoned after suffering a nervous breakdown, caused in part from working on the sequel to Tommy. There's no discernable theme behind these songs, yet this album is stronger than Tommy, falling just behind Who Sell Out as the finest record the Who ever cut. Townshend developed an infatuation with synthesizers during the recording of the album, and they're all over this album, adding texture where needed and amplifying the force, which is already at a fever pitch. Apart from Live at Leeds, the Who have never sounded as LOUD and unhinged as they do here, yet that's balanced by ballads, both lovely ("The Song Is Over") and scathing ("Behind Blue Eyes"). That's the key to Who's Next – there's anger and sorrow, humor and regret, passion and tumult, all wrapped up in a blistering package where the rage is as affecting as the heartbreak. This is a retreat from the '60s, as Townshend declares the "Song Is Over," scorns the teenage wasteland, and bitterly declares that we "Won't Get Fooled Again." For all the sorrow and heartbreak that runs beneath the surface, this is an invigorating record, not just because Keith Moon runs rampant or because Roger Daltrey has never sung better or because John Entwistle spins out manic basslines that are as captivating as his "My Wife" is funny. This is invigorating because it has all of that, plus Townshend laying his soul bare in ways that are funny, painful, and utterly life-affirming. That is what the Who was about, not the rock operas, and that's why Who's Next is truer than Tommy or the abandoned Lifehouse. Those were art – this, even with its pretensions, is rock & roll.

Review by Stephen Thomas Erlewine, Allmusic.com

The Who - Who's Next (1971) Expanded Remastered 1995 [Re-Up]



Tracklist:

01. Baba O'Riley (05:09)
02. Bargain (05:34)
03. Love Ain't For Keeping (02:10)
04. My Wife (03:41)
05. The Song Is Over (06:14)
06. Getting In Tune (04:50)
07. Going Mobile (03:43)
08. Behind Blue Eyes (03:42)
09. Won't Get Fooled Again (08:33)

Bonus Tracks:

10. Pure And Easy (New York Record Plant Session) (04:21)
11. Baby Don't You Do It (New York Record Plant Session) (05:14)
12. Naked Eye (Live) (05:31)
13. Water (Live) (06:25)
14. Too Much Of Anything (04:25)
15. I Don't Even Know Myself (04:56)
16. Behind Blue Eyes (New York Record Plant Session) (03:26)


Exact Audio Copy V1.0 beta 4 from 7. December 2014

EAC extraction logfile from 15. October 2016, 23:02

The Who / Who's Next

Used drive : TSSTcorpCDDVDW SH-224DB Adapter: 1 ID: 0

Read mode : Secure
Utilize accurate stream : Yes
Defeat audio cache : Yes
Make use of C2 pointers : No

Read offset correction : 6
Overread into Lead-In and Lead-Out : No
Fill up missing offset samples with silence : Yes
Delete leading and trailing silent blocks : No
Null samples used in CRC calculations : Yes
Used interface : Native Win32 interface for Win NT & 2000
Gap handling : Appended to previous track

Used output format : User Defined Encoder
Selected bitrate : 896 kBit/s
Quality : High
Add ID3 tag : No
Command line compressor : C:\Program Files\Exact Audio Copy\Flac\flac.exe
Additional command line options : -6 -V -T "ARTIST=%artist%" -T "TITLE=%title%" -T "ALBUM=%albumtitle%" -T "DATE=%year%" -T "TRACKNUMBER=%tracknr%" -T "GENRE=%genre%" -T "COMMENT=%comment%" %source% -o %dest%


TOC of the extracted CD

Track | Start | Length | Start sector | End sector
––––––––––––––––––––––––––––-
1 | 0:00.00 | 5:09.42 | 0 | 23216
2 | 5:09.42 | 5:34.10 | 23217 | 48276
3 | 10:43.52 | 2:10.25 | 48277 | 58051
4 | 12:54.02 | 3:41.68 | 58052 | 74694
5 | 16:35.70 | 6:14.52 | 74695 | 102796
6 | 22:50.47 | 4:50.20 | 102797 | 124566
7 | 27:40.67 | 3:43.13 | 124567 | 141304
8 | 31:24.05 | 3:42.35 | 141305 | 157989
9 | 35:06.40 | 8:33.00 | 157990 | 196464
10 | 43:39.40 | 4:21.70 | 196465 | 216109
11 | 48:01.35 | 5:14.45 | 216110 | 239704
12 | 53:16.05 | 5:31.07 | 239705 | 264536
13 | 58:47.12 | 6:25.45 | 264537 | 293456
14 | 65:12.57 | 4:25.10 | 293457 | 313341
15 | 69:37.67 | 4:56.08 | 313342 | 335549
16 | 74:34.00 | 3:26.65 | 335550 | 351064


Track 1

Filename C:\New Folder\01 - Baba O'Riley.wav

Pre-gap length 0:00:02.00

Peak level 89.9 %
Extraction speed 2.0 X
Track quality 100.0 %
Test CRC 97112D35
Copy CRC 97112D35
Accurately ripped (confidence 73) [4A625720] (AR v2)
Copy OK

Track 2

Filename C:\New Folder\02 - Bargain.wav

Pre-gap length 0:00:00.27

Peak level 89.2 %
Extraction speed 2.3 X
Track quality 100.0 %
Test CRC 60BA61A5
Copy CRC 60BA61A5
Accurately ripped (confidence 71) [D2741296] (AR v2)
Copy OK

Track 3

Filename C:\New Folder\03 - Love Ain't For Keeping.wav

Pre-gap length 0:00:01.12

Peak level 90.2 %
Extraction speed 2.1 X
Track quality 100.0 %
Test CRC C080ECF0
Copy CRC C080ECF0
Accurately ripped (confidence 72) [FF542A01] (AR v2)
Copy OK

Track 4

Filename C:\New Folder\04 - My Wife.wav

Pre-gap length 0:00:00.02

Peak level 92.8 %
Extraction speed 2.4 X
Track quality 100.0 %
Test CRC 52BD314F
Copy CRC 52BD314F
Accurately ripped (confidence 71) [6B0A375E] (AR v2)
Copy OK

Track 5

Filename C:\New Folder\05 - The Song Is Over.wav

Pre-gap length 0:00:01.13

Peak level 92.8 %
Extraction speed 2.7 X
Track quality 100.0 %
Test CRC E334CE0A
Copy CRC E334CE0A
Accurately ripped (confidence 71) [E22A78D6] (AR v2)
Copy OK

Track 6

Filename C:\New Folder\06 - Getting In Tune.wav

Pre-gap length 0:00:00.50

Peak level 90.2 %
Extraction speed 2.8 X
Track quality 100.0 %
Test CRC 0D293EDD
Copy CRC 0D293EDD
Accurately ripped (confidence 72) [342F851E] (AR v2)
Copy OK

Track 7

Filename C:\New Folder\07 - Going Mobile.wav

Pre-gap length 0:00:00.02

Peak level 92.8 %
Extraction speed 2.9 X
Track quality 100.0 %
Test CRC 49D133F1
Copy CRC 49D133F1
Accurately ripped (confidence 71) [202CB5A8] (AR v2)
Copy OK

Track 8

Filename C:\New Folder\08 - Behind Blue Eyes.wav

Pre-gap length 0:00:00.30

Peak level 100.0 %
Extraction speed 2.9 X
Track quality 100.0 %
Test CRC 6CCD8DEC
Copy CRC 6CCD8DEC
Accurately ripped (confidence 74) [F066FFAB] (AR v2)
Copy OK

Track 9

Filename C:\New Folder\09 - Won't Get Fooled Again.wav

Pre-gap length 0:00:00.58

Peak level 95.3 %
Extraction speed 3.4 X
Track quality 100.0 %
Test CRC 19B1E0EC
Copy CRC 19B1E0EC
Accurately ripped (confidence 74) [74C79836] (AR v2)
Copy OK

Track 10

Filename C:\New Folder\10 - Pure And Easy (New York Record Plant Session).wav

Pre-gap length 0:00:00.48

Peak level 92.8 %
Extraction speed 2.7 X
Track quality 99.9 %
Test CRC A46D5B41
Copy CRC A46D5B41
Accurately ripped (confidence 67) [25C789E1] (AR v2)
Copy OK

Track 11

Filename C:\New Folder\11 - Baby Don't You Do It (New York Record Plant Session).wav

Pre-gap length 0:00:02.03

Peak level 97.0 %
Extraction speed 3.6 X
Track quality 100.0 %
Test CRC CBBFEC1D
Copy CRC CBBFEC1D
Accurately ripped (confidence 69) [5B997E9D] (AR v2)
Copy OK

Track 12

Filename C:\New Folder\12 - Naked Eye (Live).wav

Pre-gap length 0:00:00.60

Peak level 95.1 %
Extraction speed 3.8 X
Track quality 100.0 %
Test CRC 6BBA7DD9
Copy CRC 6BBA7DD9
Accurately ripped (confidence 68) [1CD7B258] (AR v2)
Copy OK

Track 13

Filename C:\New Folder\13 - Water (Live).wav

Pre-gap length 0:00:00.02

Peak level 95.1 %
Extraction speed 3.9 X
Track quality 100.0 %
Test CRC 7F072C8E
Copy CRC 7F072C8E
Accurately ripped (confidence 68) [6BC4F536] (AR v2)
Copy OK

Track 14

Filename C:\New Folder\14 - Too Much Of Anything.wav

Pre-gap length 0:00:00.02

Peak level 92.8 %
Extraction speed 3.9 X
Track quality 100.0 %
Test CRC EE80A140
Copy CRC EE80A140
Accurately ripped (confidence 68) [10291D79] (AR v2)
Copy OK

Track 15

Filename C:\New Folder\15 - I Don't Even Know Myself.wav

Pre-gap length 0:00:00.35

Peak level 92.8 %
Extraction speed 3.2 X
Track quality 99.9 %
Test CRC 32B057AC
Copy CRC 32B057AC
Accurately ripped (confidence 69) [1E54D964] (AR v2)
Copy OK

Track 16

Filename C:\New Folder\16 - Behind Blue Eyes (New York Record Plant Session).wav

Pre-gap length 0:00:01.45

Peak level 90.7 %
Extraction speed 3.9 X
Track quality 100.0 %
Test CRC CB27F37F
Copy CRC CB27F37F
Accurately ripped (confidence 69) [8A738A29] (AR v2)
Copy OK


All tracks accurately ripped

No errors occurred

End of status report

–– CUETools DB Plugin V2.1.4

[CTDB TOCID: qlWkr5.b9xhUYwIm1q9p42.1JwY-] found
Submit result: qlWkr5.b9xhUYwIm1q9p42.1JwY- has been confirmed
Track | CTDB Status
1 | (884/886) Accurately ripped
2 | (885/886) Accurately ripped
3 | (883/886) Accurately ripped
4 | (882/886) Accurately ripped
5 | (880/886) Accurately ripped
6 | (884/886) Accurately ripped
7 | (885/886) Accurately ripped
8 | (883/886) Accurately ripped
9 | (155/886) Accurately ripped, or (704/886) differs in 27047 samples @03:24:16-03:24:39
10 | (882/886) Accurately ripped
11 | (883/886) Accurately ripped
12 | (883/886) Accurately ripped
13 | (877/886) Accurately ripped
14 | (877/886) Accurately ripped
15 | (872/886) Accurately ripped
16 | (872/886) Accurately ripped
If you are sure that your rip contains errors, you can use CUETools to repair it.


==== Log checksum E74807F9D871263F68CE299DD0143A90E3897C7A65A0637AC4E8573CB5E59E4D ====

foobar2000 1.2 / Dynamic Range Meter 1.1.1
log date: 2016-10-27 16:51:23

––––––––––––––––––––––––––––––––––––––––
Analyzed: The Who / Who's Next
––––––––––––––––––––––––––––––––––––––––

DR Peak RMS Duration Track
––––––––––––––––––––––––––––––––––––––––
DR9 -0.92 dB -12.50 dB 5:10 01-Baba O'Riley
DR9 -0.98 dB -12.43 dB 5:34 02-Bargain
DR10 -0.89 dB -11.69 dB 2:10 03-Love Ain't For Keeping
DR9 -0.65 dB -10.66 dB 3:42 04-My Wife
DR9 -0.65 dB -11.75 dB 6:15 05-The Song Is Over
DR9 -0.89 dB -11.70 dB 4:50 06-Getting In Tune
DR9 -0.65 dB -11.53 dB 3:43 07-Going Mobile
DR10 0.00 dB -12.84 dB 3:42 08-Behind Blue Eyes
DR8 -0.41 dB -10.31 dB 8:33 09-Won't Get Fooled Again
DR10 -0.65 dB -12.63 dB 4:22 10-Pure And Easy (New York Record Plant Session)
DR9 -0.26 dB -11.20 dB 5:15 11-Baby Don't You Do It (New York Record Plant Session)
DR11 -0.43 dB -13.60 dB 5:31 12-Naked Eye (Live)
DR10 -0.43 dB -12.78 dB 6:26 13-Water (Live)
DR10 -0.64 dB -12.49 dB 4:25 14-Too Much Of Anything
DR9 -0.64 dB -12.27 dB 4:56 15-I Don't Even Know Myself
DR9 -0.84 dB -14.23 dB 3:27 16-Behind Blue Eyes (New York Record Plant Session)
––––––––––––––––––––––––––––––––––––––––

Number of tracks: 16
Official DR value: DR9

Samplerate: 44100 Hz
Channels: 2
Bits per sample: 16
Bitrate: 795 kbps
Codec: FLAC
================================================================================

The Who - Who's Next (1971) Expanded Remastered 1995 [Re-Up]

The Who - Who's Next (1971) Expanded Remastered 1995 [Re-Up]

All thanks to original releaser - alekow

More interesting music in My Blog