Subcategories

The Yardbirds - Greatest Hits (1986)

Posted By: v3122
The Yardbirds - Greatest Hits (1986)

The Yardbirds - Greatest Hits (1986)
EAC | Flac(Image) + Cue + Log & MP3 CBR 320Kbps
Charly Rec., CDCharly 8 | ~ 269 or 100 Mb | Scans(jpg) -> 25 Mb
Classic Rock

The Yardbirds are an English rock band, formed in London in 1963. The band's core lineup featured vocalist and harmonica player Keith Relf, drummer Jim McCarty, rhythm guitarist/bassist Chris Dreja and bassist/producer Paul Samwell-Smith. The band is known for starting the careers of three of rock's most famous guitarists, Eric Clapton, Jimmy Page and Jeff Beck, all of whom ranked in the top five of Rolling Stone magazine's list of 100 greatest guitarists. The band had a string of hits throughout the mid-1960s, including "For Your Love", "Heart Full of Soul", "Shapes of Things" and "Over Under Sideways Down".

A blues-based band noted for their signature "rave-up" instrumental breaks, the Yardbirds broadened their range into pop, pioneering psychedelic rock and early hard rock; and contributed to many electric guitar innovations of the mid-1960s, such as feedback, distortion and "fuzztone". The band's influence on both the music of the times and genres to come was great, and they inspired a host of imitators such as the Count Five and The Shadows of Knight. Some rock critics and historians credit the Yardbirds with heavily contributing to, if not inventing, "the birth of psychedelic music" and sowing the seeds of punk rock, progressive rock and heavy metal, among other genres. Following the band's split in 1968, Relf and McCarty formed Renaissance and guitarist Jimmy Page formed what became Led Zeppelin.

The band were inducted into the Rock and Roll Hall of Fame in 1992.[8] They were included as No. 89 in Rolling Stone's list of the "100 Greatest Artists of All Time", and ranked No. 37 on VH1's 100 Greatest Artists of Hard Rock.

The Yardbirds reformed in the 1990s, featuring drummer Jim McCarty and rhythm guitarist/bassist Chris Dreja as the only original members of the band. Dreja left the band in 2012, leaving McCarty as the sole original member of the band present in the lineup…

~ allmusic
The Yardbirds - Greatest Hits (1986):

The Yardbirds - Greatest Hits (1986)

Tracklist:

01. For Your Love
02. Putty in Your Hands
03. Got to Hurry
04. I Wish You Would
05. Good Morning Little Schoolgirl
06. Evil Hearted You
07. Still I'm Sad
08. Heartful of Soul
09. Jeff's Blues
10. Shapes of Things
11. Steeled Blues
12. Stroll On
13. A Certain Girl
14. I Ain't Got You
15. Train Kept a Rolling
16. I'm a Man

Exact Audio Copy V1.3 from 2. September 2016

EAC extraction logfile from 21. May 2018, 23:46

The Yardbirds / Greatest Hits

Used drive : SONY BD RW BDX-S600U Adapter: 1 ID: 2

Read mode : Secure
Utilize accurate stream : Yes
Defeat audio cache : Yes
Make use of C2 pointers : No

Read offset correction : 48
Overread into Lead-In and Lead-Out : No
Fill up missing offset samples with silence : Yes
Delete leading and trailing silent blocks : No
Null samples used in CRC calculations : Yes
Used interface : Native Win32 interface for Win NT & 2000

Used output format : User Defined Encoder
Selected bitrate : 768 kBit/s
Quality : High
Add ID3 tag : No
Command line compressor : C:\Program Files (x86)\Exact Audio Copy\FLAC\FLAC.EXE
Additional command line options : -V -8 -T "Date=%year%" -T "Genre=%genre%" %source%


TOC of the extracted CD

Track | Start | Length | Start sector | End sector
––––––––––––––––––––––––––––-
1 | 0:00.33 | 2:29.35 | 33 | 11242
2 | 2:29.68 | 2:18.15 | 11243 | 21607
3 | 4:48.08 | 2:36.40 | 21608 | 33347
4 | 7:24.48 | 2:19.55 | 33348 | 43827
5 | 9:44.28 | 2:47.60 | 43828 | 56412
6 | 12:32.13 | 2:24.15 | 56413 | 67227
7 | 14:56.28 | 2:57.12 | 67228 | 80514
8 | 17:53.40 | 2:28.45 | 80515 | 91659
9 | 20:22.10 | 3:04.35 | 91660 | 105494
10 | 23:26.45 | 2:26.45 | 105495 | 116489
11 | 25:53.15 | 2:34.60 | 116490 | 128099
12 | 28:28.00 | 2:45.03 | 128100 | 140477
13 | 31:13.03 | 2:19.65 | 140478 | 150967
14 | 33:32.68 | 2:02.15 | 150968 | 160132
15 | 35:35.08 | 3:26.02 | 160133 | 175584
16 | 39:01.10 | 2:36.40 | 175585 | 187324


Range status and errors

Selected range

Filename K:\1986. The Yardbirds - Greatest Hits (Charly Rec., CDCharly 8, France)\The Yardbirds - Greatest Hits.wav

Peak level 100.0 %
Extraction speed 6.3 X
Range quality 100.0 %
Test CRC B0EAFB4C
Copy CRC B0EAFB4C
Copy OK

No errors occurred


AccurateRip summary

Track 1 accurately ripped (confidence 5) [09B62961] (AR v2)
Track 2 accurately ripped (confidence 5) [0DBC8BA1] (AR v2)
Track 3 accurately ripped (confidence 5) [3E0C7DC7] (AR v2)
Track 4 accurately ripped (confidence 5) [30F31323] (AR v2)
Track 5 accurately ripped (confidence 5) [A1B56F8A] (AR v2)
Track 6 accurately ripped (confidence 5) [5612E37D] (AR v2)
Track 7 accurately ripped (confidence 5) [2C5185B7] (AR v2)
Track 8 accurately ripped (confidence 5) [3CFC412F] (AR v2)
Track 9 accurately ripped (confidence 5) [05FF0E79] (AR v2)
Track 10 accurately ripped (confidence 5) [6B929BBE] (AR v2)
Track 11 accurately ripped (confidence 6) [0B361BFD] (AR v2)
Track 12 accurately ripped (confidence 6) [AF69713D] (AR v2)
Track 13 accurately ripped (confidence 6) [9F76A7EA] (AR v2)
Track 14 accurately ripped (confidence 6) [54EAD95B] (AR v2)
Track 15 accurately ripped (confidence 6) [B0980F40] (AR v2)
Track 16 accurately ripped (confidence 6) [FBC5E955] (AR v2)

All tracks accurately ripped

End of status report

–– CUETools DB Plugin V2.1.6

[CTDB TOCID: 5zFcsORohDF2iRazrKE0up7Ep28-] found
Submit result: 5zFcsORohDF2iRazrKE0up7Ep28- has been confirmed
Track | CTDB Status
1 | (12/13) Accurately ripped
2 | (12/13) Accurately ripped
3 | (12/13) Accurately ripped
4 | (12/13) Accurately ripped
5 | (12/13) Accurately ripped
6 | (12/13) Accurately ripped
7 | (12/13) Accurately ripped
8 | (12/13) Accurately ripped
9 | (12/13) Accurately ripped
10 | (12/13) Accurately ripped
11 | (12/13) Accurately ripped
12 | (12/13) Accurately ripped
13 | (12/13) Accurately ripped
14 | (12/13) Accurately ripped
15 | (12/13) Accurately ripped
16 | (11/13) Accurately ripped


==== Log checksum 2D81AF70E2458AA40C98FF87C52E586BCD03236BD7C9379B9631C0B01FA483F1 ====


[CUETools log; Date: 22.05.2018 13:10:51; Version: 2.1.5]
Pregap length 00:00:33.
[AccurateRip ID: 0017f692-0120ce5b-cf09c110] found.
Track [ CRC | V2 ] Status
01 [a786b76a|09b62961] (02+05/15) Accurately ripped
02 [5ab370f5|0dbc8ba1] (02+05/15) Accurately ripped
03 [5ec18cd2|3e0c7dc7] (02+05/15) Accurately ripped
04 [a1ad9596|30f31323] (00+05/13) Accurately ripped
05 [819e5361|a1b56f8a] (02+05/15) Accurately ripped
06 [8a416224|5612e37d] (02+05/15) Accurately ripped
07 [6f3a6c1f|2c5185b7] (02+05/15) Accurately ripped
08 [d202cddc|3cfc412f] (02+05/15) Accurately ripped
09 [36f5dbcc|05ff0e79] (02+05/15) Accurately ripped
10 [da53395d|6b929bbe] (02+05/14) Accurately ripped
11 [14c75318|0b361bfd] (02+06/16) Accurately ripped
12 [8dd8163b|af69713d] (02+06/16) Accurately ripped
13 [39215c29|9f76a7ea] (02+06/16) Accurately ripped
14 [1a19709e|54ead95b] (02+06/16) Accurately ripped
15 [49d1e3b9|b0980f40] (02+06/16) Accurately ripped
16 [7137e445|fbc5e955] (02+06/16) Accurately ripped
Offsetted by -552:
01 [3280d28a] (03/15) Accurately ripped
02 [e55637cd] (03/15) Accurately ripped
03 [7218dd4a] (03/15) Accurately ripped
04 [0bab003e] (03/13) Accurately ripped
05 [45dab311] (03/15) Accurately ripped
06 [44d9a564] (03/15) Accurately ripped
07 [1645c1c7] (03/15) Accurately ripped
08 [2e65edd4] (03/15) Accurately ripped
09 [f6da155c] (03/15) Accurately ripped
10 [1e29d3bd] (03/14) Accurately ripped
11 [f83a1fe0] (03/16) Accurately ripped
12 [0b1e8493] (03/16) Accurately ripped
13 [900a86a9] (03/16) Accurately ripped
14 [02c97086] (03/16) Accurately ripped
15 [4199a5f1] (03/16) Accurately ripped
16 [a58669b5] (03/16) Accurately ripped

Track Peak [ CRC32 ] [W/O NULL] [ LOG ]
– 100,0 [B0EAFB4C] [179E3A32] CRC32
01 88,3 [59483807] [16F14525]
02 96,5 [9760F863] [131B8C44]
03 90,3 [2937391E] [B27F9DF0]
04 100,0 [1F82E21D] [94D58674]
05 84,1 [C9FD4E4D] [EB7DA2F7]
06 85,3 [DE27C74C] [9F05ED09]
07 95,2 [17C6819B] [F0CC869C]
08 100,0 [892EF8FB] [6FFAA32E]
09 94,3 [22DF0B3D] [2FAA923E]
10 95,9 [BD6EB8EE] [5D9BADE4]
11 100,0 [5656C706] [CE43EA25]
12 95,4 [C2BCD8DF] [1363DE90]
13 89,9 [F57FE3B4] [E4E89AFC]
14 100,0 [90F71707] [BBBCBF9C]
15 82,5 [07301564] [5739598A]
16 95,4 [12304520] [B6E1ECA7]


The Yardbirds - Greatest Hits (1986)

All thanks go to alonzo

The Yardbirds or The Yardbirds in my Blog

Download The Yardbirds - Greatest Hits (1986):