Tags
Language
Tags
December 2022
Su Mo Tu We Th Fr Sa
27 28 29 30 1 2 3
4 5 6 7 8 9 10
11 12 13 14 15 16 17
18 19 20 21 22 23 24
25 26 27 28 29 30 31

Phronesis, Frankfurt Radio Big Band & Julian Argüelles - The Behemoth (2017)

Posted By: SERTiL
Phronesis, Frankfurt Radio Big Band & Julian Argüelles - The Behemoth (2017)

Phronesis, Frankfurt Radio Big Band & Julian Argüelles - The Behemoth
EAC Rip | FLAC (tracks)+cue, log, m3u, scans | 64:43 min | 422 MB
Label: Edition Records - EDN1085 | Tracks: 10 | Rls.date: 2017
Jazz, Big Band

Phronesis have built a formidable reputation over the last decade as one of the most powerful and energetic small ensembles on the European jazz scene. Known for their virtuosity, dynamism and telepathic group interplay, the trio have commanded impressive media attention and established a substantial fanbase on a global level. Following six critically acclaimed trio albums, the band have now completed their most ambitious recording to date with the release of The Behemoth. Consisting of ten arrangements and re-imaginings of compositions from their back catalogue by Julian Argüelles, this remarkable, vibrant new album featuring the Frankfurt Radio Big Band is rich in colour and bursting with spirit and creativity.

Julian Argüelles plays a pivotal role throughout this album, demonstrating his masterful ability as arranger and conductor, and also appearing as a soloist on Eger’s ‘Urban Control’. All three members of the trio have been long time admirers of Julian’s playing, writing and arranging and when an opportunity arose for them to collaborate, they all jumped at the chance. Likewise, the Frankfurt Radio Big Band have an impressive story, having been one of the key radio big bands in Europe for many years, collaborating with a plethora of international jazz artists . Tackling the music of Phronesis is no easy task for any large ensemble, but with Julian at the helm, they met the challenge with creative energy.

Phronesis, Frankfurt Radio Big Band & Julian Argüelles - The Behemoth (2017)


TRACKLIST
1. Ok Chorale (03:49)
2. Untitled#1 (06:58)
3. Stillness (09:09)
4. Herne Hill (04:55)
5. Charm Defensive (06:36)
6. Zieding (09:46)
7. Phraternal (06:53)
8. Intro To Urban Control (02:49)
9. Urban Control (07:45)
10. Happy Notes (06:07)

PERSONNEL
Julian Argüelles, arranger, conductor (tenor saxophone solo on #9)
Jasper Høiby - double bass
Ivo Neame - piano
Anton Eger - drums

Frankfurt Radio Big Band (hr-Bigband):
Heinz-Dieter Sauerborn ss/as/fl/picc
Oliver Leicht as/cl (clarinet solo on #3)
Tony Lakatos ts/a-fl (tenor solo on #1)
Steffen Weber ts (tenor solo on #3)
Rainer Heute bs/b-cl
Frank Wellert tp/flh
Thomas Vogel tp/flh
Martin Auer tp/flh (trumpet solo on #8)
Axel Schlosser tp/flh (trumpet solo on #6)
Günter Bollmann tb
Peter Feil tb (trombone solo on #4)
Christian Jaksjø tb/b-tp (bass trumpet solo on #5)
Manfred Honetschläger b-tb
Martin Scales g (guitar solos on #2 and #10)

Exact Audio Copy V1.0 beta 3 from 29. August 2011

EAC extraction logfile from 22. May 2017, 11:41

Phronesis / The Behemoth

Used drive : Optiarc DVD RW AD-5170A Adapter: 1 ID: 0

Read mode : Secure
Utilize accurate stream : Yes
Defeat audio cache : Yes
Make use of C2 pointers : No

Read offset correction : 48
Overread into Lead-In and Lead-Out : No
Fill up missing offset samples with silence : Yes
Delete leading and trailing silent blocks : No
Null samples used in CRC calculations : Yes
Used interface : Native Win32 interface for Win NT & 2000
Gap handling : Appended to previous track

Used output format : User Defined Encoder
Selected bitrate : 896 kBit/s
Quality : High
Add ID3 tag : No
Command line compressor : D:\soft\ExactAudioCopyPortable\App\EAC\Flac\flac.exe
Additional command line options : -8 -V -T "ARTIST=%artist%" -T "TITLE=%title%" -T "ALBUM=%albumtitle%" -T "DATE=%year%" -T "TRACKNUMBER=%tracknr%" -T "GENRE=%genre%" -T "PERFORMER=%albuminterpret%" -T "COMPOSER=%composer%" %haslyrics%–tag-from-file=LYRICS="%lyricsfile%"%haslyrics% -T "ALBUMARTIST=%albumartist%" -T "DISCNUMBER=%cdnumber%" -T "TOTALDISCS=%totalcds%" -T "TOTALTRACKS=%numtracks%" -T "COMMENT=%comment%" %source% -o %dest%


TOC of the extracted CD

Track | Start | Length | Start sector | End sector
––––––––––––––––––––––––––––-
1 | 0:00.00 | 3:49.02 | 0 | 17176
2 | 3:49.02 | 6:58.23 | 17177 | 48549
3 | 10:47.25 | 9:08.44 | 48550 | 89693
4 | 19:55.69 | 4:54.50 | 89694 | 111793
5 | 24:50.44 | 6:36.19 | 111794 | 141512
6 | 31:26.63 | 9:45.69 | 141513 | 185456
7 | 41:12.57 | 6:53.07 | 185457 | 216438
8 | 48:05.64 | 2:48.33 | 216439 | 229071
9 | 50:54.22 | 7:45.19 | 229072 | 263965
10 | 58:39.41 | 6:07.00 | 263966 | 291490


Track 1

Filename D:\patefon\Phronesis - The Behemoth (2017) [CD FLAC] {EDN1085}\01 OK Chorale.wav

Pre-gap length 0:00:02.00

Peak level 92.2 %
Extraction speed 1.2 X
Track quality 100.0 %
Test CRC F91F76BC
Copy CRC F91F76BC
Track not present in AccurateRip database
Copy OK

Track 2

Filename D:\patefon\Phronesis - The Behemoth (2017) [CD FLAC] {EDN1085}\02 Untitled#1.wav

Peak level 94.1 %
Extraction speed 1.4 X
Track quality 99.9 %
Test CRC 19A8F6D9
Copy CRC 19A8F6D9
Track not present in AccurateRip database
Copy OK

Track 3

Filename D:\patefon\Phronesis - The Behemoth (2017) [CD FLAC] {EDN1085}\03 Stillness.wav

Peak level 93.0 %
Extraction speed 1.7 X
Track quality 100.0 %
Test CRC 71849CD7
Copy CRC 71849CD7
Track not present in AccurateRip database
Copy OK

Track 4

Filename D:\patefon\Phronesis - The Behemoth (2017) [CD FLAC] {EDN1085}\04 Herne Hill.wav

Peak level 91.4 %
Extraction speed 1.8 X
Track quality 100.0 %
Test CRC 533C37FB
Copy CRC 533C37FB
Track not present in AccurateRip database
Copy OK

Track 5

Filename D:\patefon\Phronesis - The Behemoth (2017) [CD FLAC] {EDN1085}\05 Charm Defensive.wav

Peak level 91.1 %
Extraction speed 2.0 X
Track quality 100.0 %
Test CRC 17231BB5
Copy CRC 17231BB5
Track not present in AccurateRip database
Copy OK

Track 6

Filename D:\patefon\Phronesis - The Behemoth (2017) [CD FLAC] {EDN1085}\06 Zieding.wav

Peak level 91.8 %
Extraction speed 2.3 X
Track quality 100.0 %
Test CRC AEDAD74E
Copy CRC AEDAD74E
Track not present in AccurateRip database
Copy OK

Track 7

Filename D:\patefon\Phronesis - The Behemoth (2017) [CD FLAC] {EDN1085}\07 Phraternal.wav

Peak level 91.3 %
Extraction speed 2.4 X
Track quality 100.0 %
Test CRC B39112D8
Copy CRC B39112D8
Track not present in AccurateRip database
Copy OK

Track 8

Filename D:\patefon\Phronesis - The Behemoth (2017) [CD FLAC] {EDN1085}\08 Intro to Urban Control.wav

Peak level 90.6 %
Extraction speed 2.2 X
Track quality 100.0 %
Test CRC 3D8378DA
Copy CRC 3D8378DA
Track not present in AccurateRip database
Copy OK

Track 9

Filename D:\patefon\Phronesis - The Behemoth (2017) [CD FLAC] {EDN1085}\09 Urban Control.wav

Peak level 93.7 %
Extraction speed 2.6 X
Track quality 100.0 %
Test CRC D40144DD
Copy CRC D40144DD
Track not present in AccurateRip database
Copy OK

Track 10

Filename D:\patefon\Phronesis - The Behemoth (2017) [CD FLAC] {EDN1085}\10 Happy Notes.wav

Peak level 92.5 %
Extraction speed 2.6 X
Track quality 100.0 %
Test CRC 6F844750
Copy CRC 6F844750
Track not present in AccurateRip database
Copy OK


None of the tracks are present in the AccurateRip database

No errors occurred

End of status report

–– CUETools DB Plugin V2.1.3

[CTDB TOCID: EtCtC89lrtqFkHxr9vJvw2_c1Pk-] found, Submit result: EtCtC89lrtqFkHxr9vJvw2_c1Pk- has been confirmed
[28db1b2e] (4/4) Accurately ripped


==== Log checksum 9F40BC715FF3AF578B0D6163406B3CC3B9CB7B8CD58B6A9818CB980A903D7054 ====


Phronesis, Frankfurt Radio Big Band & Julian Argüelles - The Behemoth (2017)


Thanks to the Original customer.