Tags
Language
Tags

The Kate Lush Band - Let It Fly (2017)

Posted By: SERTiL
The Kate Lush Band - Let It Fly (2017)

The Kate Lush Band - Let It Fly
EAC Rip | FLAC (tracks)+cue, log, m3u, front cover | 52:44 min | 333 MB
Label: Independent | Tracks: 12 | Rls.date: 2017
Blues Soul, Funky Blues

Lush is taking off into a whole new stratosphere, right now with her brand new award winning album LET IT FLY. The Aust Blues Chain Award winner is in creative overdrive, firing out a #1 Album last year & rocking festival stages & venues all over Australia, & here she is again with her unmistakable soulful grit, that red hot band & some of the best songwriting around (recently picking up a 2017 U.S. IAMA 2017 (AAA) Finalist Award & U.S. ISC Semi Award).

Review…. iTnes "Dropshot Dave" * * * * *
Love this new album from the irrepressible Kate Lush. … If you like Soul and 'true R&B', you'll love every track on this. Kate's voice is powerful, yet engaging… contemporary, though also a throwback to the great female vocalists of the 60's Soul. Kate played at the venue I book and the audience loved every note she sang.

“Congratulations on an outstanding new cd. It is "world class" & showcases terrific vocal talents, great songwriting & tight arrangements & the production is 1st class. I love the range of styles from classic up-tempo funk, to cool blues and RnB & sweeping epic ballads. Your rendition of John Prine's song "Angel from Montgomery" is truly inspiring. A beautiful piece. You should be very proud of this album and i hope it gets all the attention and success it richly deserves.” David Roman - 2SSRFM 99.7
The Mystery Train - Panel Member Aust. Blues & Roots Airplay Chart

TRACKLIST
1. Pack It Up (03:36)
2. River Flow (04:08)
3. Last Mistake (03:34)
4. Come With Me (05:22)
5. Yours or My Way (04:13)
6. Stranded (04:45)
7. Somebody Like Me (03:58)
8. I've Moved On (05:07)
9. Roll Over You (03:30)
10. High Time (04:00)
11. Good Good Love (05:06)
12. Angel From Montgomery (05:29)

Exact Audio Copy V1.3 from 2. September 2016

EAC extraction logfile from 18. April 2017, 17:47

The Kate Lush Band / Let It Fly

Used drive : TSSTcorpCD/DVDW SH-S182M Adapter: 1 ID: 0

Read mode : Secure
Utilize accurate stream : Yes
Defeat audio cache : Yes
Make use of C2 pointers : No

Read offset correction : 6
Overread into Lead-In and Lead-Out : No
Fill up missing offset samples with silence : Yes
Delete leading and trailing silent blocks : No
Null samples used in CRC calculations : Yes
Used interface : Native Win32 interface for Win NT & 2000
Gap handling : Appended to previous track

Used output format : User Defined Encoder
Selected bitrate : 768 kBit/s
Quality : High
Add ID3 tag : No
Command line compressor : C:\Program Files\Exact Audio Copy\FLAC\FLAC.EXE
Additional command line options : -6 -V -T "ARTIST=%artist%" -T "TITLE=%title%" -T "ALBUM=%albumtitle%" -T "DATE=%year%" -T "TRACKNUMBER=%tracknr%" -T "GENRE=%genre%" -T "COMMENT=%comment%" -T "BAND=%albuminterpret%" -T "ALBUMARTIST=%albuminterpret%" -T "COMPOSER=%composer%" %haslyrics%–tag-from-file=LYRICS="%lyricsfile%"%haslyrics% -T "DISCNUMBER=%cdnumber%" -T "TOTALDISCS=%totalcds%" -T "TOTALTRACKS=%numtracks%" %hascover%–picture="%coverfile%"%hascover% %source% -o %dest%


TOC of the extracted CD

Track | Start | Length | Start sector | End sector
––––––––––––––––––––––––––––-
1 | 0:00.00 | 3:35.41 | 0 | 16165
2 | 3:35.41 | 4:08.27 | 16166 | 34792
3 | 7:43.68 | 3:34.25 | 34793 | 50867
4 | 11:18.18 | 5:22.05 | 50868 | 75022
5 | 16:40.23 | 4:13.24 | 75023 | 94021
6 | 20:53.47 | 4:44.74 | 94022 | 115395
7 | 25:38.46 | 3:58.35 | 115396 | 133280
8 | 29:37.06 | 5:06.41 | 133281 | 156271
9 | 34:43.47 | 3:30.05 | 156272 | 172026
10 | 38:13.52 | 4:00.27 | 172027 | 190053
11 | 42:14.04 | 5:06.13 | 190054 | 213016
12 | 47:20.17 | 5:28.65 | 213017 | 237681


Track 1

Filename C:\Users\dickthespic\Music\Nueva carpeta\01 River Flow.wav

Pre-gap length 0:00:02.00

Peak level 100.0 %
Extraction speed 3.9 X
Track quality 100.0 %
Test CRC 7269C2A8
Copy CRC 7269C2A8
Track not present in AccurateRip database
Copy OK

Track 2

Filename C:\Users\dickthespic\Music\Nueva carpeta\02 Easy Mistake.wav

Peak level 100.0 %
Extraction speed 4.3 X
Track quality 100.0 %
Test CRC 4FD56774
Copy CRC 4FD56774
Track not present in AccurateRip database
Copy OK

Track 3

Filename C:\Users\dickthespic\Music\Nueva carpeta\03 Come With Me.wav

Peak level 100.0 %
Extraction speed 4.6 X
Track quality 100.0 %
Test CRC C84A58B5
Copy CRC C84A58B5
Track not present in AccurateRip database
Copy OK

Track 4

Filename C:\Users\dickthespic\Music\Nueva carpeta\04 Pack It Up.wav

Peak level 100.0 %
Extraction speed 5.1 X
Track quality 100.0 %
Test CRC EAF51D20
Copy CRC EAF51D20
Track not present in AccurateRip database
Copy OK

Track 5

Filename C:\Users\dickthespic\Music\Nueva carpeta\05 Yours Or My Way.wav

Peak level 100.0 %
Extraction speed 4.8 X
Track quality 99.9 %
Test CRC 276C8098
Copy CRC 276C8098
Track not present in AccurateRip database
Copy OK

Track 6

Filename C:\Users\dickthespic\Music\Nueva carpeta\06 Stranded.wav

Peak level 100.0 %
Extraction speed 5.7 X
Track quality 100.0 %
Test CRC 437F7972
Copy CRC 437F7972
Track not present in AccurateRip database
Copy OK

Track 7

Filename C:\Users\dickthespic\Music\Nueva carpeta\07 Somebody Like Me.wav

Peak level 100.0 %
Extraction speed 5.2 X
Track quality 100.0 %
Test CRC 4D665412
Copy CRC 4D665412
Track not present in AccurateRip database
Copy OK

Track 8

Filename C:\Users\dickthespic\Music\Nueva carpeta\08 I've Moved On.wav

Peak level 100.0 %
Extraction speed 6.1 X
Track quality 100.0 %
Test CRC 3E68B0CB
Copy CRC 3E68B0CB
Track not present in AccurateRip database
Copy OK

Track 9

Filename C:\Users\dickthespic\Music\Nueva carpeta\09 Roll Over You.wav

Peak level 99.9 %
Extraction speed 6.1 X
Track quality 100.0 %
Test CRC 94B72996
Copy CRC 94B72996
Track not present in AccurateRip database
Copy OK

Track 10

Filename C:\Users\dickthespic\Music\Nueva carpeta\10 High Time.wav

Peak level 100.0 %
Extraction speed 5.7 X
Track quality 99.9 %
Test CRC 320371B2
Copy CRC 320371B2
Track not present in AccurateRip database
Copy OK

Track 11

Filename C:\Users\dickthespic\Music\Nueva carpeta\11 Good Good Love.wav

Peak level 100.0 %
Extraction speed 6.7 X
Track quality 100.0 %
Test CRC A82A6634
Copy CRC A82A6634
Track not present in AccurateRip database
Copy OK

Track 12

Filename C:\Users\dickthespic\Music\Nueva carpeta\12 Angel From Montgomery.wav

Peak level 100.0 %
Extraction speed 6.9 X
Track quality 100.0 %
Test CRC FCE04851
Copy CRC FCE04851
Track not present in AccurateRip database
Copy OK


None of the tracks are present in the AccurateRip database

No errors occurred

End of status report

–– CUETools DB Plugin V2.1.6

[CTDB TOCID: KcWJ1rCAd6GZ.a51PLgqpo8s4Wk-] disk not present in database
Submit result: KcWJ1rCAd6GZ.a51PLgqpo8s4Wk- has been uploaded


==== Log checksum BEEB84ECBFE0821D41E007394AE5F6EA109F99FE7A4188A699D272EDE019DC21 ====


Thanks to the Original customer.