Subcategories

The Tangent - Down and Out in Paris and London (2009)

Posted By: socola78
The Tangent - Down and Out in Paris and London (2009)

The Tangent - Down and Out in Paris and London (2009)
Progressive Rock | EAC Rip | Multi FLAC + CUE + LOG + Cover | 64 Min | 506.3 Mb
Label: Inside Out U.S | Date Released: November 17, 2009

THE TANGENT are made up of Andy Tillison, Guy Manning, Theo Travis, Jonathan Barrett and Paul Burgess. All well known and respected musicians in the progressive rock world.. Also featuring the talents of Jakko M Jakszyk, whose reputation as a brilliant guest musician is based on his work with great names such as Level 42, Robert Fripp and Gavin Harrison. For keyboardist/vocalist Andy Tillison, it's mainly the inconsistencies of an alleged zeitgeist that provoke him to realize his musical visions. Together with his band, THE TANGENT, Tillison has assigned himself the rather difficult task of creating with a successively changing line-up music which, despite all cross-references to the Seventies, still sounds topical and future-oriented.

TrackList
1. Where Are They Now? (19:10)
2. Paroxetine - 20mg (07:47)
3. Perdu Dans Paris (11:47)
4. The Company Car (06:23)
5. Everyman's Forgotten Monday (bonus track) (06:22)
6. Ethanol Hat Nail (Canterbury Sequence Vol. 2) (12:55)

Exact Audio Copy V0.99 prebeta 5 from 4. May 2009

EAC extraction logfile from 24. November 2009, 17:06

The Tangent / Down And Out In Paris And London

Used drive : HL-DT-STDVDRAM GH20LS15 Adapter: 1 ID: 0

Read mode : Secure
Utilize accurate stream : Yes
Defeat audio cache : Yes
Make use of C2 pointers : No

Read offset correction : 667
Overread into Lead-In and Lead-Out : No
Fill up missing offset samples with silence : Yes
Delete leading and trailing silent blocks : No
Null samples used in CRC calculations : Yes
Used interface : Native Win32 interface for Win NT & 2000
Gap handling : Appended to previous track

Used output format : User Defined Encoder
Selected bitrate : 768 kBit/s
Quality : High
Add ID3 tag : No
Command line compressor : C:\Program Files\Exact Audio Copy\FLAC\FLAC.EXE
Additional command line options : -6 -V -T "ARTIST=%a" -T "TITLE=%t" -T "ALBUM=%g" -T "DATE=%y" -T "TRACKNUMBER=%n" -T "GENRE=%m" -T "COMMENT=%e" %s -o %d


TOC of the extracted CD

Track | Start | Length | Start sector | End sector
––––––––––––––––––––––––––––-
1 | 0:00.00 | 19:12.45 | 0 | 86444
2 | 19:12.45 | 7:41.37 | 86445 | 121056
3 | 26:54.07 | 11:42.06 | 121057 | 173712
4 | 38:36.13 | 6:19.63 | 173713 | 202200
5 | 44:56.01 | 6:23.20 | 202201 | 230945
6 | 51:19.21 | 12:53.53 | 230946 | 288973


Track 1

Filename J:\EAC\The Tangent - Down And Out In Paris And London (2009)\01 - Where Are They Now .wav

Pre-gap length 0:00:02.00

Peak level 97.7 %
Track quality 99.9 %
Test CRC 48D61311
Copy CRC 48D61311
Track not present in AccurateRip database
Copy OK

Track 2

Filename J:\EAC\The Tangent - Down And Out In Paris And London (2009)\02 - Paroxetine 20mg.wav

Peak level 97.7 %
Track quality 100.0 %
Test CRC 6E9361A2
Copy CRC 6E9361A2
Track not present in AccurateRip database
Copy OK

Track 3

Filename J:\EAC\The Tangent - Down And Out In Paris And London (2009)\03 - Perdu Dans Paris.wav

Peak level 97.7 %
Track quality 100.0 %
Test CRC 19FBB352
Copy CRC 19FBB352
Track not present in AccurateRip database
Copy OK

Track 4

Filename J:\EAC\The Tangent - Down And Out In Paris And London (2009)\04 - The Company Car.wav

Peak level 97.7 %
Track quality 100.0 %
Test CRC 11E460AF
Copy CRC 11E460AF
Track not present in AccurateRip database
Copy OK

Track 5

Filename J:\EAC\The Tangent - Down And Out In Paris And London (2009)\05 - Everyman's Forgotten Monday (BONUS TRACK).wav

Peak level 97.8 %
Track quality 100.0 %
Test CRC EDF50EFF
Copy CRC EDF50EFF
Track not present in AccurateRip database
Copy OK

Track 6

Filename J:\EAC\The Tangent - Down And Out In Paris And London (2009)\06 - Ethanol Hat Nail.wav

Peak level 97.7 %
Track quality 100.0 %
Test CRC 5C5BA316
Copy CRC 5C5BA316
Track not present in AccurateRip database
Copy OK


None of the tracks are present in the AccurateRip database

No errors occurred

End of status report