Subcategories

The Beatles - The Beatles 1962-1966 (1993)

Posted By: MacGuffin
The Beatles - The Beatles 1962-1966 (1993)

The Beatles - The Beatles 1962-1966
Rock | FLAC + MP3 | LOG + CUE | XLD / LAME 3.98 V0 (VBR) | 2 CDs | FLAC: 375 MB; MP3: 116 MB

1962–1966 (widely known as The Red Album) is a compilation of The Beatles' greatest hits from 1962 to 1966. It was released with 1967–1970 (The Blue Album), a compilation of their greatest hits from 1967 to 1970. 1962–1966 reached #3 in the UK and managed to reach #1 in the U.S. Cashbox albums chart. However, in the U.S. the official chart was administered by Billboard, where 1962–1966 peaked at #3, while 1967–1970 managed to meet the summit. This album was re-released in September 1993 charting at #3 in the UK.

The album was compiled by Beatles manager Allen Klein, with his selections approved by the Beatles themselves. Even though the group had had success with cover versions of songs, most notably with "Twist and Shout", which made #2 on the Billboard charts, only songs composed by The Beatles themselves were included.

Disc 1:

1. Love Me Do
2. Please Please Me
3. From Me To You
4. She Loves You
5. I Want to Hold Your Hand
6. All My Loving
7. Can't Buy Me Love
8. A Hard Day's Night
9. And I Love Her
10. Eight Days A Week
11. I Feel Fine
12. Ticket To Ride
13. Yesterday

Exact Audio Copy V0.99 prebeta 5 from 4. May 2009

EAC extraction logfile from 25. December 2009, 15:56

The Beatles / The Beatles 1962-1966

Used drive : HL-DT-STRW/DVD GCC-4244N Adapter: 1 ID: 0

Read mode : Secure
Utilize accurate stream : Yes
Defeat audio cache : Yes
Make use of C2 pointers : No

Read offset correction : 102
Overread into Lead-In and Lead-Out : No
Fill up missing offset samples with silence : Yes
Delete leading and trailing silent blocks : No
Null samples used in CRC calculations : Yes
Used interface : Native Win32 interface for Win NT & 2000
Gap handling : Appended to previous track

Used output format : User Defined Encoder
Selected bitrate : 320 kBit/s
Quality : High
Add ID3 tag : No
Command line compressor : C:\Program Files\Exact Audio Copy\lame3.98\lame.exe
Additional command line options : -V 0 –vbr-new –add-id3v2 –ignore-tag-errors –ta "%a" –tt "%t" –tg "%m" –tl "%g" –ty "%y" –tn "%n" %s %d


TOC of the extracted CD

Track | Start | Length | Start sector | End sector
––––––––––––––––––––––––––––-
1 | 0:00.00 | 2:23.37 | 0 | 10761
2 | 2:23.37 | 2:03.18 | 10762 | 20004
3 | 4:26.55 | 1:57.35 | 20005 | 28814
4 | 6:24.15 | 2:22.12 | 28815 | 39476
5 | 8:46.27 | 2:26.55 | 39477 | 50481
6 | 11:13.07 | 2:08.60 | 50482 | 60141
7 | 13:21.67 | 2:13.50 | 60142 | 70166
8 | 15:35.42 | 2:34.23 | 70167 | 81739
9 | 18:09.65 | 2:31.20 | 81740 | 93084
10 | 20:41.10 | 2:45.10 | 93085 | 105469
11 | 23:26.20 | 2:19.60 | 105470 | 115954
12 | 25:46.05 | 3:10.65 | 115955 | 130269
13 | 28:56.70 | 2:05.07 | 130270 | 139651


Track 1

Filename C:\Documents and Settings\Owner\My Documents\My Music\The Beatles 1962-1966\Disc 1\01 Love Me Do.wav

Pre-gap length 0:00:02.00

Peak level 80.6 %
Track quality 100.0 %
Copy CRC 0C1ED3F5
Accurately ripped (confidence 127) [0F97538F]
Copy OK

Track 2

Filename C:\Documents and Settings\Owner\My Documents\My Music\The Beatles 1962-1966\Disc 1\02 Please Please Me.wav

Pre-gap length 0:00:03.73

Peak level 83.9 %
Track quality 100.0 %
Copy CRC 2E073BFC
Accurately ripped (confidence 127) [AE3EF0E1]
Copy OK

Track 3

Filename C:\Documents and Settings\Owner\My Documents\My Music\The Beatles 1962-1966\Disc 1\03 From Me To You.wav

Pre-gap length 0:00:02.90

Peak level 84.3 %
Track quality 100.0 %
Copy CRC 56EED4DF
Accurately ripped (confidence 126) [2F92C0BC]
Copy OK

Track 4

Filename C:\Documents and Settings\Owner\My Documents\My Music\The Beatles 1962-1966\Disc 1\04 She Loves You.wav

Pre-gap length 0:00:01.57

Peak level 90.1 %
Track quality 100.0 %
Copy CRC 94F79194
Accurately ripped (confidence 125) [E0C4C806]
Copy OK

Track 5

Filename C:\Documents and Settings\Owner\My Documents\My Music\The Beatles 1962-1966\Disc 1\05 I Want to Hold Your Hand.wav

Pre-gap length 0:00:02.40

Peak level 80.5 %
Track quality 100.0 %
Copy CRC E7E27036
Accurately ripped (confidence 127) [35105AEF]
Copy OK

Track 6

Filename C:\Documents and Settings\Owner\My Documents\My Music\The Beatles 1962-1966\Disc 1\06 All My Loving.wav

Pre-gap length 0:00:01.62

Peak level 89.6 %
Track quality 100.0 %
Copy CRC 58379E6D
Accurately ripped (confidence 128) [9FC4EBF6]
Copy OK

Track 7

Filename C:\Documents and Settings\Owner\My Documents\My Music\The Beatles 1962-1966\Disc 1\07 Can't Buy Me Love.wav

Pre-gap length 0:00:01.96

Peak level 99.5 %
Track quality 100.0 %
Copy CRC 828B9A21
Accurately ripped (confidence 125) [F8C1F6FE]
Copy OK

Track 8

Filename C:\Documents and Settings\Owner\My Documents\My Music\The Beatles 1962-1966\Disc 1\08 A Hard Day's Night.wav

Pre-gap length 0:00:02.80

Peak level 85.3 %
Track quality 100.0 %
Copy CRC DBF78F55
Accurately ripped (confidence 127) [E8BD0223]
Copy OK

Track 9

Filename C:\Documents and Settings\Owner\My Documents\My Music\The Beatles 1962-1966\Disc 1\09 And I Love Her.wav

Pre-gap length 0:00:02.73

Peak level 79.0 %
Track quality 100.0 %
Copy CRC 82D5B5DA
Accurately ripped (confidence 125) [F666F20E]
Copy OK

Track 10

Filename C:\Documents and Settings\Owner\My Documents\My Music\The Beatles 1962-1966\Disc 1\10 Eight Days A Week.wav

Pre-gap length 0:00:02.46

Peak level 83.9 %
Track quality 100.0 %
Copy CRC 6E89EF8F
Accurately ripped (confidence 127) [978D3A29]
Copy OK

Track 11

Filename C:\Documents and Settings\Owner\My Documents\My Music\The Beatles 1962-1966\Disc 1\11 I Feel Fine.wav

Pre-gap length 0:00:01.73

Peak level 86.7 %
Track quality 99.9 %
Copy CRC 11CAB433
Accurately ripped (confidence 127) [D1E61EDE]
Copy OK

Track 12

Filename C:\Documents and Settings\Owner\My Documents\My Music\The Beatles 1962-1966\Disc 1\12 Ticket To Ride.wav

Pre-gap length 0:00:02.17

Peak level 88.0 %
Track quality 100.0 %
Copy CRC 908BE5ED
Accurately ripped (confidence 125) [56F1B0F8]
Copy OK

Track 13

Filename C:\Documents and Settings\Owner\My Documents\My Music\The Beatles 1962-1966\Disc 1\13 Yesterday.wav

Pre-gap length 0:00:01.86

Peak level 89.8 %
Track quality 100.0 %
Copy CRC 5BDC4890
Accurately ripped (confidence 126) [F0ABC371]
Copy OK


All tracks accurately ripped

No errors occurred

End of status report


Disc 2:

14. Help!
15. You've Got To Hide Your Love Away
16. We Can Work It Out
17. Day Tripper
18. Drive My Car
19. Norwegian Wood (This Bird Has Flown)
20. Nowhere Man
21. Michelle
22. In My Life
23. Girl
24. Paperback Writer
25. Eleanor Rigby
26. Yellow Submarine

Exact Audio Copy V0.99 prebeta 5 from 4. May 2009

EAC extraction logfile from 25. December 2009, 16:23

The Beatles / The Beatles 1962-1966

Used drive : HL-DT-STRW/DVD GCC-4244N Adapter: 1 ID: 0

Read mode : Secure
Utilize accurate stream : Yes
Defeat audio cache : Yes
Make use of C2 pointers : No

Read offset correction : 102
Overread into Lead-In and Lead-Out : No
Fill up missing offset samples with silence : Yes
Delete leading and trailing silent blocks : No
Null samples used in CRC calculations : Yes
Used interface : Native Win32 interface for Win NT & 2000
Gap handling : Appended to previous track

Used output format : User Defined Encoder
Selected bitrate : 320 kBit/s
Quality : High
Add ID3 tag : No
Command line compressor : C:\Program Files\Exact Audio Copy\lame3.98\lame.exe
Additional command line options : -V 0 –vbr-new –add-id3v2 –ignore-tag-errors –ta "%a" –tt "%t" –tg "%m" –tl "%g" –ty "%y" –tn "%n" %s %d


TOC of the extracted CD

Track | Start | Length | Start sector | End sector
––––––––––––––––––––––––––––-
1 | 0:00.00 | 2:19.42 | 0 | 10466
2 | 2:19.42 | 2:11.28 | 10467 | 20319
3 | 4:30.70 | 2:16.07 | 20320 | 30526
4 | 6:47.02 | 2:49.53 | 30527 | 43254
5 | 9:36.55 | 2:27.57 | 43255 | 54336
6 | 12:04.37 | 2:05.15 | 54337 | 63726
7 | 14:09.52 | 2:44.20 | 63727 | 76046
8 | 16:53.72 | 2:42.30 | 76047 | 88226
9 | 19:36.27 | 2:27.00 | 88227 | 99251
10 | 22:03.27 | 2:31.38 | 99252 | 110614
11 | 24:34.65 | 2:18.45 | 110615 | 121009
12 | 26:53.35 | 2:08.00 | 121010 | 130609
13 | 29:01.35 | 2:37.30 | 130610 | 142414


Track 1

Filename C:\Documents and Settings\Owner\My Documents\My Music\The Beatles 1962-1966\Disc 2\01 Help!.wav

Pre-gap length 0:00:02.00

Peak level 93.5 %
Track quality 100.0 %
Copy CRC C4496767
Accurately ripped (confidence 118) [5B2646C5]
Copy OK

Track 2

Filename C:\Documents and Settings\Owner\My Documents\My Music\The Beatles 1962-1966\Disc 2\02 You've Got To Hide Your Love Away.wav

Pre-gap length 0:00:02.22

Peak level 99.3 %
Track quality 100.0 %
Copy CRC BE509302
Accurately ripped (confidence 120) [BC6F7ED7]
Copy OK

Track 3

Filename C:\Documents and Settings\Owner\My Documents\My Music\The Beatles 1962-1966\Disc 2\03 We Can Work It Out.wav

Pre-gap length 0:00:02.73

Peak level 84.7 %
Track quality 100.0 %
Copy CRC 2F656A71
Accurately ripped (confidence 120) [523FFF80]
Copy OK

Track 4

Filename C:\Documents and Settings\Owner\My Documents\My Music\The Beatles 1962-1966\Disc 2\04 Day Tripper.wav

Pre-gap length 0:00:01.73

Peak level 97.2 %
Track quality 100.0 %
Copy CRC 90C92EBB
Accurately ripped (confidence 123) [06A22645]
Copy OK

Track 5

Filename C:\Documents and Settings\Owner\My Documents\My Music\The Beatles 1962-1966\Disc 2\05 Drive My Car.wav

Pre-gap length 0:00:02.17

Peak level 99.1 %
Track quality 99.9 %
Copy CRC FB796927
Accurately ripped (confidence 121) [0C10582B]
Copy OK

Track 6

Filename C:\Documents and Settings\Owner\My Documents\My Music\The Beatles 1962-1966\Disc 2\06 Norwegian Wood (This Bird Has Flown).wav

Pre-gap length 0:00:01.33

Peak level 100.0 %
Track quality 99.9 %
Copy CRC A89EFFDB
Accurately ripped (confidence 121) [900AC622]
Copy OK

Track 7

Filename C:\Documents and Settings\Owner\My Documents\My Music\The Beatles 1962-1966\Disc 2\07 Nowhere Man.wav

Pre-gap length 0:00:01.53

Peak level 98.3 %
Track quality 100.0 %
Copy CRC 89114EA6
Accurately ripped (confidence 121) [05DA0B8E]
Copy OK

Track 8

Filename C:\Documents and Settings\Owner\My Documents\My Music\The Beatles 1962-1966\Disc 2\08 Michelle.wav

Pre-gap length 0:00:01.20

Peak level 66.1 %
Track quality 100.0 %
Copy CRC C89A4AB9
Accurately ripped (confidence 118) [2B01905F]
Copy OK

Track 9

Filename C:\Documents and Settings\Owner\My Documents\My Music\The Beatles 1962-1966\Disc 2\09 In My Life.wav

Pre-gap length 0:00:01.80

Peak level 99.9 %
Track quality 100.0 %
Copy CRC 556A8218
Accurately ripped (confidence 120) [DC95873F]
Copy OK

Track 10

Filename C:\Documents and Settings\Owner\My Documents\My Music\The Beatles 1962-1966\Disc 2\10 Girl.wav

Pre-gap length 0:00:01.49

Peak level 100.0 %
Track quality 100.0 %
Copy CRC 4F36DB99
Accurately ripped (confidence 118) [A0354DA3]
Copy OK

Track 11

Filename C:\Documents and Settings\Owner\My Documents\My Music\The Beatles 1962-1966\Disc 2\11 Paperback Writer.wav

Pre-gap length 0:00:00.86

Peak level 98.3 %
Track quality 100.0 %
Copy CRC 576630AC
Accurately ripped (confidence 120) [E7DE3A8D]
Copy OK

Track 12

Filename C:\Documents and Settings\Owner\My Documents\My Music\The Beatles 1962-1966\Disc 2\12 Eleanor Rigby.wav

Pre-gap length 0:00:01.84

Peak level 68.4 %
Track quality 100.0 %
Copy CRC 17325EAF
Accurately ripped (confidence 119) [D364D955]
Copy OK

Track 13

Filename C:\Documents and Settings\Owner\My Documents\My Music\The Beatles 1962-1966\Disc 2\13 Yellow Submarine.wav

Pre-gap length 0:00:02.93

Peak level 99.8 %
Track quality 99.9 %
Copy CRC F66C34A0
Accurately ripped (confidence 118) [7898748D]
Copy OK


All tracks accurately ripped

No errors occurred

End of status report


See Also: The Beatles - The Beatles 1967-1970

Download album:
Lossless / FLAC

Part 1 | Part 2 | Part 3 | Part 4

MP3 Lossy - V0 (VBR)

Part 1