Subcategories

The Brecker Brothers - Out Of The Loop (1994) {GRP}

Posted By: tiburon
The Brecker Brothers - Out Of The Loop (1994) {GRP}

The Brecker Brothers - Out Of The Loop (1994) {GRP}
EAC 0.95b1 | FLAC tracks level 8 | Cue+Log+M3U | Full Scans 600dpi | 325MB + 5% Recovery
MP3 CBR 320 Kbps | 133MB + 5% Recovery
Genre: Jazz-Funk, Fusion

On Out of the Loop, Randy and Michael Brecker stepped up to the plate with their second long-player of the '90s, 20 years after their first foray into the jazz-funk-fusion realm. The album is surprisingly strong, and any fears of a paint-by-numbers attempt to cash in on past glories are quickly dispelled with the opening "Slang," which is reminiscent of Amandla-era Miles. Here, as throughout the disc, Michael's sax solo burns with abandon, while brother Randy's trumpet glides across a tastefully smooth and melodic terrain.
Track List
01. Slang (Brecker ) - 6:11
02. Evocations (Botti, Brecker ) - 5:16
03. Scrunch (Brecker, Brecker, Kessler … ) - 4:28
04. Secret Heart (Brecker, Elias ) - 5:03
05. African Skies (Brecker ) - 7:46
06. When It Was (Brecker, Brecker, Kessler … ) - 4:29
07. Harpoon (Brecker ) - 7:43
08. The Nightwalker (Brecker ) - 8:44
09. And Then She Wept (Brecker ) - 4:53

musicians
Michael Brecker - Arranger, Sax (Soprano), Sax (Tenor), EWI
Randy Brecker - Trumpet, Arranger, Flugelhorn
Eliane Elias - Arranger, Keyboards, Vocals
Dean Brown - Guitar
Dennis Brown - Guitar (Acoustic)
James Genus - Bass
Rodney Holmes - Drums
Steve Jordan - Drums
Maz Kessler - Arranger, Keyboards, Producer, Mixing, Rhythm Programming
Robbie Kilgore - Guitar, Arranger, Keyboards, Producer, Mixing, Rhythm Programming
Mark Ledford - Vocals (bckgr)
Shawn Pelton - Drums
Armand Sabal-Lecco - Bass, Vocals
Larry Saltzman - Guitar (Acoustic), Guitar
Andy Snitzer - Bass, Arranger, Drums, Producer, Keyboard Programming
Steve Thornton - Percussion
George Whitty - Bass, Arranger, Keyboards, Producer, Percussion Programming
Chris Botti - Bass, Arranger, Drums, Producer, Keyboard Programming

Produced by Eliane Elias, George Whitty, Maz & Kilgore, Chris Botti & Andy Snitzer


EAC extraction logfile from 20. August 2005, 20:36 for CD
Brecker Brothers / out of the loop

Used drive : PLEXTOR DVDR PX-712A Adapter: 1 ID: 0
Read mode : Secure with NO C2, accurate stream, disable cache
Read offset correction : 30
Overread into Lead-In and Lead-Out : Yes

Used output format : Internal WAV Routines
44.100 Hz; 16 Bit; Stereo

Other options :
Fill up missing offset samples with silence : No
Delete leading and trailing silent blocks : No
Installed external ASPI interface


Track 1
Filename C:\01 - Slang.wav

Pre-gap length 0:00:02.32

Peak level 96.7 %
Track quality 100.0 %
Test CRC 2ABBED51
Copy CRC 2ABBED51
Copy OK

Track 2
Filename C:\02 - Evocations.wav

Peak level 100.0 %
Track quality 100.0 %
Test CRC F919310B
Copy CRC F919310B
Copy OK

Track 3
Filename C:\03 - Scrunch.wav

Pre-gap length 0:00:01.28

Peak level 100.0 %
Track quality 100.0 %
Test CRC 9C6FF097
Copy CRC 9C6FF097
Copy OK

Track 4
Filename C:\04 - Secret Heart.wav

Pre-gap length 0:00:02.35

Peak level 100.0 %
Track quality 100.0 %
Test CRC 4B7717F0
Copy CRC 4B7717F0
Copy OK

Track 5
Filename C:\05 - African Skies.wav

Pre-gap length 0:00:00.65

Peak level 100.0 %
Track quality 100.0 %
Test CRC 11980661
Copy CRC 11980661
Copy OK

Track 6
Filename C:\06 - When It Was.wav

Pre-gap length 0:00:02.25

Peak level 100.0 %
Track quality 100.0 %
Test CRC E7A98AAA
Copy CRC E7A98AAA
Copy OK

Track 7
Filename C:\07 - Harpoon.wav

Pre-gap length 0:00:01.42

Peak level 100.0 %
Track quality 100.0 %
Test CRC F5097750
Copy CRC F5097750
Copy OK

Track 8
Filename C:\08 - The Nightwalker.wav

Pre-gap length 0:00:00.42

Peak level 99.9 %
Track quality 100.0 %
Test CRC 44A2613D
Copy CRC 44A2613D
Copy OK

Track 9
Filename C:\09 - And Then She Wept.wav

Pre-gap length 0:00:00.03

Peak level 65.3 %
Track quality 100.0 %
Test CRC 295DE20D
Copy CRC 295DE20D
Copy OK

No errors occured


End of status report


––––––––––––––––––––––––––––––––––––––––
Analyzed: Brecker Brothers / Out Of The Loop
––––––––––––––––––––––––––––––––––––––––

DR Peak RMS Duration Track
––––––––––––––––––––––––––––––––––––––––
DR13 -0.28 dB -15.55 dB 6:12 01-Slang
DR16 0.00 dB -18.46 dB 5:18 02-Evocations
DR14 0.00 dB -15.89 dB 4:32 03-Scrunch
DR14 0.00 dB -16.29 dB 5:05 04-Secret Heart
DR14 0.00 dB -16.50 dB 7:50 05-African Skies
DR14 0.00 dB -15.27 dB 4:31 06-When It Was
DR14 0.00 dB -16.16 dB 7:45 07-Harpoon
DR15 0.00 dB -18.25 dB 8:45 08-Nightwalker
DR13 -3.69 dB -20.36 dB 4:55 09-And Then She Wept
––––––––––––––––––––––––––––––––––––––––

Number of tracks: 9
Official DR value: DR14

Samplerate: 44100 Hz
Channels: 2
Bits per sample: 16
Bitrate: 653 kbps
Codec: FLAC
================================================================================

The Brecker Brothers - Out Of The Loop (1994) {GRP}
The Brecker Brothers - Out Of The Loop (1994) {GRP}
The Brecker Brothers - Out Of The Loop (1994) {GRP}


Thanks to the original ripper