Tags
Language
Tags

The Cannonball Adderley Sextet - In New York (1962) [Reissue 1987]

Posted By: gribovar
The Cannonball Adderley Sextet - In New York (1962) [Reissue 1987]

The Cannonball Adderley Sextet - In New York (1962) [Reissue 1987]
EAC Rip | FLAC (tracks+.cue+log) - 278 MB | MP3 CBR 320 kbps (LAME 3.93) - 106 MB | Covers - 4 MB
Genre: Jazz, Hard Bop | RAR 3% Rec. | Label: OJC/Riverside Records (0025218614221)

This excellent live date from the Village Vanguard was the recording debut of the Adderley sextet, with Cannonball waxing eloquently and swingingly on alto, brother Nat charging ahead on cornet, and the versatile Yusef Lateef (who had joined the band only three weeks earlier) adding a bit of an edge on tenor, flute, and unusually for a jazz wind player, oboe on the odd, dirge-like "Syn-Anthesia." Also, this was the first recorded appearance of pianist Joe Zawinul - a little over three years since his arrival in America - in Cannonball's band. This group would be Zawinul's springboard to prominence in the jazz world, and readily apparent is how his compulsively funky mastery of bop and the blues had fused tightly with the Sam Jones/Louis Hayes rhythm section. Included is one of the earliest recordings of a Zawinul composition, "Scotch and Water," a happy, swinging blues.
Tracklist:
01. Introduction - By Cannonball
02. Gemini
03. Planet Earth
04. Dizzy's Business
05. Syn-Athesia
06. Scotch and Water
07. Cannon's Theme

Total time: 45:00

Exact Audio Copy V0.99 prebeta 5 from 4. May 2009

EAC extraction logfile from 22. June 2009, 1:04

Cannonball Adderley / In New York

Used drive : LITE-ON CD-RW SOHR-5238S Adapter: 5 ID: 3

Read mode : Secure
Utilize accurate stream : Yes
Defeat audio cache : Yes
Make use of C2 pointers : No

Read offset correction : 6
Overread into Lead-In and Lead-Out : No
Fill up missing offset samples with silence : Yes
Delete leading and trailing silent blocks : No
Null samples used in CRC calculations : Yes
Used interface : Installed external ASPI interface
Gap handling : Appended to previous track

Used output format : Internal WAV Routines
Sample format : 44.100 Hz; 16 Bit; Stereo


TOC of the extracted CD

Track | Start | Length | Start sector | End sector
––––––––––––––––––––––––––––-
1 | 0:00.00 | 1:53.62 | 0 | 8536
2 | 1:53.62 | 11:47.65 | 8537 | 61626
3 | 13:41.52 | 8:00.45 | 61627 | 97671
4 | 21:42.22 | 7:01.25 | 97672 | 129271
5 | 28:43.47 | 7:04.18 | 129272 | 161089
6 | 35:47.65 | 5:55.17 | 161090 | 187731
7 | 41:43.07 | 3:16.55 | 187732 | 202486


Track 1

Filename F:\eac\Cannonball NY\01 - Introduction - By Cannonball.wav

Pre-gap length 0:00:02.00

Peak level 47.9 %
Track quality 100.0 %
Test CRC D8926EF3
Copy CRC D8926EF3
Track not present in AccurateRip database
Copy OK

Track 2

Filename F:\eac\Cannonball NY\02 - Gemini.wav

Peak level 74.2 %
Track quality 100.0 %
Test CRC 634AA897
Copy CRC 634AA897
Track not present in AccurateRip database
Copy OK

Track 3

Filename F:\eac\Cannonball NY\03 - Planet Earth.wav

Pre-gap length 0:00:04.37

Peak level 68.7 %
Track quality 100.0 %
Test CRC B86EF46B
Copy CRC B86EF46B
Track not present in AccurateRip database
Copy OK

Track 4

Filename F:\eac\Cannonball NY\04 - Dizzy's Business.wav

Pre-gap length 0:00:03.30

Peak level 82.3 %
Track quality 100.0 %
Test CRC D88E2B44
Copy CRC D88E2B44
Track not present in AccurateRip database
Copy OK

Track 5

Filename F:\eac\Cannonball NY\05 - Syn-Athesia.wav

Pre-gap length 0:00:03.22

Peak level 49.4 %
Track quality 100.0 %
Test CRC 0C153F52
Copy CRC 0C153F52
Track not present in AccurateRip database
Copy OK

Track 6

Filename F:\eac\Cannonball NY\06 - Scotch and Water.wav

Pre-gap length 0:00:03.23

Peak level 69.2 %
Track quality 100.0 %
Test CRC 9665D5BB
Copy CRC 9665D5BB
Track not present in AccurateRip database
Copy OK

Track 7

Filename F:\eac\Cannonball NY\07 - Cannon's Theme.wav

Pre-gap length 0:00:03.15

Peak level 72.2 %
Track quality 100.0 %
Test CRC 78A76387
Copy CRC 78A76387
Track not present in AccurateRip database
Copy OK


None of the tracks are present in the AccurateRip database

No errors occurred

End of status report

[CUETools log; Date: 09.02.2022 16:58:14; Version: 2.1.4]
[CTDB TOCID: 0dQ.y1.wyYblV4SRvQMhRIpwV9I-] found.
Track | CTDB Status
1 | (49/51) Accurately ripped
2 | (49/51) Accurately ripped
3 | (49/51) Accurately ripped
4 | (49/51) Accurately ripped
5 | (49/51) Accurately ripped
6 | (49/51) Accurately ripped
7 | (48/51) Accurately ripped
[AccurateRip ID: 000cf221-004e6c6c-490a8b07] found.
Track [ CRC | V2 ] Status
01 [85325226|f3a2dbe8] (03+04/29) Accurately ripped
02 [2e85907e|07d822e1] (03+04/29) Accurately ripped
03 [b8518d80|cc338c8f] (03+04/29) Accurately ripped
04 [812c229e|627fa04a] (03+04/29) Accurately ripped
05 [33c3f3d0|777c78e3] (03+04/29) Accurately ripped
06 [681cf36b|369aaafc] (03+04/29) Accurately ripped
07 [2553680a|ca9168ab] (03+04/28) Accurately ripped
Offsetted by 664:
01 [8d257670] (00/29) No match (V2 was not tested)
02 [445672b9] (00/29) No match (V2 was not tested)
03 [44695e61] (00/29) No match (V2 was not tested)
04 [3f6f167a] (00/29) No match (V2 was not tested)
05 [be37d13d] (00/29) No match (V2 was not tested)
06 [62baca46] (00/29) No match (V2 was not tested)
07 [2a87730f] (00/28) No match (V2 was not tested)

Track Peak [ CRC32 ] [W/O NULL] [ LOG ]
– 82,3 [60334DAE] [60FC4797]
01 47,9 [D8926EF3] [324E57A0] CRC32
02 74,2 [634AA897] [339F4DF0] CRC32
03 68,7 [B86EF46B] [003A62D1] CRC32
04 82,3 [D88E2B44] [6C64C874] CRC32
05 49,3 [0C153F52] [A2773FCF] CRC32
06 69,2 [9665D5BB] [AEB6A65D] CRC32
07 72,2 [78A76387] [8CD06AD9] CRC32

Thanks to garet jax

See also: