Tags
Language
Tags

The Holmes Brothers - Lotto Land: Original Soundtrack Recording (1995)

Posted By: gribovar
The Holmes Brothers - Lotto Land: Original Soundtrack Recording (1995)

The Holmes Brothers - Lotto Land: Original Soundtrack Recording (1995)
EAC Rip | FLAC (tracks+.cue+log) - 306 MB | MP3 CBR 320 kbps (LAME 3.93) - 116 MB | Covers - 4 MB
Genre: Blues, Soul Blues, Soundtrack | RAR 3% Rec. | Label: Trip Records (TRIP 7714), 1996

The Holmes Brothers are certainly one of the best blues discoveries of the 90s. Rough, gutsy, and almost unbelievably funky, they make music that seems steeped in the energy, dust, litter, smells and fumes of Brooklyn's neighbourhoods.
The brothers are Wendell and Sherman Holmes and Popsy Dixon (the latter the owner of the best falsetto voice since Al Green and the Reverend Claude Jeter), and this powerful, emotional, joyful and rocking album is their fifth. The songs, originally written and recorded for the film Lotto Land, stand proudly on their own - although if you do see the film you’ll understand how well they fit the bitter sweet story of the development of the two different relationships and a missing multi-million dollar lottery ticket.
The songs themselves Wendell Holmes’ gritty lead voice, and the counterpoint of his partners and their ragged-but-right take o the blues and gospel traditions, all make for memorable music.
Tracklist:
01. Don't Spare Your Sword
02. I See You
03. Tell Me Again
04. Radio Face
05. Funky Bust
06. Georgia Peach
07. Basement Blues
08. Win Big
09. On The Rocks
10. So Easy
11. Simple Things
12. Lotto Land

Total time: 49:33

Exact Audio Copy V1.1 from 23. June 2015

EAC extraction logfile from 19. August 2021, 21:53

The Holmes Brothers / Lotto Land

Used drive : PIONEER DVD-RW DVR-219L Adapter: 1 ID: 0

Read mode : Secure
Utilize accurate stream : Yes
Defeat audio cache : Yes
Make use of C2 pointers : No

Read offset correction : 6
Overread into Lead-In and Lead-Out : No
Fill up missing offset samples with silence : Yes
Delete leading and trailing silent blocks : No
Null samples used in CRC calculations : Yes
Used interface : Native Win32 interface for Win NT & 2000
Gap handling : Appended to previous track

Used output format : User Defined Encoder
Selected bitrate : 128 kBit/s
Quality : High
Add ID3 tag : No
Command line compressor : C:\Program Files\Exact Audio Copy\Flac\flac.exe
Additional command line options : -V -8 -T "Genre=%genre%" -T "Artist=%artist%" -T "Title=%title%" -T "Album=%albumtitle%" -T "Date=%year%" -T "Tracknumber=%tracknr%" -T "Comment=%comment%" %source%


TOC of the extracted CD

Track | Start | Length | Start sector | End sector
––––––––––––––––––––––––––––-
1 | 0:00.00 | 6:35.60 | 0 | 29684
2 | 6:35.60 | 2:56.15 | 29685 | 42899
3 | 9:32.00 | 3:41.60 | 42900 | 59534
4 | 13:13.60 | 5:30.70 | 59535 | 84354
5 | 18:44.55 | 3:41.30 | 84355 | 100959
6 | 22:26.10 | 3:15.55 | 100960 | 115639
7 | 25:41.65 | 2:47.15 | 115640 | 128179
8 | 28:29.05 | 2:31.55 | 128180 | 139559
9 | 31:00.60 | 4:06.72 | 139560 | 158081
10 | 35:07.57 | 5:24.00 | 158082 | 182381
11 | 40:31.57 | 5:35.00 | 182382 | 207506
12 | 46:06.57 | 3:26.13 | 207507 | 222969


Track 1

Filename E:\alexbras\The Holmes Brothers - Lotto Land - 1996\01. Don't Spare Your Sword.wav

Pre-gap length 0:00:02.00

Peak level 87.6 %
Extraction speed 1.9 X
Track quality 100.0 %
Test CRC DA8A7094
Copy CRC DA8A7094
Accurately ripped (confidence 7) [E1E5C84E] (AR v2)
Copy OK

Track 2

Filename E:\alexbras\The Holmes Brothers - Lotto Land - 1996\02. I See You.wav

Pre-gap length 0:00:00.60

Peak level 87.0 %
Extraction speed 1.9 X
Track quality 100.0 %
Test CRC 8373F757
Copy CRC 8373F757
Accurately ripped (confidence 7) [E4CBDAC0] (AR v2)
Copy OK

Track 3

Filename E:\alexbras\The Holmes Brothers - Lotto Land - 1996\03. Tell Me Again.wav

Pre-gap length 0:00:00.63

Peak level 85.3 %
Extraction speed 2.1 X
Track quality 100.0 %
Test CRC 552A2BE0
Copy CRC 552A2BE0
Accurately ripped (confidence 7) [8C4B9F79] (AR v2)
Copy OK

Track 4

Filename E:\alexbras\The Holmes Brothers - Lotto Land - 1996\04. Radio Face.wav

Pre-gap length 0:00:01.58

Peak level 94.0 %
Extraction speed 2.4 X
Track quality 100.0 %
Test CRC A48F0935
Copy CRC A48F0935
Accurately ripped (confidence 7) [DD031CC6] (AR v2)
Copy OK

Track 5

Filename E:\alexbras\The Holmes Brothers - Lotto Land - 1996\05. Funky Bust.wav

Pre-gap length 0:00:00.23

Peak level 87.8 %
Extraction speed 2.2 X
Track quality 99.9 %
Test CRC A2224815
Copy CRC A2224815
Accurately ripped (confidence 7) [E5B8ED76] (AR v2)
Copy OK

Track 6

Filename E:\alexbras\The Holmes Brothers - Lotto Land - 1996\06. Georgia Peach.wav

Pre-gap length 0:00:00.33

Peak level 88.5 %
Extraction speed 2.5 X
Track quality 100.0 %
Test CRC 38EDBEAC
Copy CRC 38EDBEAC
Accurately ripped (confidence 7) [2D8D4498] (AR v2)
Copy OK

Track 7

Filename E:\alexbras\The Holmes Brothers - Lotto Land - 1996\07. Basement Blues.wav

Peak level 92.3 %
Extraction speed 2.5 X
Track quality 100.0 %
Test CRC 2B2B2831
Copy CRC 2B2B2831
Accurately ripped (confidence 7) [76A61EA1] (AR v2)
Copy OK

Track 8

Filename E:\alexbras\The Holmes Brothers - Lotto Land - 1996\08. Win Big.wav

Peak level 90.7 %
Extraction speed 2.2 X
Track quality 99.9 %
Test CRC DF3AFDDD
Copy CRC DF3AFDDD
Accurately ripped (confidence 7) [C456F4FA] (AR v2)
Copy OK

Track 9

Filename E:\alexbras\The Holmes Brothers - Lotto Land - 1996\09. On The Rocks.wav

Pre-gap length 0:00:01.18

Peak level 95.3 %
Extraction speed 2.6 X
Track quality 99.9 %
Test CRC 33B50AFE
Copy CRC 33B50AFE
Accurately ripped (confidence 7) [5C615887] (AR v2)
Copy OK

Track 10

Filename E:\alexbras\The Holmes Brothers - Lotto Land - 1996\10. So Easy.wav

Pre-gap length 0:00:00.72

Peak level 90.6 %
Extraction speed 2.9 X
Track quality 99.9 %
Test CRC 9C09DCE8
Copy CRC 9C09DCE8
Accurately ripped (confidence 7) [0ACD1456] (AR v2)
Copy OK

Track 11

Filename E:\alexbras\The Holmes Brothers - Lotto Land - 1996\11. Simple Things.wav

Pre-gap length 0:00:01.20

Peak level 83.0 %
Extraction speed 3.0 X
Track quality 99.9 %
Test CRC 4F1E35EC
Copy CRC 4F1E35EC
Accurately ripped (confidence 7) [E73FE3F4] (AR v2)
Copy OK

Track 12

Filename E:\alexbras\The Holmes Brothers - Lotto Land - 1996\12. Lotto Land.wav

Pre-gap length 0:00:01.30

Peak level 100.0 %
Extraction speed 2.8 X
Track quality 99.9 %
Test CRC 42B2680E
Copy CRC 42B2680E
Accurately ripped (confidence 7) [06DAD9C2] (AR v2)
Copy OK


All tracks accurately ripped

No errors occurred

End of status report

==== Log checksum EF58D63FD464A14A7A1F72C19FB6B5F86B7FF776687D9420482E836AD849EC94 ====

[CUETools log; Date: 12.11.2021 11:16:39; Version: 2.1.4]
[CTDB TOCID: DHjVtpF.QbDYfrBjFKxYRy1JTjw-] found.
Track | CTDB Status
1 | (9/9) Accurately ripped
2 | (9/9) Accurately ripped
3 | (9/9) Accurately ripped
4 | (9/9) Accurately ripped
5 | (9/9) Accurately ripped
6 | (9/9) Accurately ripped
7 | (9/9) Accurately ripped
8 | (9/9) Accurately ripped
9 | (9/9) Accurately ripped
10 | (9/9) Accurately ripped
11 | (9/9) Accurately ripped
12 | (9/9) Accurately ripped
[AccurateRip ID: 0016750c-00ce4e26-ab0b9c0c] found.
Track [ CRC | V2 ] Status
01 [74904dcf|e1e5c84e] (0+7/7) Accurately ripped
02 [a42af2f7|e4cbdac0] (0+7/7) Accurately ripped
03 [9e3d0ae3|8c4b9f79] (0+7/7) Accurately ripped
04 [9571e546|dd031cc6] (0+7/7) Accurately ripped
05 [4c84def9|e5b8ed76] (0+7/7) Accurately ripped
06 [6a8ec456|2d8d4498] (0+7/7) Accurately ripped
07 [cc5d2f39|76a61ea1] (0+7/7) Accurately ripped
08 [d9185ec2|c456f4fa] (0+7/7) Accurately ripped
09 [a4fa9cdd|5c615887] (0+7/7) Accurately ripped
10 [0fe6e4ab|0acd1456] (0+7/7) Accurately ripped
11 [4206afe3|e73fe3f4] (0+7/7) Accurately ripped
12 [4de12f9c|06dad9c2] (0+7/7) Accurately ripped

Track Peak [ CRC32 ] [W/O NULL] [ LOG ]
– 100,0 [14467129] [C1A4B4E2]
01 87,6 [DA8A7094] [237DFB4C] CRC32
02 87,0 [8373F757] [7BE95A62] CRC32
03 85,3 [552A2BE0] [6295E402] CRC32
04 94,0 [A48F0935] [C6A86C17] CRC32
05 87,8 [A2224815] [55A52482] CRC32
06 88,5 [38EDBEAC] [D0D76123] CRC32
07 92,3 [2B2B2831] [1686C567] CRC32
08 90,7 [DF3AFDDD] [1FEE70E2] CRC32
09 95,3 [33B50AFE] [671CB47C] CRC32
10 90,6 [9C09DCE8] [D1CE0C7C] CRC32
11 83,0 [4F1E35EC] [C28E4176] CRC32
12 100,0 [42B2680E] [2265D20B] CRC32

Thanks to Badeny