Subcategories

The Horace Silver Quintet Plus J.J.Johnson - The Cape Verdean Blues (1965)

Posted By: gribovar
The Horace Silver Quintet Plus J.J.Johnson - The Cape Verdean Blues (1965)

The Horace Silver Quintet Plus J.J.Johnson - The Cape Verdean Blues (1965)
EAC Rip | WavPack (image+.cue+log) - 225 MB | MP3 CBR 320 kbps (LAME 3.93) - 103 MB | Covers - 51 MB
Genre: Jazz | RAR 3% Rec. | Label: Blue Note (CDP 7 84220 2), 1989

After the success of Song for My Father and its hit title cut, Horace Silver was moved to pay further tribute to his dad, not to mention connect with some of his roots. Silver's father was born in the island nation of Cape Verde (near West Africa) before emigrating to the United States, and that's the inspiration behind The Cape Verdean Blues. Not all of the tracks are directly influenced by the music of Cape Verde (though some do incorporate Silver's taste for light exoticism); however, there's a spirit of adventure that pervades the entire album, a sense of exploration that wouldn't have been quite the same with Silver's quintet of old. On average, the tracks are longer than usual, and the lineup – featuring tenor saxophonist Joe Henderson (a holdover from the Song for My Father sessions) and trumpeter Woody Shaw – is one of the most modernist-leaning Silver ever recorded with. They push Silver into more advanced territory than he was normally accustomed to working, with mild dissonances and (especially in Henderson's case) a rawer edge to the playing. What's more, bop trombone legend J.J. Johnson appears on half of the six tracks, and Silver sounds excited to finally work with a collaborator he'd been pursuing for some time. Johnson ably handles some of the album's most challenging material, like the moody, swelling "Bonita" and the complex, up-tempo rhythms of "Nutville." Most interesting, though, is the lilting title track, which conjures the flavor of the islands with a blend of Latin-tinged rhythms and calypso melodies that nonetheless don't sound quite Caribbean in origin. Also noteworthy are "The African Queen," with its blend of emotional power and drifting hints of freedom, and "Pretty Eyes," Silver's first original waltz. Yet another worthwhile Silver album.
Tracklist:
01. The Cape Verdean Blues
02. The African Queen
03. Pretty Eyes
04. Nutville
05. Bonita
06. Mo' Joe

Total time: 43:49

Exact Audio Copy V0.99 prebeta 4 from 23. January 2008

EAC extraction logfile from 11. March 2010, 20:26

The Horace Silver Quintet Plus J.J.Johnson / The Cape Verdean Blues

Used drive : HL-DT-STDVDRAM GH20NS10 Adapter: 2 ID: 1

Read mode : Secure
Utilize accurate stream : Yes
Defeat audio cache : Yes
Make use of C2 pointers : No

Read offset correction : 667
Overread into Lead-In and Lead-Out : No
Fill up missing offset samples with silence : Yes
Delete leading and trailing silent blocks : No
Null samples used in CRC calculations : Yes
Used interface : Installed external ASPI interface

Used output format : Internal WAV Routines
Sample format : 44.100 Hz; 16 Bit; Stereo


TOC of the extracted CD

Track | Start | Length | Start sector | End sector
––––––––––––––––––––––––––––-
1 | 0:00.37 | 5:00.08 | 37 | 22544
2 | 5:00.45 | 9:37.27 | 22545 | 65846
3 | 14:37.72 | 7:32.10 | 65847 | 99756
4 | 22:10.07 | 7:15.50 | 99757 | 132431
5 | 29:25.57 | 8:38.03 | 132432 | 171284
6 | 38:03.60 | 5:45.40 | 171285 | 197199


Range status and errors

Selected range

Filename Z:\Horace Silver Quintet Plus J.J.Johnson - 1965 - The Cape Verdean Blues {1989 BN, Ron McMaster}\The Horace Silver Quintet Plus J.J.Johnson - The Cape Verdean Blues.wav

Peak level 88.9 %
Range quality 99.9 %
Test CRC C28B032D
Copy CRC C28B032D
Copy OK

No errors occurred


AccurateRip summary

Track 1 not present in database
Track 2 not present in database
Track 3 not present in database
Track 4 not present in database
Track 5 not present in database
Track 6 not present in database

None of the tracks are present in the AccurateRip database

End of status report

[CUETools log; Date: 13.03.2019 22:56:59; Version: 2.1.4]
Pregap length 00:00:37.
[CTDB TOCID: TMewwnU5kPRp8YbfjdSaLQV9txU-] found.
Track | CTDB Status
1 | (1/1) Accurately ripped
2 | (1/1) Accurately ripped
3 | (1/1) Accurately ripped
4 | (1/1) Accurately ripped
5 | (1/1) Accurately ripped
6 | (1/1) Accurately ripped
[AccurateRip ID: 000a83cf-0038a3de-4e0a4506] found.
Track [ CRC | V2 ] Status
01 [c5606979|96f55fad] (0+4/4) Accurately ripped
02 [850734ec|93c7b358] (0+4/4) Accurately ripped
03 [8409c22c|ab992fee] (0+3/3) Accurately ripped
04 [53578f10|b5cf1908] (0+4/4) Accurately ripped
05 [02867922|5a91117b] (0+4/4) Accurately ripped
06 [a1abfdc7|8ec66852] (0+4/4) Accurately ripped

Track Peak [ CRC32 ] [W/O NULL] [ LOG ]
– 88,9 [C28B032D] [07952493] CRC32
01 88,9 [58BE44DA] [4301F020]
02 87,3 [F8DCDFD1] [F3FF3923]
03 73,4 [8D91F7AC] [29ECBFA5]
04 83,8 [C242C137] [A74D5850]
05 65,8 [6F287C7E] [C98A1550]
06 68,5 [560C165F] [4C617555]

Thanks to Pr3ss

See also: