Subcategories

The Jayhawks – Hollywood Town Hall (1993)(Def American)

Posted By: janwal46
The Jayhawks – Hollywood Town Hall (1993)(Def American)

The Jayhawks – Hollywood Town Hall (1993)(Def American)

The Jayhawks – Hollywood Town Hall (1993)(Def American)
1993 | Genre: Rock | EAC RIP | FLAC+CUE+LOG+HQ-Covers(300Dpi) | 354Mb


The Jayhawks' breakthrough album is a roots rock classic. "Like folk music, but really loud," is how guitarist Gary Louris liked to describe the Jayhawks, but the reality is more complex–try the country-rock sound of the Flying Burrito Brothers, Neil Young, or the Band married to white-boy soul, bar band rawness, and a slight alternative edge. Hollywood Town Hall is a masterpiece of American songwriting, blending irresistible melodies, ringing guitars, and Louris and Olson's gorgeous harmonies with moody, imagery-rich lyrics. Best cuts: "Waiting for the Sun," "Take Me with You (When You Go)."

Personnel:

Mark Olson – Vocals, Acoustic Guitar, Harmonica
Gary Louris – Vocals, Electric Guitar, Fuzz Guitar
Marc Perlman - Bass
Ken Callahan – Drums

Additional Players: Benmont Tench, Nicky Hopkins, Charlie Drayton

Tracklist:

01. Waiting For The Sun
02. Crowded In The Wings
03. Clouds
04. Two Angels
05. Take Me With You (When You Go)
06. Sisiter Cry
07. Settled Down Like Rain
08. Witchita
09. Nevada, California
10. Martin’s Song
11. Leave No Gold

Links:




Exact Audio Copy V0.99 prebeta 4 from 23. January 2008

EAC extraction logfile from 14. March 2009, 19:55

the Jayhawks / Hollywood Town Hall

Used drive : Optiarc DVD RW AD-7173A Adapter: 1 ID: 0

Read mode : Secure
Utilize accurate stream : Yes
Defeat audio cache : No
Make use of C2 pointers : Yes

Read offset correction : 48
Overread into Lead-In and Lead-Out : No
Fill up missing offset samples with silence : Yes
Delete leading and trailing silent blocks : No
Null samples used in CRC calculations : No
Used interface : Native Win32 interface for Win NT & 2000

Used output format : Internal WAV Routines
Sample format : 44.100 Hz; 16 Bit; Stereo


TOC of the extracted CD

Track | Start | Length | Start sector | End sector
––––––––––––––––––––––––––––-
1 | 0:00.32 | 4:21.63 | 32 | 19669
2 | 4:22.20 | 4:55.47 | 19670 | 41841
3 | 9:17.67 | 4:51.13 | 41842 | 63679
4 | 14:09.05 | 4:04.32 | 63680 | 82011
5 | 18:13.37 | 4:50.43 | 82012 | 103804
6 | 23:04.05 | 4:08.20 | 103805 | 122424
7 | 27:12.25 | 3:00.25 | 122425 | 135949
8 | 30:12.50 | 5:26.10 | 135950 | 160409
9 | 35:38.60 | 4:04.65 | 160410 | 178774
10 | 39:43.50 | 2:57.15 | 178775 | 192064
11 | 42:40.65 | 5:46.10 | 192065 | 218024


Range status and errors

Selected range

Filename G:\AVAXHOME\The Jayhawks - Hollywood Town Hall\the Jayhawks - Hollywood Town Hall.wav

Peak level 100.0 %
Range quality 100.0 %
Copy CRC 22EA98FE
Copy OK

No errors occurred


AccurateRip summary

Track 1 accurately ripped (confidence 6) [B50EDD2B]
Track 2 accurately ripped (confidence 6) [33D181D1]
Track 3 accurately ripped (confidence 6) [F8420D1B]
Track 4 accurately ripped (confidence 6) [583A2505]
Track 5 accurately ripped (confidence 6) [E10374EB]
Track 6 accurately ripped (confidence 6) [16E19FC0]
Track 7 accurately ripped (confidence 6) [C1A9BB38]
Track 8 accurately ripped (confidence 6) [42C23E21]
Track 9 accurately ripped (confidence 6) [63CA42CE]
Track 10 accurately ripped (confidence 6) [A7D54977]
Track 11 accurately ripped (confidence 6) [6535BE88]

All tracks accurately ripped

End of status report

RIPPED BY JANWAL46