Tags
Language
Tags

The New York Jazz Quartet - Song Of The Black Knight (1978) [Reissue 1990]

Posted By: gribovar
The New York Jazz Quartet - Song Of The Black Knight (1978) [Reissue 1990]

The New York Jazz Quartet - Song Of The Black Knight (1978) [Reissue 1990]
EAC Rip | FLAC (tracks+.cue+log) - 224 MB | MP3 CBR 320 kbps (LAME 3.93) - 93 MB | Covers - 18 MB
Genre: Jazz, Post-Bop | RAR 3% Rec. | Label: Sonet Records (SNTCD-753)

In 1977, the New York Jazz Quartet, a part-time quartet most active from 1975-81, consisted of Frank Wess on tenor, flute and soprano, pianist Roland Hanna, bassist George Mraz and drummer Richard Pratt. The band essentially performed modern mainstream jazz, with the originals of Hanna and Wess consistently challenging the players to come up with fresh statements. On this set, there are four Hanna tunes (including "Time for the Dancers" and the lengthy title cut), plus a pair of Wess compositions. Excellent music that swings but avoids predictability.
Tracklist:
01. Song of the Black Knight
02. Time for the Dancers
03. After Paris
04. A Romp in the Woods Somewhere
05. Estoril Soul
06. Terezia

Total time: 39:33

Exact Audio Copy V1.0 beta 2 from 29. April 2011

EAC extraction logfile from 19. August 2011, 18:45

New York Jazz Quartet / Song Of The Black Knight

Used drive : HL-DT-STDVD-RAM GSA-H55N Adapter: 0 ID: 2

Read mode : Secure
Utilize accurate stream : Yes
Defeat audio cache : Yes
Make use of C2 pointers : No

Read offset correction : 102
Overread into Lead-In and Lead-Out : Yes
Fill up missing offset samples with silence : Yes
Delete leading and trailing silent blocks : No
Null samples used in CRC calculations : Yes
Used interface : Installed external ASPI interface
Gap handling : Appended to previous track

Used output format : User Defined Encoder
Selected bitrate : 128 kBit/s
Quality : High
Add ID3 tag : No
Command line compressor : G:\Program Files\Exact Audio Copy\Encoder\flac.exe
Additional command line options : -V -8 -T "Genre=%genre%" -T "Artist=%artist%" -T "Title=%title%" -T "Album=%albumtitle%" -T "Date=%year%" -T "Tracknumber=%tracknr%" -T "Comment=%comment%" %source%


TOC of the extracted CD

Track | Start | Length | Start sector | End sector
––––––––––––––––––––––––––––-
1 | 0:00.33 | 8:26.25 | 33 | 38007
2 | 8:26.58 | 7:58.27 | 38008 | 73884
3 | 16:25.10 | 4:37.33 | 73885 | 94692
4 | 21:02.43 | 6:27.15 | 94693 | 123732
5 | 27:29.58 | 5:51.02 | 123733 | 150059
6 | 33:20.60 | 6:12.48 | 150060 | 178007


Track 1

Filename F:\WAV\01 - Song of the Black Knight.wav

Pre-gap length 0:00:02.33

Peak level 97.7 %
Extraction speed 4.9 X
Track quality 100.0 %
Test CRC 43343854
Copy CRC 43343854
Track not present in AccurateRip database
Copy OK

Track 2

Filename F:\WAV\02 - Time for the Dancers.wav

Pre-gap length 0:00:02.35

Peak level 91.1 %
Extraction speed 5.7 X
Track quality 100.0 %
Test CRC 70381FE2
Copy CRC 70381FE2
Track not present in AccurateRip database
Copy OK

Track 3

Filename F:\WAV\03 - After Paris.wav

Pre-gap length 0:00:04.05

Peak level 78.3 %
Extraction speed 5.9 X
Track quality 100.0 %
Test CRC 372A0C22
Copy CRC 372A0C22
Track not present in AccurateRip database
Copy OK

Track 4

Filename F:\WAV\04 - A Romp in the Woods Somewhere.wav

Pre-gap length 0:00:02.58

Peak level 90.2 %
Extraction speed 6.6 X
Track quality 100.0 %
Test CRC B650679B
Copy CRC B650679B
Track not present in AccurateRip database
Copy OK

Track 5

Filename F:\WAV\05 - Estoril Soul.wav

Pre-gap length 0:00:03.58

Peak level 99.4 %
Extraction speed 7.0 X
Track quality 100.0 %
Test CRC 2954D449
Copy CRC 2954D449
Track not present in AccurateRip database
Copy OK

Track 6

Filename F:\WAV\06 - Terezia.wav

Pre-gap length 0:00:02.32

Peak level 97.1 %
Extraction speed 3.9 X
Track quality 100.0 %
Test CRC 26BBE34B
Copy CRC 26BBE34B
Track not present in AccurateRip database
Copy OK


None of the tracks are present in the AccurateRip database

No errors occurred

End of status report

==== Log checksum 58415ED5BA1978E607DEFCEC223C5AEEE34EF71C12948BB66BE3FC4CEC673A3D ====

[CUETools log; Date: 01.08.2021 22:31:05; Version: 2.1.4]
Pregap length 00:00:33.
[CTDB TOCID: Vy7JruO3TLzGeG3P7KsWJmZg.Gk-] found.
Track | CTDB Status
1 | (3/3) Accurately ripped
2 | (3/3) Accurately ripped
3 | (3/3) Accurately ripped
4 | (3/3) Accurately ripped
5 | (3/3) Accurately ripped
6 | (3/3) Accurately ripped
[AccurateRip ID: 000a0bf4-00348395-45094506] found.
Track [ CRC | V2 ] Status
01 [667f2ba5|cddabcdd] (0+1/1) Accurately ripped
02 [c944cca4|8a6ad9a1] (0+1/1) Accurately ripped
03 [9180bc35|00adb331] (0+1/1) Accurately ripped
04 [f74ad300|04c46b6b] (0+1/1) Accurately ripped
05 [36725717|d766faa1] (0+1/1) Accurately ripped
06 [1872ef06|829ae042] (0+1/1) Accurately ripped

Track Peak [ CRC32 ] [W/O NULL] [ LOG ]
– 99,4 [3145B65B] [1DD2D495]
01 97,7 [43343854] [A96831CD] CRC32
02 91,1 [70381FE2] [6BA78A61] CRC32
03 78,3 [372A0C22] [04C181E7] CRC32
04 90,2 [B650679B] [F6EFA3DE] CRC32
05 99,4 [2954D449] [999BA111] CRC32
06 97,1 [26BBE34B] [A597C83A] CRC32

Thanks to simple.i

See also:
New York Jazz Quartet - Surge (1977) [Reissue 1992]