Tags
Language
Tags

The Omega Syndicate - Horsemen On The Horizon (2006)

Posted By: gribovar
The Omega Syndicate - Horsemen On The Horizon (2006)

The Omega Syndicate - Horsemen On The Horizon (2006)
EAC Rip | FLAC (tracks+.cue+log) - 445 MB | MP3 CBR 320 kbps (LAME 3.93) - 188 MB | Covers included
Genre: Electronic, Berlin School | RAR 3% Rec. | Label: Self-released

Collaborative project of David Gurr and Xan Alexander with other known EM musicians that existed from 2004 to 2011. Recorded live at The Omega Syndicate's Awakenings gig on 8th July 2006.
Tracklist:
01. Kriegspiel
02. Equilibrium of Injustice
03. Yersinia's Release
04. Harbinger
05. Dark Skies

Total time: 01:18:50

EAC extraction logfile from 26. October 2006, 9:21 for CD
The Omega Syndicate / Horsemen On The Horizon

Used drive : PIONEER DVD-RW DVR-108 Adapter: 0 ID: 0
Read mode : Secure with NO C2, accurate stream, disable cache
Read offset correction : 48
Overread into Lead-In and Lead-Out : No

Used output format : Internal WAV Routines
44.100 Hz; 16 Bit; Stereo

Other options :
Fill up missing offset samples with silence : Yes
Delete leading and trailing silent blocks : No
Native Win32 interface for Win NT & 2000


Track 1
Filename C:\NVIDIA\01 - Kriegspiel.wav

Pre-gap length 0:00:02.00

Peak level 88.0 %
Track quality 100.0 %
Test CRC 914FFB3F
Copy CRC 914FFB3F
Copy OK

Track 2
Filename C:\NVIDIA\02 - Equilibrium of Injustice.wav

Pre-gap length 0:00:03.00

Peak level 100.0 %
Track quality 100.0 %
Test CRC 2834432F
Copy CRC 2834432F
Copy OK

Track 3
Filename C:\NVIDIA\03 - Yersinia's Release.wav

Pre-gap length 0:00:03.00

Peak level 88.2 %
Track quality 100.0 %
Test CRC 7FEA51FD
Copy CRC 7FEA51FD
Copy OK

Track 4
Filename C:\NVIDIA\04 - Harbinger.wav

Pre-gap length 0:00:03.00

Peak level 100.0 %
Track quality 100.0 %
Test CRC C794DA7F
Copy CRC C794DA7F
Copy OK

Track 5
Filename C:\NVIDIA\05 - Dark Skies.wav

Peak level 100.0 %
Track quality 100.0 %
Test CRC B9BD0B6B
Copy CRC B9BD0B6B
Copy OK

No errors occured


End of status report

[CUETools log; Date: 06.09.2018 19:52:02; Version: 2.1.4]
[CTDB TOCID: NQKR_ngOM5kGmmbNK9scVr9G6iQ-] found.
Track | CTDB Status
1 | (4/4) Accurately ripped
2 | (4/4) Accurately ripped
3 | (4/4) Accurately ripped
4 | (1/4) Accurately ripped
5 | (1/4) Accurately ripped
[AccurateRip ID: 001113ca-004efaea-39127a05] found.
Track [ CRC | V2 ] Status
01 [5f3c5bb1|612c0a2d] (1+1/4) Accurately ripped
02 [be369270|2f1bc0b4] (1+1/4) Accurately ripped
03 [4a411a02|0699596b] (1+1/4) Accurately ripped
04 [1a16eaca|86b878cf] (1+1/4) Accurately ripped
05 [92901f30|b6b6529f] (1+1/5) Accurately ripped

Track Peak [ CRC32 ] [W/O NULL] [ LOG ]
– 100,0 [6E5F21DB] [4BEE4915]
01 88,0 [914FFB3F] [C526DEFA] CRC32
02 100,0 [2834432F] [067815D9] CRC32
03 88,2 [7FEA51FD] [EDB9669B] CRC32
04 100,0 [C794DA7F] [560349E9] CRC32
05 100,0 [B9BD0B6B] [4E613AA1] CRC32

Thanks to Zammo