Subcategories
Tags
Language
Tags

The Peanut Butter Conspiracy - Spreading From The Ashes [Recorded 1966-1967] (2005)

Posted By: gribovar
The Peanut Butter Conspiracy - Spreading From The Ashes [Recorded 1966-1967] (2005)

The Peanut Butter Conspiracy - Spreading From The Ashes [Recorded 1966-1967] (2005)
EAC Rip | FLAC (image+.cue+log) - 374 MB | MP3 CBR 320 kbps (LAME 3.93) - 169 MB | Covers - 14 MB
Genre: Psychedelic Rock, Folk Rock, Pop Rock | RAR 3% Rec. | Label: Ace Records (CDWIKD 245)

With 26 tracks from 1966 and 1967, this CD acts as a comprehensive supplement to the Peanut Butter Conspiracy's more widely circulated recordings for Columbia and Challenge. While seven of these recordings found official release in 1966 and 1967 on the Vault label, the rest were previously unissued. Too, it has seven cuts (both released and unreleased) by the Ashes, the group from which the Peanut Butter Conspiracy evolved, though most of this material was done in the early days of the era in which they were going under the Peanut Butter Conspiracy billing. Because a lot of this was done in the group's formative days, much of it's a little (and sometimes a lot) more folk-rock-oriented than the more psychedelic output on their Columbia albums. That's particularly true of the sides done by the Ashes, with Spencer Dryden (just before his Jefferson Airplane days) on drums. Like the Peanut Butter Conspiracy's more widely known work, however, the music here is a second-division (though not downright second-rate) and sometimes derivative mixture of folk-rock, psychedelia, and California pop/rock, though often a bit rawer than their more familiar stuff. There are some nice tunes here, like the 1966 Ashes single "Is There Anything I Can Do," a lost folk-rock gem co-written by Jackie DeShannon; "Dark On You Now," another moody Ashes folk-rocker that the band would remake on the first Peanut Butter Conspiracy album; and "Free," which like some of their other more bittersweet tunes is a little reminiscent of the very early Jefferson Airplane with a heavier pop flavor. The 20-page booklet has Alec Palao's usual ace detective work on filling in the obscure history of the band, with lots of quotes from interviews with some of the members.
Tracklist:
01. The Ashes - Time After You
02. Love's Last Ground
03. The Ashes - Is There Anything I Can Do
04. Eventually
05. The Ashes - Dark On You Now
06. The Ashes - Winds Up High
07. Free
08. Big Bummer
09. Light Bulb Blues
10. The Ashes - Let's Take Our Love
11. Enchanted World
12. I'm Falling
13. Flight Of The Psychedelic Bumble Bee
14. Foolhearted Woman
15. Shirley, Can You Come Home & Play
16. 1-9-6-7
17. The Ashes - So Lonely
18. Floating Dream
19. Shuffle Tune
20. Moment Of Happiness
21. The Ashes - Hangman
22. The Ashes - Roses Gone
23. Make Someone Happy
24. Naturally (Wintry Ways)
25. Taste Of Something New
26. You Should Know (Live)

Total time: 01:11:53

Exact Audio Copy V0.99 prebeta 5 from 4. May 2009

EAC extraction logfile from 12. September 2009, 23:59

The Peanut Butter Conspiracy / Spreading From The Ashes

Used drive : HL-DT-STDVDRRW GSA-2164D Adapter: 6 ID: 0

Read mode : Secure
Utilize accurate stream : Yes
Defeat audio cache : Yes
Make use of C2 pointers : No

Read offset correction : 102
Overread into Lead-In and Lead-Out : No
Fill up missing offset samples with silence : Yes
Delete leading and trailing silent blocks : No
Null samples used in CRC calculations : Yes
Used interface : Native Win32 interface for Win NT & 2000

Used output format : Internal WAV Routines
Sample format : 44.100 Hz; 16 Bit; Stereo


TOC of the extracted CD

Track | Start | Length | Start sector | End sector
––––––––––––––––––––––––––––-
1 | 0:00.00 | 2:53.71 | 0 | 13045
2 | 2:53.71 | 2:13.63 | 13046 | 23083
3 | 5:07.59 | 2:31.16 | 23084 | 34424
4 | 7:39.00 | 1:55.05 | 34425 | 43054
5 | 9:34.05 | 4:02.71 | 43055 | 61275
6 | 13:37.01 | 2:18.32 | 61276 | 71657
7 | 15:55.33 | 3:01.60 | 71658 | 85292
8 | 18:57.18 | 2:47.71 | 85293 | 97888
9 | 21:45.14 | 2:19.49 | 97889 | 108362
10 | 24:04.63 | 2:13.34 | 108363 | 118371
11 | 26:18.22 | 2:10.69 | 118372 | 128190
12 | 28:29.16 | 2:40.55 | 128191 | 140245
13 | 31:09.71 | 2:02.50 | 140246 | 149445
14 | 33:12.46 | 3:19.10 | 149446 | 164380
15 | 36:31.56 | 2:50.06 | 164381 | 177136
16 | 39:21.62 | 2:02.09 | 177137 | 186295
17 | 41:23.71 | 2:59.53 | 186296 | 199773
18 | 44:23.49 | 2:13.16 | 199774 | 209764
19 | 46:36.65 | 2:17.73 | 209765 | 220112
20 | 48:54.63 | 1:43.66 | 220113 | 227903
21 | 50:38.54 | 2:59.21 | 227904 | 241349
22 | 53:38.00 | 2:51.09 | 241350 | 254183
23 | 56:29.09 | 2:09.30 | 254184 | 263888
24 | 58:38.39 | 4:29.14 | 263889 | 284077
25 | 63:07.53 | 3:05.33 | 284078 | 297985
26 | 66:13.11 | 5:39.60 | 297986 | 323470


Range status and errors

Selected range

Filename D:\My Rips\The Peanut Butter Conspiracy - Spreading From The Ashe\The Peanut Butter Conspiracy - Spreading From The Ashes.wav

Peak level 100.0 %
Range quality 100.0 %
Copy CRC 8A3E1D9F
Copy OK

No errors occurred


AccurateRip summary

Track 1 accurately ripped (confidence 1) [6174CC41]
Track 2 accurately ripped (confidence 1) [2F0CA327]
Track 3 accurately ripped (confidence 1) [F5198553]
Track 4 accurately ripped (confidence 1) [E3B71271]
Track 5 accurately ripped (confidence 1) [2D799198]
Track 6 accurately ripped (confidence 1) [1D38CC43]
Track 7 accurately ripped (confidence 1) [7E236E47]
Track 8 accurately ripped (confidence 1) [821E03BA]
Track 9 accurately ripped (confidence 1) [DD62207D]
Track 10 accurately ripped (confidence 1) [E6E97875]
Track 11 accurately ripped (confidence 1) [34953E37]
Track 12 accurately ripped (confidence 1) [B1E7DAFC]
Track 13 accurately ripped (confidence 1) [C0E53030]
Track 14 accurately ripped (confidence 1) [BDCB439C]
Track 15 accurately ripped (confidence 1) [7EA0C1B9]
Track 16 accurately ripped (confidence 1) [4FDA133B]
Track 17 accurately ripped (confidence 1) [71031FEA]
Track 18 accurately ripped (confidence 1) [753B56F3]
Track 19 accurately ripped (confidence 1) [7C6FFA9E]
Track 20 accurately ripped (confidence 1) [91787691]
Track 21 accurately ripped (confidence 1) [159EF514]
Track 22 accurately ripped (confidence 1) [734E604A]
Track 23 accurately ripped (confidence 1) [A32F8784]
Track 24 accurately ripped (confidence 1) [63AAB8A5]
Track 25 accurately ripped (confidence 1) [6AF34AD1]
Track 26 accurately ripped (confidence 1) [37DEF67C]

All tracks accurately ripped

End of status report

[CUETools log; Date: 20.06.2021 18:55:37; Version: 2.1.4]
[CTDB TOCID: txM5kzDPhazifYUUXfsITW0qIso-] found.
Track | CTDB Status
1 | (11/11) Accurately ripped
2 | (11/11) Accurately ripped
3 | (11/11) Accurately ripped
4 | (11/11) Accurately ripped
5 | (11/11) Accurately ripped
6 | (11/11) Accurately ripped
7 | (11/11) Accurately ripped
8 | (11/11) Accurately ripped
9 | (11/11) Accurately ripped
10 | (11/11) Accurately ripped
11 | (11/11) Accurately ripped
12 | (11/11) Accurately ripped
13 | (11/11) Accurately ripped
14 | (11/11) Accurately ripped
15 | (11/11) Accurately ripped
16 | (11/11) Accurately ripped
17 | (11/11) Accurately ripped
18 | (11/11) Accurately ripped
19 | (11/11) Accurately ripped
20 | (11/11) Accurately ripped
21 | (11/11) Accurately ripped
22 | (11/11) Accurately ripped
23 | (11/11) Accurately ripped
24 | (11/11) Accurately ripped
25 | (11/11) Accurately ripped
26 | (11/11) Accurately ripped
[AccurateRip ID: 003ef000-049760e4-9410d81a] found.
Track [ CRC | V2 ] Status
01 [6174cc41|0cb5d48c] (02+08/10) Accurately ripped
02 [2f0ca327|b1f8b0bc] (02+08/10) Accurately ripped
03 [f5198553|e23a259c] (02+08/10) Accurately ripped
04 [e3b71271|20544950] (02+08/10) Accurately ripped
05 [2d799198|6a0b8b1b] (02+08/10) Accurately ripped
06 [1d38cc43|6d9981d5] (02+08/10) Accurately ripped
07 [7e236e47|2e6e7f10] (02+08/10) Accurately ripped
08 [821e03ba|6558de5c] (02+08/10) Accurately ripped
09 [dd62207d|9bd35398] (02+08/10) Accurately ripped
10 [e6e97875|14387b46] (02+08/10) Accurately ripped
11 [34953e37|cdbffca2] (02+08/10) Accurately ripped
12 [b1e7dafc|4adea33b] (02+08/10) Accurately ripped
13 [c0e53030|65001d4d] (02+08/10) Accurately ripped
14 [bdcb439c|ff77e2e6] (02+07/09) Accurately ripped
15 [7ea0c1b9|5a28f9a0] (02+08/10) Accurately ripped
16 [4fda133b|2432e726] (02+08/10) Accurately ripped
17 [71031fea|a4b88511] (02+07/09) Accurately ripped
18 [753b56f3|572c4ae1] (02+08/10) Accurately ripped
19 [7c6ffa9e|cf003d47] (02+08/10) Accurately ripped
20 [91787691|88fb3012] (02+08/10) Accurately ripped
21 [159ef514|2d6fb603] (02+08/10) Accurately ripped
22 [734e604a|17a0e8d0] (02+08/10) Accurately ripped
23 [a32f8784|ac7015ee] (02+08/10) Accurately ripped
24 [63aab8a5|75444e37] (02+08/10) Accurately ripped
25 [6af34ad1|89028a55] (02+08/10) Accurately ripped
26 [37def67c|0179cc79] (02+08/10) Accurately ripped

Track Peak [ CRC32 ] [W/O NULL] [ LOG ]
– 100,0 [8A3E1D9F] [9909EED5] CRC32
01 100,0 [81C16E72] [578ED3DD]
02 87,8 [60AAE1B5] [21DC15F3]
03 100,0 [AACF71A0] [920F301D]
04 84,6 [13C2A3AA] [60E3E0E5]
05 90,4 [50BA6BAA] [E60A319E]
06 82,6 [F0ECDC5B] [9A2ED545]
07 76,9 [277113D8] [FB8FE3A9]
08 100,0 [A446AF70] [0420C980]
09 100,0 [9453314C] [B6877840]
10 84,8 [783DBA8F] [D5AB93E4]
11 81,2 [B088C811] [D8A40ED0]
12 76,9 [1869AA67] [88AE860D]
13 76,5 [B6207711] [29FFE0EA]
14 75,1 [EDF31E16] [75DB60F3]
15 88,1 [ECC73F99] [07B115E1]
16 100,0 [DFABE997] [7D70EC1A]
17 84,1 [B144021D] [E307C72F]
18 98,3 [7132298F] [60E8AA15]
19 72,9 [6AA484E8] [AF3E1ACC]
20 80,0 [0326E179] [07C59435]
21 96,8 [16E74D94] [D82EC04F]
22 88,1 [0DCAA3A4] [F584EFE6]
23 100,0 [1E365C25] [160F31C6]
24 100,0 [025D61DA] [AB99E00B]
25 78,8 [1143206D] [96866C43]
26 100,0 [C1D49784] [AB2064F3]

Thanks to syren_aureola

See also:
The Peanut Butter Conspiracy -...nspiracy (1967) [Reissue 1999]
Peanut Butter Conspiracy - For...All Ages (1969) [Reissue 2008]