Tags
Language
Tags

The Purcell Quartet, Fretwork - Buxtehude: Membra Jesu nostri (2010)

Posted By:
The Purcell Quartet, Fretwork - Buxtehude: Membra Jesu nostri (2010)

The Purcell Quartet, Fretwork - Buxtehude: Membra Jesu nostri (2010)
EAC | FLAC | Image (Cue & Log) ~ 342 Mb | Total time: 78:56 | Scans included
Classical | Label: Chandos | KCHAN 0775 | Recorded: 2009

…Sopranos Emma Kirkby and Elin Manahan Thomas are excellent throughout…Harvey is a solid, dignified presence elsewhere as well, while tenor Charles Daniels and countertenor Michael Chance are at their eloquent best… Both The Purcell Quartet and Fretwork relish the variegated sonorities afforded by Buxtehude’s score, as well as the word painting, while blending with the voices to effect a homogenous yet multi-timbred sound of great beauty.
–Robert Levett

Performer:
Emma Kirkby, soprano
Elin Manahan Thomas, soprano
Michael Chance, counter-tenor
Charles Daniels, tenor
Peter Harvey, bass
The Purcell Quartet
Fretwork

Track List:
01. 1. Ad pedes. 1. Sonata
02. 1. Ad pedes. 2. Tutti. Ecce super montes
03. 1. Ad pedes. 3. Aria. Salve mundi salutare
04. 1. Ad pedes. 4. Tutti. Ecce super montes
05. 1. Ad pedes. 5. Tutti, Salve mundi salutare
06. 2. Ad genua. 6. Sonata in tremulo
07. 2. Ad genua. 7. Tutti. Ad ubera portabimini
08. 2. Ad genua. 8. Aria. Salve Jesu, rex sanctorum
09. 2. Ad genua. 9. Tutti. Ad ubera portabimini
10. 3. Ad manus. 10. Sonata
11. 3. Ad manus. 11. Tutti. Quid sunt plagae istae
12. 3. Ad manus. 12. Aria. Salve Jesu, pastor bone
13. 3. Ad manus. 13. Tutti. Quid sunt plagae istae
14. 4. Ad latus. 14. Sonata
15. 4. Ad latus. 15. Tutti. Surge, amica mea, speciosa mea
16. 4. Ad latus. 16. Aria. Salve latus salvatoris
17. 4. Ad latus. 17. Tutti. Surge, amica mea, speciosa mea
18. 5. Ad pectus. 18. Sonata
19. 5. Ad pectus. 19. Voci. Sicut modo geniti infantes rationabiles
20. 5. Ad pectus. 20. Aria. Salve salus mea, Deus
21. 5. Ad pectus. 21. Voci. Sicut modo geniti infantes rationabiles
22. 6. Ad cor. 22. Sonata
23. 6. Ad cor. 23. Doi Soprano è Basso. Vulnerasti cor meum
24. 6. Ad cor. 24. Aria. Summi Regis cor, aveto
25. 6. Ad cor. 25. Doi Soprano è Basso. Vulnerasti cor meum
26. 7. Ad faciem. 26. Sonata
27. 7. Ad faciem. 27. Tutti. Illustra faciem tuam super servum tuum
28. 7. Ad faciem. 28. Aria. Salve caput cruentatum
29. 7. Ad faciem. 29. Tutti. Amen
30. Laudate, pueri, Dominum, BuxWV 69
31. Kommet her zu mir alle


Exact Audio Copy V1.0 beta 3 from 29. August 2011

EAC extraction logfile from 27. January 2012, 11:59

Emma Kirkby, Elin Manahan Thomas, Michael Chance, Charles Daniels, Peter Harvey; The Purcell Quartet / Buxtehude - Membra Jesu nostri

Used drive : Optiarc DVD+-RW AD-5170S Adapter: 1 ID: 2

Read mode : Secure
Utilize accurate stream : Yes
Defeat audio cache : Yes
Make use of C2 pointers : No

Read offset correction : 48
Overread into Lead-In and Lead-Out : No
Fill up missing offset samples with silence : Yes
Delete leading and trailing silent blocks : No
Null samples used in CRC calculations : Yes
Used interface : Native Win32 interface for Win NT & 2000

Used output format : User Defined Encoder
Selected bitrate : 896 kBit/s
Quality : High
Add ID3 tag : Yes
Command line compressor : C:\Program Files\Exact Audio Copy\Flac\flac.exe
Additional command line options : -V -8 %source%


TOC of the extracted CD

Track | Start | Length | Start sector | End sector
––––––––––––––––––––––––––––-
1 | 0:00.00 | 0:45.22 | 0 | 3396
2 | 0:45.22 | 1:14.25 | 3397 | 8971
3 | 1:59.47 | 4:59.73 | 8972 | 31469
4 | 6:59.45 | 1:17.03 | 31470 | 37247
5 | 8:16.48 | 0:59.60 | 37248 | 41732
6 | 9:16.33 | 1:04.30 | 41733 | 46562
7 | 10:20.63 | 1:34.39 | 46563 | 53651
8 | 11:55.27 | 3:44.45 | 53652 | 70496
9 | 15:39.72 | 1:39.39 | 70497 | 77960
10 | 17:19.36 | 0:57.03 | 77961 | 82238
11 | 18:16.39 | 1:59.06 | 82239 | 91169
12 | 20:15.45 | 5:07.54 | 91170 | 114248
13 | 25:23.24 | 2:15.18 | 114249 | 124391
14 | 27:38.42 | 0:27.09 | 124392 | 126425
15 | 28:05.51 | 1:45.09 | 126426 | 134309
16 | 29:50.60 | 4:40.72 | 134310 | 155381
17 | 34:31.57 | 1:59.12 | 155382 | 164318
18 | 36:30.69 | 0:41.06 | 164319 | 167399
19 | 37:12.00 | 2:20.45 | 167400 | 177944
20 | 39:32.45 | 5:21.33 | 177945 | 202052
21 | 44:54.03 | 2:40.72 | 202053 | 214124
22 | 47:35.00 | 1:48.33 | 214125 | 222257
23 | 49:23.33 | 2:22.06 | 222258 | 232913
24 | 51:45.39 | 3:04.51 | 232914 | 246764
25 | 54:50.15 | 2:28.54 | 246765 | 257918
26 | 57:18.69 | 0:51.24 | 257919 | 261767
27 | 58:10.18 | 1:47.54 | 261768 | 269846
28 | 59:57.72 | 3:52.06 | 269847 | 287252
29 | 63:50.03 | 1:26.33 | 287253 | 293735
30 | 65:16.36 | 4:56.72 | 293736 | 316007
31 | 70:13.33 | 8:44.67 | 316008 | 355374


Range status and errors

Selected range

Filename D:\temp\pics\Buxtehude - Membra Jesu nostri - The Purcell Quartet\Buxtehude - Membra Jesu nostri.wav

Peak level 99.7 %
Extraction speed 5.6 X
Range quality 99.9 %
Test CRC D1A165A3
Copy CRC D1A165A3
Copy OK

No errors occurred

End of status report

==== Log checksum D01F6373B40288C13765F821F981B616D9A67B33BF45A34205C7DF019B6793D6 ====

The Purcell Quartet, Fretwork - Buxtehude: Membra Jesu nostri (2010)

Thanks to the original releaser