Tags
Language
Tags

The Raphael Ensemble - Brahms: String Quintets (2010)

Posted By: ArlegZ
The Raphael Ensemble - Brahms: String Quintets (2010)

The Raphael Ensemble - Brahms: String Quintets (2010)
EAC | FLAC | Image (Cue & Log) ~ 272 Mb | Total time: 58:07 | Digital booklet
Classical | Label: Hyperion | # CDH55369 | Recorded: 1995

Brahms composed his two published String Quintets amid the rural tranquillity of Bad Ischl in Upper Austria and the works can almost be seen as an expression of escape from the 'urban stress' of nineteenth-century Vienna. The Quintets show Brahms standing at the pinnacle of the composition of chamber music, their gentle pastoral character being subtly shaded by a profoundly melancholy introspection.

Performer:
The Raphael Ensemble:
Anthony Marwood & Elizabeth Wexler, violin
Timothy Boulton & James Boyd, viola
Andrea Hess, cello

Track List:
String Quintet No 1 In F Major Op 88
01. Allegro Non Troppo Ma Con Brio
02. Grave Ed Appassionato - Allegretto Vivace - Tempo I - Presto - Tempo I
03. Allegro Energico - Presto
String Quintet No 2 In G Major Op 111
04. Allegro Non Troppo, Ma Con Brio
05. Adagio
06. Un Poco Allegretto
07. Vivace Ma Non Troppo Presto - Animato


Exact Audio Copy V1.3 from 2. September 2016

EAC extraction logfile from 10. September 2019, 17:57

The Raphael Ensemble / Brahms: String Quintets

Used drive : MATSHITADVD+-RW SW830 Adapter: 1 ID: 0

Read mode : Secure
Utilize accurate stream : Yes
Defeat audio cache : Yes
Make use of C2 pointers : No

Read offset correction : 6
Overread into Lead-In and Lead-Out : No
Fill up missing offset samples with silence : Yes
Delete leading and trailing silent blocks : No
Null samples used in CRC calculations : Yes
Used interface : Native Win32 interface for Win NT & 2000

Used output format : User Defined Encoder
Selected bitrate : 1024 kBit/s
Quality : High
Add ID3 tag : No
Command line compressor : C:\Program Files (x86)\Exact Audio Copy\FLAC\FLAC.EXE
Additional command line options : -6 -V -T "ARTIST=%artist%" -T "TITLE=%title%" -T "ALBUM=%albumtitle%" -T "DATE=%year%" -T "TRACKNUMBER=%tracknr%" -T "GENRE=%genre%" -T "COMMENT=%comment%" -T "BAND=%albuminterpret%" -T "ALBUMARTIST=%albuminterpret%" -T "COMPOSER=%composer%" %haslyrics%–tag-from-file=LYRICS="%lyricsfile%"%haslyrics% -T "DISCNUMBER=%cdnumber%" -T "TOTALDISCS=%totalcds%" -T "TOTALTRACKS=%numtracks%" %hascover%–picture="%coverfile%"%hascover% %source% -o %dest%


TOC of the extracted CD

Track | Start | Length | Start sector | End sector
––––––––––––––––––––––––––––-
1 | 0:00.00 | 11:45.37 | 0 | 52911
2 | 11:45.37 | 11:39.45 | 52912 | 105381
3 | 23:25.07 | 5:01.05 | 105382 | 127961
4 | 28:26.12 | 12:42.23 | 127962 | 185134
5 | 41:08.35 | 6:16.65 | 185135 | 213399
6 | 47:25.25 | 5:33.55 | 213400 | 238429
7 | 52:59.05 | 5:06.25 | 238430 | 261404


Range status and errors

Selected range

Filename C:\Users\Mauro\Downloads\!01 MARIA RIPS\Brahms - String Quintets - from Maria\The Raphael Ensemble - Brahms- String Quintets.wav

Peak level 97.7 %
Extraction speed 7.2 X
Range quality 100.0 %
Test CRC 6FA85921
Copy CRC 6FA85921
Copy OK

No errors occurred


AccurateRip summary

Track 1 accurately ripped (confidence 9) [5C8E7BD4] (AR v2)
Track 2 accurately ripped (confidence 9) [2B6AE052] (AR v2)
Track 3 accurately ripped (confidence 9) [291CEDB0] (AR v2)
Track 4 accurately ripped (confidence 9) [C971BC18] (AR v2)
Track 5 accurately ripped (confidence 9) [2692FECA] (AR v2)
Track 6 accurately ripped (confidence 9) [262C6E22] (AR v2)
Track 7 accurately ripped (confidence 9) [1BAAAEB9] (AR v2)

All tracks accurately ripped

End of status report

–– CUETools DB Plugin V2.1.6

[CTDB TOCID: XfX9jF149tXTyfPHoJG1HGb0GIE-] found
Submit result: XfX9jF149tXTyfPHoJG1HGb0GIE- has been confirmed
Track | CTDB Status
1 | (34/34) Accurately ripped
2 | (33/34) Accurately ripped
3 | (33/34) Accurately ripped
4 | (33/34) Accurately ripped
5 | (33/34) Accurately ripped
6 | (33/34) Accurately ripped
7 | (33/34) Accurately ripped


==== Log checksum 175233BE0882B0B301DCFB1823F7FD6B00F2281274F02711091BA54923C63A1D ====

The Raphael Ensemble - Brahms: String Quintets (2010)

Thanks to the original releaser