Tags
Language
Tags

The Rolling Stones - Tattoo You (1981) [2021 Super Deluxe Edition]

Posted By: JET 1
The Rolling Stones - Tattoo You (1981) [2021 Super Deluxe Edition]

The Rolling Stones - Tattoo You (1981) [2021 Super Deluxe Edition]
EAC Rip | FLAC (Tracks) +CUE, LOG | 2.78 GB | Scans
Genre: Rock | Label: Polydor Records | Catalog Number: 602438355310

Tattoo You celebrates 40 years with the release of a brand new deluxe remastered edition of the chart topping, multi platinum album. The 2CD edition of the album includes the newly remastered album alongside Lost & Found, a brand new collection of nine previously unreleased songs from the period of the album's original release, newly completed and enhanced with additional vocals and guitar by the band. Among these, 'Living In The Heart Of Love' is a quintessential Stones rock workout with all of the group on top form, complete with urgent guitar licks and fine piano detail. Other highlights of Lost & Found include a killer version of 'Shame, Shame, Shame’, first recorded in 1963 by one of the band's blues heroes, Jimmy Reed; their reading of Dobie Gray's soul gem 'Drift Away'; and a fascinating reggae-tinged version of 'Start Me Up’.
Exact Audio Copy V1.3 from 2. September 2016

EAC extraction logfile from 25. December 2021, 11:47

The Rolling Stones / Tattoo You

Used drive : HL-DT-STBD-RE BH16NS55 Adapter: 1 ID: 0

Read mode : Secure
Utilize accurate stream : Yes
Defeat audio cache : Yes
Make use of C2 pointers : No

Read offset correction : 6
Overread into Lead-In and Lead-Out : No
Fill up missing offset samples with silence : Yes
Delete leading and trailing silent blocks : No
Null samples used in CRC calculations : Yes
Used interface : Native Win32 interface for Win NT & 2000
Gap handling : Appended to previous track

Used output format : User Defined Encoder
Selected bitrate : 1024 kBit/s
Quality : High
Add ID3 tag : No
Command line compressor : C:\Program Files (x86)\Exact Audio Copy\Flac\flac.exe
Additional command line options : -8 -V -T "ARTIST=%artist%" -T "TITLE=%title%" -T "ALBUM=%albumtitle%" -T "DATE=%year%" -T "TRACKNUMBER=%tracknr%" -T "GENRE=%genre%" -T "PERFORMER=%albuminterpret%" -T "COMPOSER=%composer%" %haslyrics%–tag-from-file=LYRICS="%lyricsfile%"%haslyrics% -T "ALBUMARTIST=%albumartist%" -T "DISCNUMBER=%cdnumber%" -T "TOTALDISCS=%totalcds%" -T "TOTALTRACKS=%numtracks%" -T "COMMENT=%comment%" %source% -o %dest%


TOC of the extracted CD

Track | Start | Length | Start sector | End sector
––––––––––––––––––––––––––––-
1 | 0:00.00 | 3:34.13 | 0 | 16062
2 | 3:34.13 | 2:21.47 | 16063 | 26684
3 | 5:55.60 | 6:32.32 | 26685 | 56116
4 | 12:28.17 | 3:24.33 | 56117 | 71449
5 | 15:52.50 | 3:34.67 | 71450 | 87566
6 | 19:27.42 | 3:34.23 | 87567 | 103639
7 | 23:01.65 | 5:18.19 | 103640 | 127508
8 | 28:20.09 | 3:49.07 | 127509 | 144690
9 | 32:09.16 | 4:23.14 | 144691 | 164429
10 | 36:32.30 | 3:26.40 | 164430 | 179919
11 | 39:58.70 | 4:35.57 | 179920 | 200601


Track 1

Filename D:\#cdr\#wav+flac\#Add\The Rolling Stones - Tattoo You\cd 1\01. The Rolling Stones - Start Me Up.wav

Pre-gap length 0:00:02.00

Peak level 100.0 %
Extraction speed 4.2 X
Track quality 100.0 %
Test CRC 03BAB44F
Copy CRC 03BAB44F
Accurately ripped (confidence 19) [5082CCC8] (AR v2)
Copy OK

Track 2

Filename D:\#cdr\#wav+flac\#Add\The Rolling Stones - Tattoo You\cd 1\02. The Rolling Stones - Hang Fire.wav

Peak level 100.0 %
Extraction speed 4.3 X
Track quality 100.0 %
Test CRC FD6E0436
Copy CRC FD6E0436
Accurately ripped (confidence 20) [405018BF] (AR v2)
Copy OK

Track 3

Filename D:\#cdr\#wav+flac\#Add\The Rolling Stones - Tattoo You\cd 1\03. The Rolling Stones - Slave.wav

Peak level 99.7 %
Extraction speed 4.8 X
Track quality 99.9 %
Test CRC 39D83AFB
Copy CRC 39D83AFB
Accurately ripped (confidence 20) [F353788C] (AR v2)
Copy OK

Track 4

Filename D:\#cdr\#wav+flac\#Add\The Rolling Stones - Tattoo You\cd 1\04. The Rolling Stones - Little T & A.wav

Peak level 100.0 %
Extraction speed 5.5 X
Track quality 100.0 %
Test CRC 851586D8
Copy CRC 851586D8
Accurately ripped (confidence 19) [9D657CC4] (AR v2)
Copy OK

Track 5

Filename D:\#cdr\#wav+flac\#Add\The Rolling Stones - Tattoo You\cd 1\05. The Rolling Stones - Black Limousine.wav

Peak level 100.0 %
Extraction speed 5.8 X
Track quality 100.0 %
Test CRC EEBC83B9
Copy CRC EEBC83B9
Accurately ripped (confidence 19) [67189056] (AR v2)
Copy OK

Track 6

Filename D:\#cdr\#wav+flac\#Add\The Rolling Stones - Tattoo You\cd 1\06. The Rolling Stones - Neighbours.wav

Peak level 100.0 %
Extraction speed 6.1 X
Track quality 100.0 %
Test CRC 707546A1
Copy CRC 707546A1
Accurately ripped (confidence 20) [06D8AB2F] (AR v2)
Copy OK

Track 7

Filename D:\#cdr\#wav+flac\#Add\The Rolling Stones - Tattoo You\cd 1\07. The Rolling Stones - Worried About You.wav

Peak level 100.0 %
Extraction speed 6.8 X
Track quality 100.0 %
Test CRC 799682F8
Copy CRC 799682F8
Accurately ripped (confidence 19) [EE675342] (AR v2)
Copy OK

Track 8

Filename D:\#cdr\#wav+flac\#Add\The Rolling Stones - Tattoo You\cd 1\08. The Rolling Stones - Tops.wav

Peak level 100.0 %
Extraction speed 5.6 X
Track quality 99.9 %
Test CRC 1565A669
Copy CRC 1565A669
Accurately ripped (confidence 19) [E44B38F8] (AR v2)
Copy OK

Track 9

Filename D:\#cdr\#wav+flac\#Add\The Rolling Stones - Tattoo You\cd 1\09. The Rolling Stones - Heaven.wav

Peak level 100.0 %
Extraction speed 7.3 X
Track quality 100.0 %
Test CRC 4EA60AB2
Copy CRC 4EA60AB2
Accurately ripped (confidence 19) [8EC686F1] (AR v2)
Copy OK

Track 10

Filename D:\#cdr\#wav+flac\#Add\The Rolling Stones - Tattoo You\cd 1\10. The Rolling Stones - No Use in Crying.wav

Peak level 100.0 %
Extraction speed 7.3 X
Track quality 100.0 %
Test CRC 79C76E93
Copy CRC 79C76E93
Accurately ripped (confidence 19) [10994D7B] (AR v2)
Copy OK

Track 11

Filename D:\#cdr\#wav+flac\#Add\The Rolling Stones - Tattoo You\cd 1\11. The Rolling Stones - Waiting on a Friend.wav

Peak level 100.0 %
Extraction speed 7.7 X
Track quality 100.0 %
Test CRC EA467140
Copy CRC EA467140
Accurately ripped (confidence 19) [9FBF7952] (AR v2)
Copy OK


All tracks accurately ripped

No errors occurred

End of status report

–– CUETools DB Plugin V2.1.6

[CTDB TOCID: X1Z5.Uio76ZWEanmEySYvrVdzNY-] found
Submit result: X1Z5.Uio76ZWEanmEySYvrVdzNY- has been confirmed
Track | CTDB Status
1 | (138/138) Accurately ripped
2 | (138/138) Accurately ripped
3 | (138/138) Accurately ripped
4 | (138/138) Accurately ripped
5 | (137/138) Accurately ripped
6 | (137/138) Accurately ripped
7 | (137/138) Accurately ripped
8 | (137/138) Accurately ripped
9 | (137/138) Accurately ripped
10 | (137/138) Accurately ripped
11 | (137/138) Accurately ripped


==== Log checksum AB77FAAF0BA4BC52C204175F321FD83C076954A90A01638098CB53A01CC4EFDB ====

––––––––––––––––––––––––––––––

Exact Audio Copy V1.3 from 2. September 2016

EAC extraction logfile from 25. December 2021, 11:47

The Rolling Stones / Tattoo You

Used drive : HL-DT-STBD-RE BH16NS55 Adapter: 1 ID: 0

Read mode : Secure
Utilize accurate stream : Yes
Defeat audio cache : Yes
Make use of C2 pointers : No

Read offset correction : 6
Overread into Lead-In and Lead-Out : No
Fill up missing offset samples with silence : Yes
Delete leading and trailing silent blocks : No
Null samples used in CRC calculations : Yes
Used interface : Native Win32 interface for Win NT & 2000
Gap handling : Appended to previous track

Used output format : User Defined Encoder
Selected bitrate : 1024 kBit/s
Quality : High
Add ID3 tag : No
Command line compressor : C:\Program Files (x86)\Exact Audio Copy\Flac\flac.exe
Additional command line options : -8 -V -T "ARTIST=%artist%" -T "TITLE=%title%" -T "ALBUM=%albumtitle%" -T "DATE=%year%" -T "TRACKNUMBER=%tracknr%" -T "GENRE=%genre%" -T "PERFORMER=%albuminterpret%" -T "COMPOSER=%composer%" %haslyrics%–tag-from-file=LYRICS="%lyricsfile%"%haslyrics% -T "ALBUMARTIST=%albumartist%" -T "DISCNUMBER=%cdnumber%" -T "TOTALDISCS=%totalcds%" -T "TOTALTRACKS=%numtracks%" -T "COMMENT=%comment%" %source% -o %dest%


TOC of the extracted CD

Track | Start | Length | Start sector | End sector
––––––––––––––––––––––––––––-
1 | 0:00.00 | 3:34.13 | 0 | 16062
2 | 3:34.13 | 2:21.47 | 16063 | 26684
3 | 5:55.60 | 6:32.32 | 26685 | 56116
4 | 12:28.17 | 3:24.33 | 56117 | 71449
5 | 15:52.50 | 3:34.67 | 71450 | 87566
6 | 19:27.42 | 3:34.23 | 87567 | 103639
7 | 23:01.65 | 5:18.19 | 103640 | 127508
8 | 28:20.09 | 3:49.07 | 127509 | 144690
9 | 32:09.16 | 4:23.14 | 144691 | 164429
10 | 36:32.30 | 3:26.40 | 164430 | 179919
11 | 39:58.70 | 4:35.57 | 179920 | 200601


Track 1

Filename D:\#cdr\#wav+flac\#Add\The Rolling Stones - Tattoo You\cd 1\01. The Rolling Stones - Start Me Up.wav

Pre-gap length 0:00:02.00

Peak level 100.0 %
Extraction speed 4.2 X
Track quality 100.0 %
Test CRC 03BAB44F
Copy CRC 03BAB44F
Accurately ripped (confidence 19) [5082CCC8] (AR v2)
Copy OK

Track 2

Filename D:\#cdr\#wav+flac\#Add\The Rolling Stones - Tattoo You\cd 1\02. The Rolling Stones - Hang Fire.wav

Peak level 100.0 %
Extraction speed 4.3 X
Track quality 100.0 %
Test CRC FD6E0436
Copy CRC FD6E0436
Accurately ripped (confidence 20) [405018BF] (AR v2)
Copy OK

Track 3

Filename D:\#cdr\#wav+flac\#Add\The Rolling Stones - Tattoo You\cd 1\03. The Rolling Stones - Slave.wav

Peak level 99.7 %
Extraction speed 4.8 X
Track quality 99.9 %
Test CRC 39D83AFB
Copy CRC 39D83AFB
Accurately ripped (confidence 20) [F353788C] (AR v2)
Copy OK

Track 4

Filename D:\#cdr\#wav+flac\#Add\The Rolling Stones - Tattoo You\cd 1\04. The Rolling Stones - Little T & A.wav

Peak level 100.0 %
Extraction speed 5.5 X
Track quality 100.0 %
Test CRC 851586D8
Copy CRC 851586D8
Accurately ripped (confidence 19) [9D657CC4] (AR v2)
Copy OK

Track 5

Filename D:\#cdr\#wav+flac\#Add\The Rolling Stones - Tattoo You\cd 1\05. The Rolling Stones - Black Limousine.wav

Peak level 100.0 %
Extraction speed 5.8 X
Track quality 100.0 %
Test CRC EEBC83B9
Copy CRC EEBC83B9
Accurately ripped (confidence 19) [67189056] (AR v2)
Copy OK

Track 6

Filename D:\#cdr\#wav+flac\#Add\The Rolling Stones - Tattoo You\cd 1\06. The Rolling Stones - Neighbours.wav

Peak level 100.0 %
Extraction speed 6.1 X
Track quality 100.0 %
Test CRC 707546A1
Copy CRC 707546A1
Accurately ripped (confidence 20) [06D8AB2F] (AR v2)
Copy OK

Track 7

Filename D:\#cdr\#wav+flac\#Add\The Rolling Stones - Tattoo You\cd 1\07. The Rolling Stones - Worried About You.wav

Peak level 100.0 %
Extraction speed 6.8 X
Track quality 100.0 %
Test CRC 799682F8
Copy CRC 799682F8
Accurately ripped (confidence 19) [EE675342] (AR v2)
Copy OK

Track 8

Filename D:\#cdr\#wav+flac\#Add\The Rolling Stones - Tattoo You\cd 1\08. The Rolling Stones - Tops.wav

Peak level 100.0 %
Extraction speed 5.6 X
Track quality 99.9 %
Test CRC 1565A669
Copy CRC 1565A669
Accurately ripped (confidence 19) [E44B38F8] (AR v2)
Copy OK

Track 9

Filename D:\#cdr\#wav+flac\#Add\The Rolling Stones - Tattoo You\cd 1\09. The Rolling Stones - Heaven.wav

Peak level 100.0 %
Extraction speed 7.3 X
Track quality 100.0 %
Test CRC 4EA60AB2
Copy CRC 4EA60AB2
Accurately ripped (confidence 19) [8EC686F1] (AR v2)
Copy OK

Track 10

Filename D:\#cdr\#wav+flac\#Add\The Rolling Stones - Tattoo You\cd 1\10. The Rolling Stones - No Use in Crying.wav

Peak level 100.0 %
Extraction speed 7.3 X
Track quality 100.0 %
Test CRC 79C76E93
Copy CRC 79C76E93
Accurately ripped (confidence 19) [10994D7B] (AR v2)
Copy OK

Track 11

Filename D:\#cdr\#wav+flac\#Add\The Rolling Stones - Tattoo You\cd 1\11. The Rolling Stones - Waiting on a Friend.wav

Peak level 100.0 %
Extraction speed 7.7 X
Track quality 100.0 %
Test CRC EA467140
Copy CRC EA467140
Accurately ripped (confidence 19) [9FBF7952] (AR v2)
Copy OK


All tracks accurately ripped

No errors occurred

End of status report

–– CUETools DB Plugin V2.1.6

[CTDB TOCID: X1Z5.Uio76ZWEanmEySYvrVdzNY-] found
Submit result: X1Z5.Uio76ZWEanmEySYvrVdzNY- has been confirmed
Track | CTDB Status
1 | (138/138) Accurately ripped
2 | (138/138) Accurately ripped
3 | (138/138) Accurately ripped
4 | (138/138) Accurately ripped
5 | (137/138) Accurately ripped
6 | (137/138) Accurately ripped
7 | (137/138) Accurately ripped
8 | (137/138) Accurately ripped
9 | (137/138) Accurately ripped
10 | (137/138) Accurately ripped
11 | (137/138) Accurately ripped


==== Log checksum AB77FAAF0BA4BC52C204175F321FD83C076954A90A01638098CB53A01CC4EFDB ====

Exact Audio Copy V1.3 from 2. September 2016

EAC extraction logfile from 26. December 2021, 8:52

The Rolling Stones / Tattoo You

Used drive : HL-DT-STBD-RE BH16NS55 Adapter: 1 ID: 0

Read mode : Secure
Utilize accurate stream : Yes
Defeat audio cache : Yes
Make use of C2 pointers : No

Read offset correction : 6
Overread into Lead-In and Lead-Out : No
Fill up missing offset samples with silence : Yes
Delete leading and trailing silent blocks : No
Null samples used in CRC calculations : Yes
Used interface : Native Win32 interface for Win NT & 2000
Gap handling : Appended to previous track

Used output format : User Defined Encoder
Selected bitrate : 1024 kBit/s
Quality : High
Add ID3 tag : No
Command line compressor : C:\Program Files (x86)\Exact Audio Copy\Flac\flac.exe
Additional command line options : -8 -V -T "ARTIST=%artist%" -T "TITLE=%title%" -T "ALBUM=%albumtitle%" -T "DATE=%year%" -T "TRACKNUMBER=%tracknr%" -T "GENRE=%genre%" -T "PERFORMER=%albuminterpret%" -T "COMPOSER=%composer%" %haslyrics%–tag-from-file=LYRICS="%lyricsfile%"%haslyrics% -T "ALBUMARTIST=%albumartist%" -T "DISCNUMBER=%cdnumber%" -T "TOTALDISCS=%totalcds%" -T "TOTALTRACKS=%numtracks%" -T "COMMENT=%comment%" %source% -o %dest%


TOC of the extracted CD

Track | Start | Length | Start sector | End sector
––––––––––––––––––––––––––––-
1 | 0:00.00 | 4:13.04 | 0 | 18978
2 | 4:13.04 | 4:00.35 | 18979 | 37013
3 | 8:13.39 | 4:16.13 | 37014 | 56226
4 | 12:29.52 | 4:13.41 | 56227 | 75242
5 | 16:43.18 | 4:06.44 | 75243 | 93736
6 | 20:49.62 | 4:57.00 | 93737 | 116011
7 | 25:46.62 | 3:40.53 | 116012 | 132564
8 | 29:27.40 | 5:40.15 | 132565 | 158079
9 | 35:07.55 | 4:10.28 | 158080 | 176857


Track 1

Filename D:\#cdr\#wav+flac\#Add\The Rolling Stones - Tattoo You\cd 2\01. The Rolling Stones - Living In The Heart Of Love.wav

Pre-gap length 0:00:02.00

Peak level 100.0 %
Extraction speed 4.5 X
Track quality 100.0 %
Test CRC 8538794C
Copy CRC 8538794C
Accurately ripped (confidence 17) [728D77BC] (AR v2)
Copy OK

Track 2

Filename D:\#cdr\#wav+flac\#Add\The Rolling Stones - Tattoo You\cd 2\02. The Rolling Stones - Fiji Jim.wav

Peak level 100.0 %
Extraction speed 4.9 X
Track quality 100.0 %
Test CRC 0AADDCAA
Copy CRC 0AADDCAA
Accurately ripped (confidence 17) [62BA3D0C] (AR v2)
Copy OK

Track 3

Filename D:\#cdr\#wav+flac\#Add\The Rolling Stones - Tattoo You\cd 2\03. The Rolling Stones - Troubles A' Comin.wav

Peak level 100.0 %
Extraction speed 5.4 X
Track quality 100.0 %
Test CRC 9B3EE8F3
Copy CRC 9B3EE8F3
Accurately ripped (confidence 17) [E8FB167F] (AR v2)
Copy OK

Track 4

Filename D:\#cdr\#wav+flac\#Add\The Rolling Stones - Tattoo You\cd 2\04. The Rolling Stones - Shame, Shame, Shame.wav

Peak level 100.0 %
Extraction speed 5.8 X
Track quality 100.0 %
Test CRC 6D4AF883
Copy CRC 6D4AF883
Accurately ripped (confidence 17) [16B94198] (AR v2)
Copy OK

Track 5

Filename D:\#cdr\#wav+flac\#Add\The Rolling Stones - Tattoo You\cd 2\05. The Rolling Stones - Drift Away.wav

Peak level 95.8 %
Extraction speed 6.2 X
Track quality 100.0 %
Test CRC FEF120E8
Copy CRC FEF120E8
Accurately ripped (confidence 17) [6F4B7F42] (AR v2)
Copy OK

Track 6

Filename D:\#cdr\#wav+flac\#Add\The Rolling Stones - Tattoo You\cd 2\06. The Rolling Stones - It's A Lie.wav

Peak level 99.9 %
Extraction speed 6.6 X
Track quality 100.0 %
Test CRC 3EDE77C1
Copy CRC 3EDE77C1
Accurately ripped (confidence 17) [7C582FC4] (AR v2)
Copy OK

Track 7

Filename D:\#cdr\#wav+flac\#Add\The Rolling Stones - Tattoo You\cd 2\07. The Rolling Stones - Come To The Ball.wav

Peak level 100.0 %
Extraction speed 6.7 X
Track quality 100.0 %
Test CRC C56D059F
Copy CRC C56D059F
Accurately ripped (confidence 17) [CEAA49D1] (AR v2)
Copy OK

Track 8

Filename D:\#cdr\#wav+flac\#Add\The Rolling Stones - Tattoo You\cd 2\08. The Rolling Stones - Fast Talking, Slow Walking.wav

Peak level 100.0 %
Extraction speed 7.4 X
Track quality 100.0 %
Test CRC 99375262
Copy CRC 99375262
Accurately ripped (confidence 17) [071A3053] (AR v2)
Copy OK

Track 9

Filename D:\#cdr\#wav+flac\#Add\The Rolling Stones - Tattoo You\cd 2\09. The Rolling Stones - Start Me Up (Early Version).wav

Peak level 99.9 %
Extraction speed 7.4 X
Track quality 100.0 %
Test CRC C73C879C
Copy CRC C73C879C
Accurately ripped (confidence 17) [C1358AD4] (AR v2)
Copy OK


All tracks accurately ripped

No errors occurred

End of status report

–– CUETools DB Plugin V2.1.6

[CTDB TOCID: JdLAIoGPXHkgqVQcs2jZgrbBsAo-] found
Submit result: JdLAIoGPXHkgqVQcs2jZgrbBsAo- has been confirmed
Track | CTDB Status
1 | (139/139) Accurately ripped
2 | (139/139) Accurately ripped
3 | (139/139) Accurately ripped
4 | (139/139) Accurately ripped
5 | (139/139) Accurately ripped
6 | (139/139) Accurately ripped
7 | (139/139) Accurately ripped
8 | (139/139) Accurately ripped
9 | (139/139) Accurately ripped


==== Log checksum BB50C038F9A97548CA7C43A45FF9941D7472690459D0FE70677A66B30CD4C0BC ====

Exact Audio Copy V1.3 from 2. September 2016

EAC extraction logfile from 26. December 2021, 9:15

The Rolling Stones / Still Life (Wembley Stadium, 1982)

Used drive : HL-DT-STBD-RE BH16NS55 Adapter: 1 ID: 0

Read mode : Secure
Utilize accurate stream : Yes
Defeat audio cache : Yes
Make use of C2 pointers : No

Read offset correction : 6
Overread into Lead-In and Lead-Out : No
Fill up missing offset samples with silence : Yes
Delete leading and trailing silent blocks : No
Null samples used in CRC calculations : Yes
Used interface : Native Win32 interface for Win NT & 2000
Gap handling : Appended to previous track

Used output format : User Defined Encoder
Selected bitrate : 1024 kBit/s
Quality : High
Add ID3 tag : No
Command line compressor : C:\Program Files (x86)\Exact Audio Copy\Flac\flac.exe
Additional command line options : -8 -V -T "ARTIST=%artist%" -T "TITLE=%title%" -T "ALBUM=%albumtitle%" -T "DATE=%year%" -T "TRACKNUMBER=%tracknr%" -T "GENRE=%genre%" -T "PERFORMER=%albuminterpret%" -T "COMPOSER=%composer%" %haslyrics%–tag-from-file=LYRICS="%lyricsfile%"%haslyrics% -T "ALBUMARTIST=%albumartist%" -T "DISCNUMBER=%cdnumber%" -T "TOTALDISCS=%totalcds%" -T "TOTALTRACKS=%numtracks%" -T "COMMENT=%comment%" %source% -o %dest%


TOC of the extracted CD

Track | Start | Length | Start sector | End sector
––––––––––––––––––––––––––––-
1 | 0:00.00 | 3:54.47 | 0 | 17596
2 | 3:54.47 | 4:33.41 | 17597 | 38112
3 | 8:28.13 | 4:22.03 | 38113 | 57765
4 | 12:50.16 | 4:41.05 | 57766 | 78845
5 | 17:31.21 | 4:10.11 | 78846 | 97606
6 | 21:41.32 | 3:51.30 | 97607 | 114961
7 | 25:32.62 | 9:32.14 | 114962 | 157875
8 | 35:05.01 | 1:46.09 | 157876 | 165834
9 | 36:51.10 | 3:40.00 | 165835 | 182334
10 | 40:31.10 | 4:11.47 | 182335 | 201206
11 | 44:42.57 | 4:05.55 | 201207 | 219636
12 | 48:48.37 | 3:51.08 | 219637 | 236969
13 | 52:39.45 | 7:22.48 | 236970 | 270167
14 | 60:02.18 | 6:02.41 | 270168 | 297358


Track 1

Filename D:\#cdr\#wav+flac\#Add\The Rolling Stones - Tattoo You\cd 3\01. The Rolling Stones - Under My Thumb.wav

Pre-gap length 0:00:02.00

Peak level 89.8 %
Extraction speed 4.6 X
Track quality 100.0 %
Test CRC EE48CEE2
Copy CRC EE48CEE2
Accurately ripped (confidence 3) [19E2FE26] (AR v2)
Copy OK

Track 2

Filename D:\#cdr\#wav+flac\#Add\The Rolling Stones - Tattoo You\cd 3\02. The Rolling Stones - When the Whip Comes Down.wav

Peak level 89.7 %
Extraction speed 4.4 X
Track quality 99.9 %
Test CRC 096B1D07
Copy CRC 096B1D07
Accurately ripped (confidence 3) [D8F27AEF] (AR v2)
Copy OK

Track 3

Filename D:\#cdr\#wav+flac\#Add\The Rolling Stones - Tattoo You\cd 3\03. The Rolling Stones - Let’s Spend the Night Together.wav

Peak level 88.9 %
Extraction speed 5.6 X
Track quality 100.0 %
Test CRC 34BBF70E
Copy CRC 34BBF70E
Accurately ripped (confidence 3) [CF30B56A] (AR v2)
Copy OK

Track 4

Filename D:\#cdr\#wav+flac\#Add\The Rolling Stones - Tattoo You\cd 3\04. The Rolling Stones - Shattered.wav

Peak level 88.6 %
Extraction speed 6.1 X
Track quality 100.0 %
Test CRC C9530FF2
Copy CRC C9530FF2
Accurately ripped (confidence 3) [30077ABB] (AR v2)
Copy OK

Track 5

Filename D:\#cdr\#wav+flac\#Add\The Rolling Stones - Tattoo You\cd 3\05. The Rolling Stones - Neighbours.wav

Peak level 88.6 %
Extraction speed 6.5 X
Track quality 100.0 %
Test CRC A4093056
Copy CRC A4093056
Accurately ripped (confidence 3) [26A37CC2] (AR v2)
Copy OK

Track 6

Filename D:\#cdr\#wav+flac\#Add\The Rolling Stones - Tattoo You\cd 3\06. The Rolling Stones - Black Limousine.wav

Peak level 88.6 %
Extraction speed 5.6 X
Track quality 99.9 %
Test CRC BC56C703
Copy CRC BC56C703
Accurately ripped (confidence 3) [BC377CCE] (AR v2)
Copy OK

Track 7

Filename D:\#cdr\#wav+flac\#Add\The Rolling Stones - Tattoo You\cd 3\07. The Rolling Stones - Just My Imagination (Running Away with Me).wav

Peak level 88.6 %
Extraction speed 7.8 X
Track quality 100.0 %
Test CRC D441676F
Copy CRC D441676F
Accurately ripped (confidence 3) [6E986D79] (AR v2)
Copy OK

Track 8

Filename D:\#cdr\#wav+flac\#Add\The Rolling Stones - Tattoo You\cd 3\08. The Rolling Stones - Twenty Flight Rock.wav

Peak level 88.6 %
Extraction speed 6.6 X
Track quality 100.0 %
Test CRC C1AB60F3
Copy CRC C1AB60F3
Accurately ripped (confidence 3) [47AFED53] (AR v2)
Copy OK

Track 9

Filename D:\#cdr\#wav+flac\#Add\The Rolling Stones - Tattoo You\cd 3\09. The Rolling Stones - Going to a Go‐Go.wav

Peak level 88.6 %
Extraction speed 7.7 X
Track quality 100.0 %
Test CRC 9D2B2BB8
Copy CRC 9D2B2BB8
Accurately ripped (confidence 3) [6438DC29] (AR v2)
Copy OK

Track 10

Filename D:\#cdr\#wav+flac\#Add\The Rolling Stones - Tattoo You\cd 3\10. The Rolling Stones - Chantilly Lace.wav

Peak level 88.8 %
Extraction speed 6.8 X
Track quality 99.9 %
Test CRC F81EFF0E
Copy CRC F81EFF0E
Accurately ripped (confidence 3) [A6870DA2] (AR v2)
Copy OK

Track 11

Filename D:\#cdr\#wav+flac\#Add\The Rolling Stones - Tattoo You\cd 3\11. The Rolling Stones - Let Me Go.wav

Peak level 88.6 %
Extraction speed 8.4 X
Track quality 100.0 %
Test CRC 6A32FF54
Copy CRC 6A32FF54
Accurately ripped (confidence 3) [4D22EB79] (AR v2)
Copy OK

Track 12

Filename D:\#cdr\#wav+flac\#Add\The Rolling Stones - Tattoo You\cd 3\12. The Rolling Stones - Time Is on My Side.wav

Peak level 88.7 %
Extraction speed 8.5 X
Track quality 100.0 %
Test CRC E17D1634
Copy CRC E17D1634
Accurately ripped (confidence 3) [FF9F1E96] (AR v2)
Copy OK

Track 13

Filename D:\#cdr\#wav+flac\#Add\The Rolling Stones - Tattoo You\cd 3\13. The Rolling Stones - Beast of Burden.wav

Peak level 88.6 %
Extraction speed 9.5 X
Track quality 100.0 %
Test CRC 0474804D
Copy CRC 0474804D
Accurately ripped (confidence 3) [111743F8] (AR v2)
Copy OK

Track 14

Filename D:\#cdr\#wav+flac\#Add\The Rolling Stones - Tattoo You\cd 3\14. The Rolling Stones - Let It Bleed.wav

Peak level 88.6 %
Extraction speed 8.3 X
Track quality 99.9 %
Test CRC B5D720C4
Copy CRC B5D720C4
Accurately ripped (confidence 3) [AB85C633] (AR v2)
Copy OK


All tracks accurately ripped

No errors occurred

End of status report

–– CUETools DB Plugin V2.1.6

[CTDB TOCID: XuDIjjUj21w6rQ_3W6XLBzTZeqU-] found
Submit result: XuDIjjUj21w6rQ_3W6XLBzTZeqU- has been confirmed
Track | CTDB Status
1 | (28/28) Accurately ripped
2 | (28/28) Accurately ripped
3 | (28/28) Accurately ripped
4 | (28/28) Accurately ripped
5 | (28/28) Accurately ripped
6 | (28/28) Accurately ripped
7 | (28/28) Accurately ripped
8 | (28/28) Accurately ripped
9 | (28/28) Accurately ripped
10 | (28/28) Accurately ripped
11 | (28/28) Accurately ripped
12 | (28/28) Accurately ripped
13 | (28/28) Accurately ripped
14 | (28/28) Accurately ripped


==== Log checksum C334AF884B95E3858BF427A6B828C2326BDC45DD3132637F06BD0C0B01072E92 ====

––––––––––––––––––––––––––––––

Exact Audio Copy V1.3 from 2. September 2016

EAC extraction logfile from 26. December 2021, 9:15

The Rolling Stones / Still Life (Wembley Stadium, 1982)

Used drive : HL-DT-STBD-RE BH16NS55 Adapter: 1 ID: 0

Read mode : Secure
Utilize accurate stream : Yes
Defeat audio cache : Yes
Make use of C2 pointers : No

Read offset correction : 6
Overread into Lead-In and Lead-Out : No
Fill up missing offset samples with silence : Yes
Delete leading and trailing silent blocks : No
Null samples used in CRC calculations : Yes
Used interface : Native Win32 interface for Win NT & 2000
Gap handling : Appended to previous track

Used output format : User Defined Encoder
Selected bitrate : 1024 kBit/s
Quality : High
Add ID3 tag : No
Command line compressor : C:\Program Files (x86)\Exact Audio Copy\Flac\flac.exe
Additional command line options : -8 -V -T "ARTIST=%artist%" -T "TITLE=%title%" -T "ALBUM=%albumtitle%" -T "DATE=%year%" -T "TRACKNUMBER=%tracknr%" -T "GENRE=%genre%" -T "PERFORMER=%albuminterpret%" -T "COMPOSER=%composer%" %haslyrics%–tag-from-file=LYRICS="%lyricsfile%"%haslyrics% -T "ALBUMARTIST=%albumartist%" -T "DISCNUMBER=%cdnumber%" -T "TOTALDISCS=%totalcds%" -T "TOTALTRACKS=%numtracks%" -T "COMMENT=%comment%" %source% -o %dest%


TOC of the extracted CD

Track | Start | Length | Start sector | End sector
––––––––––––––––––––––––––––-
1 | 0:00.00 | 3:54.47 | 0 | 17596
2 | 3:54.47 | 4:33.41 | 17597 | 38112
3 | 8:28.13 | 4:22.03 | 38113 | 57765
4 | 12:50.16 | 4:41.05 | 57766 | 78845
5 | 17:31.21 | 4:10.11 | 78846 | 97606
6 | 21:41.32 | 3:51.30 | 97607 | 114961
7 | 25:32.62 | 9:32.14 | 114962 | 157875
8 | 35:05.01 | 1:46.09 | 157876 | 165834
9 | 36:51.10 | 3:40.00 | 165835 | 182334
10 | 40:31.10 | 4:11.47 | 182335 | 201206
11 | 44:42.57 | 4:05.55 | 201207 | 219636
12 | 48:48.37 | 3:51.08 | 219637 | 236969
13 | 52:39.45 | 7:22.48 | 236970 | 270167
14 | 60:02.18 | 6:02.41 | 270168 | 297358


Track 1

Filename D:\#cdr\#wav+flac\#Add\The Rolling Stones - Tattoo You\cd 3\01. The Rolling Stones - Under My Thumb.wav

Pre-gap length 0:00:02.00

Peak level 89.8 %
Extraction speed 4.6 X
Track quality 100.0 %
Test CRC EE48CEE2
Copy CRC EE48CEE2
Accurately ripped (confidence 3) [19E2FE26] (AR v2)
Copy OK

Track 2

Filename D:\#cdr\#wav+flac\#Add\The Rolling Stones - Tattoo You\cd 3\02. The Rolling Stones - When the Whip Comes Down.wav

Peak level 89.7 %
Extraction speed 4.4 X
Track quality 99.9 %
Test CRC 096B1D07
Copy CRC 096B1D07
Accurately ripped (confidence 3) [D8F27AEF] (AR v2)
Copy OK

Track 3

Filename D:\#cdr\#wav+flac\#Add\The Rolling Stones - Tattoo You\cd 3\03. The Rolling Stones - Let’s Spend the Night Together.wav

Peak level 88.9 %
Extraction speed 5.6 X
Track quality 100.0 %
Test CRC 34BBF70E
Copy CRC 34BBF70E
Accurately ripped (confidence 3) [CF30B56A] (AR v2)
Copy OK

Track 4

Filename D:\#cdr\#wav+flac\#Add\The Rolling Stones - Tattoo You\cd 3\04. The Rolling Stones - Shattered.wav

Peak level 88.6 %
Extraction speed 6.1 X
Track quality 100.0 %
Test CRC C9530FF2
Copy CRC C9530FF2
Accurately ripped (confidence 3) [30077ABB] (AR v2)
Copy OK

Track 5

Filename D:\#cdr\#wav+flac\#Add\The Rolling Stones - Tattoo You\cd 3\05. The Rolling Stones - Neighbours.wav

Peak level 88.6 %
Extraction speed 6.5 X
Track quality 100.0 %
Test CRC A4093056
Copy CRC A4093056
Accurately ripped (confidence 3) [26A37CC2] (AR v2)
Copy OK

Track 6

Filename D:\#cdr\#wav+flac\#Add\The Rolling Stones - Tattoo You\cd 3\06. The Rolling Stones - Black Limousine.wav

Peak level 88.6 %
Extraction speed 5.6 X
Track quality 99.9 %
Test CRC BC56C703
Copy CRC BC56C703
Accurately ripped (confidence 3) [BC377CCE] (AR v2)
Copy OK

Track 7

Filename D:\#cdr\#wav+flac\#Add\The Rolling Stones - Tattoo You\cd 3\07. The Rolling Stones - Just My Imagination (Running Away with Me).wav

Peak level 88.6 %
Extraction speed 7.8 X
Track quality 100.0 %
Test CRC D441676F
Copy CRC D441676F
Accurately ripped (confidence 3) [6E986D79] (AR v2)
Copy OK

Track 8

Filename D:\#cdr\#wav+flac\#Add\The Rolling Stones - Tattoo You\cd 3\08. The Rolling Stones - Twenty Flight Rock.wav

Peak level 88.6 %
Extraction speed 6.6 X
Track quality 100.0 %
Test CRC C1AB60F3
Copy CRC C1AB60F3
Accurately ripped (confidence 3) [47AFED53] (AR v2)
Copy OK

Track 9

Filename D:\#cdr\#wav+flac\#Add\The Rolling Stones - Tattoo You\cd 3\09. The Rolling Stones - Going to a Go‐Go.wav

Peak level 88.6 %
Extraction speed 7.7 X
Track quality 100.0 %
Test CRC 9D2B2BB8
Copy CRC 9D2B2BB8
Accurately ripped (confidence 3) [6438DC29] (AR v2)
Copy OK

Track 10

Filename D:\#cdr\#wav+flac\#Add\The Rolling Stones - Tattoo You\cd 3\10. The Rolling Stones - Chantilly Lace.wav

Peak level 88.8 %
Extraction speed 6.8 X
Track quality 99.9 %
Test CRC F81EFF0E
Copy CRC F81EFF0E
Accurately ripped (confidence 3) [A6870DA2] (AR v2)
Copy OK

Track 11

Filename D:\#cdr\#wav+flac\#Add\The Rolling Stones - Tattoo You\cd 3\11. The Rolling Stones - Let Me Go.wav

Peak level 88.6 %
Extraction speed 8.4 X
Track quality 100.0 %
Test CRC 6A32FF54
Copy CRC 6A32FF54
Accurately ripped (confidence 3) [4D22EB79] (AR v2)
Copy OK

Track 12

Filename D:\#cdr\#wav+flac\#Add\The Rolling Stones - Tattoo You\cd 3\12. The Rolling Stones - Time Is on My Side.wav

Peak level 88.7 %
Extraction speed 8.5 X
Track quality 100.0 %
Test CRC E17D1634
Copy CRC E17D1634
Accurately ripped (confidence 3) [FF9F1E96] (AR v2)
Copy OK

Track 13

Filename D:\#cdr\#wav+flac\#Add\The Rolling Stones - Tattoo You\cd 3\13. The Rolling Stones - Beast of Burden.wav

Peak level 88.6 %
Extraction speed 9.5 X
Track quality 100.0 %
Test CRC 0474804D
Copy CRC 0474804D
Accurately ripped (confidence 3) [111743F8] (AR v2)
Copy OK

Track 14

Filename D:\#cdr\#wav+flac\#Add\The Rolling Stones - Tattoo You\cd 3\14. The Rolling Stones - Let It Bleed.wav

Peak level 88.6 %
Extraction speed 8.3 X
Track quality 99.9 %
Test CRC B5D720C4
Copy CRC B5D720C4
Accurately ripped (confidence 3) [AB85C633] (AR v2)
Copy OK


All tracks accurately ripped

No errors occurred

End of status report

–– CUETools DB Plugin V2.1.6

[CTDB TOCID: XuDIjjUj21w6rQ_3W6XLBzTZeqU-] found
Submit result: XuDIjjUj21w6rQ_3W6XLBzTZeqU- has been confirmed
Track | CTDB Status
1 | (28/28) Accurately ripped
2 | (28/28) Accurately ripped
3 | (28/28) Accurately ripped
4 | (28/28) Accurately ripped
5 | (28/28) Accurately ripped
6 | (28/28) Accurately ripped
7 | (28/28) Accurately ripped
8 | (28/28) Accurately ripped
9 | (28/28) Accurately ripped
10 | (28/28) Accurately ripped
11 | (28/28) Accurately ripped
12 | (28/28) Accurately ripped
13 | (28/28) Accurately ripped
14 | (28/28) Accurately ripped


==== Log checksum C334AF884B95E3858BF427A6B828C2326BDC45DD3132637F06BD0C0B01072E92 ====

Exact Audio Copy V1.3 from 2. September 2016

EAC extraction logfile from 26. December 2021, 12:57

The Rolling Stones / Still Life (Wembley Stadium, 1982)

Used drive : HL-DT-STBD-RE BH16NS55 Adapter: 1 ID: 0

Read mode : Secure
Utilize accurate stream : Yes
Defeat audio cache : Yes
Make use of C2 pointers : No

Read offset correction : 6
Overread into Lead-In and Lead-Out : No
Fill up missing offset samples with silence : Yes
Delete leading and trailing silent blocks : No
Null samples used in CRC calculations : Yes
Used interface : Native Win32 interface for Win NT & 2000
Gap handling : Appended to previous track

Used output format : User Defined Encoder
Selected bitrate : 1024 kBit/s
Quality : High
Add ID3 tag : No
Command line compressor : C:\Program Files (x86)\Exact Audio Copy\Flac\flac.exe
Additional command line options : -8 -V -T "ARTIST=%artist%" -T "TITLE=%title%" -T "ALBUM=%albumtitle%" -T "DATE=%year%" -T "TRACKNUMBER=%tracknr%" -T "GENRE=%genre%" -T "PERFORMER=%albuminterpret%" -T "COMPOSER=%composer%" %haslyrics%–tag-from-file=LYRICS="%lyricsfile%"%haslyrics% -T "ALBUMARTIST=%albumartist%" -T "DISCNUMBER=%cdnumber%" -T "TOTALDISCS=%totalcds%" -T "TOTALTRACKS=%numtracks%" -T "COMMENT=%comment%" %source% -o %dest%


TOC of the extracted CD

Track | Start | Length | Start sector | End sector
––––––––––––––––––––––––––––-
1 | 0:00.00 | 10:49.08 | 0 | 48682
2 | 10:49.08 | 1:11.41 | 48683 | 54048
3 | 12:00.49 | 3:21.09 | 54049 | 69132
4 | 15:21.58 | 4:27.05 | 69133 | 89162
5 | 19:48.63 | 4:10.37 | 89163 | 107949
6 | 23:59.25 | 2:27.08 | 107950 | 118982
7 | 26:26.33 | 7:48.44 | 118983 | 154126
8 | 34:15.02 | 3:31.32 | 154127 | 169983
9 | 37:46.34 | 3:23.73 | 169984 | 185281
10 | 41:10.32 | 4:39.65 | 185282 | 206271
11 | 45:50.22 | 6:01.40 | 206272 | 233386
12 | 51:51.62 | 6:04.14 | 233387 | 260700


Track 1

Filename D:\#cdr\#wav+flac\#Add\The Rolling Stones - Tattoo You\cd 4\01. The Rolling Stones - You Can't Always Get What You Want.wav

Pre-gap length 0:00:02.00

Peak level 95.8 %
Extraction speed 2.3 X
Track quality 100.0 %
Test CRC FAAE9438
Copy CRC FAAE9438
Accurately ripped (confidence 3) [72AE7CEE] (AR v2)
Copy OK

Track 2

Filename D:\#cdr\#wav+flac\#Add\The Rolling Stones - Tattoo You\cd 4\02. The Rolling Stones - [Band Introductions].wav

Peak level 88.5 %
Extraction speed 1.9 X
Track quality 100.0 %
Test CRC 6C725226
Copy CRC 6C725226
Accurately ripped (confidence 3) [AC6EE98E] (AR v2)
Copy OK

Track 3

Filename D:\#cdr\#wav+flac\#Add\The Rolling Stones - Tattoo You\cd 4\03. The Rolling Stones - Little T & A.wav

Peak level 88.6 %
Extraction speed 2.5 X
Track quality 100.0 %
Test CRC 83A11D68
Copy CRC 83A11D68
Accurately ripped (confidence 3) [CEFECBB4] (AR v2)
Copy OK

Track 4

Filename D:\#cdr\#wav+flac\#Add\The Rolling Stones - Tattoo You\cd 4\04. The Rolling Stones - Tumbling Dice.wav

Peak level 88.6 %
Extraction speed 2.7 X
Track quality 100.0 %
Test CRC 8B557A1C
Copy CRC 8B557A1C
Accurately ripped (confidence 3) [0DCE10A2] (AR v2)
Copy OK

Track 5

Filename D:\#cdr\#wav+flac\#Add\The Rolling Stones - Tattoo You\cd 4\05. The Rolling Stones - She’s So Cold.wav

Peak level 88.6 %
Extraction speed 2.9 X
Track quality 100.0 %
Test CRC 82797236
Copy CRC 82797236
Accurately ripped (confidence 3) [0DBCB285] (AR v2)
Copy OK

Track 6

Filename D:\#cdr\#wav+flac\#Add\The Rolling Stones - Tattoo You\cd 4\06. The Rolling Stones - Hang Fire.wav

Peak level 88.6 %
Extraction speed 2.6 X
Track quality 100.0 %
Test CRC A29B5E49
Copy CRC A29B5E49
Accurately ripped (confidence 3) [D74ACD4B] (AR v2)
Copy OK

Track 7

Filename D:\#cdr\#wav+flac\#Add\The Rolling Stones - Tattoo You\cd 4\07. The Rolling Stones - Miss You.wav

Peak level 89.3 %
Extraction speed 3.4 X
Track quality 100.0 %
Test CRC 31648CD0
Copy CRC 31648CD0
Accurately ripped (confidence 3) [8BACDBCE] (AR v2)
Copy OK

Track 8

Filename D:\#cdr\#wav+flac\#Add\The Rolling Stones - Tattoo You\cd 4\08. The Rolling Stones - Honky Tonk Women.wav

Peak level 88.6 %
Extraction speed 3.3 X
Track quality 100.0 %
Test CRC 06747A15
Copy CRC 06747A15
Accurately ripped (confidence 3) [69278820] (AR v2)
Copy OK

Track 9

Filename D:\#cdr\#wav+flac\#Add\The Rolling Stones - Tattoo You\cd 4\09. The Rolling Stones - Brown Sugar.wav

Peak level 88.6 %
Extraction speed 3.4 X
Track quality 100.0 %
Test CRC 014C4803
Copy CRC 014C4803
Accurately ripped (confidence 3) [3F7D36BD] (AR v2)
Copy OK

Track 10

Filename D:\#cdr\#wav+flac\#Add\The Rolling Stones - Tattoo You\cd 4\10. The Rolling Stones - Start Me Up.wav

Peak level 88.7 %
Extraction speed 2.8 X
Track quality 99.9 %
Test CRC ADE62E32
Copy CRC ADE62E32
Accurately ripped (confidence 3) [DEF963C1] (AR v2)
Copy OK

Track 11

Filename D:\#cdr\#wav+flac\#Add\The Rolling Stones - Tattoo You\cd 4\11. The Rolling Stones - Jumpin’ Jack Flash.wav

Peak level 88.6 %
Extraction speed 3.1 X
Track quality 99.9 %
Test CRC DCF0CB52
Copy CRC DCF0CB52
Accurately ripped (confidence 3) [80792B1C] (AR v2)
Copy OK

Track 12

Filename D:\#cdr\#wav+flac\#Add\The Rolling Stones - Tattoo You\cd 4\12. The Rolling Stones - (I Can’t Get No) Satisfaction.wav

Peak level 89.8 %
Extraction speed 3.2 X
Track quality 99.9 %
Test CRC 76B39D09
Copy CRC 76B39D09
Accurately ripped (confidence 3) [A8BBED45] (AR v2)
Copy OK


All tracks accurately ripped

No errors occurred

End of status report

–– CUETools DB Plugin V2.1.6

[CTDB TOCID: 56w.Vxb7WNBVt3BXSJeJ8qwmNzM-] found
Submit result: 56w.Vxb7WNBVt3BXSJeJ8qwmNzM- has been confirmed
Track | CTDB Status
1 | (27/28) Accurately ripped
2 | (28/28) Accurately ripped
3 | (28/28) Accurately ripped
4 | (28/28) Accurately ripped
5 | (28/28) Accurately ripped
6 | (28/28) Accurately ripped
7 | (28/28) Accurately ripped
8 | (28/28) Accurately ripped
9 | (28/28) Accurately ripped
10 | (28/28) Accurately ripped
11 | (28/28) Accurately ripped
12 | (28/28) Accurately ripped


==== Log checksum F5065AF5500DC0ABAE53A1591EC366C41B00E04A0BEBD04B47F981936F48D8E9 ====

––––––––––––––––––––––––––––––

Exact Audio Copy V1.3 from 2. September 2016

EAC extraction logfile from 26. December 2021, 12:57

The Rolling Stones / Still Life (Wembley Stadium, 1982)

Used drive : HL-DT-STBD-RE BH16NS55 Adapter: 1 ID: 0

Read mode : Secure
Utilize accurate stream : Yes
Defeat audio cache : Yes
Make use of C2 pointers : No

Read offset correction : 6
Overread into Lead-In and Lead-Out : No
Fill up missing offset samples with silence : Yes
Delete leading and trailing silent blocks : No
Null samples used in CRC calculations : Yes
Used interface : Native Win32 interface for Win NT & 2000
Gap handling : Appended to previous track

Used output format : User Defined Encoder
Selected bitrate : 1024 kBit/s
Quality : High
Add ID3 tag : No
Command line compressor : C:\Program Files (x86)\Exact Audio Copy\Flac\flac.exe
Additional command line options : -8 -V -T "ARTIST=%artist%" -T "TITLE=%title%" -T "ALBUM=%albumtitle%" -T "DATE=%year%" -T "TRACKNUMBER=%tracknr%" -T "GENRE=%genre%" -T "PERFORMER=%albuminterpret%" -T "COMPOSER=%composer%" %haslyrics%–tag-from-file=LYRICS="%lyricsfile%"%haslyrics% -T "ALBUMARTIST=%albumartist%" -T "DISCNUMBER=%cdnumber%" -T "TOTALDISCS=%totalcds%" -T "TOTALTRACKS=%numtracks%" -T "COMMENT=%comment%" %source% -o %dest%


TOC of the extracted CD

Track | Start | Length | Start sector | End sector
––––––––––––––––––––––––––––-
1 | 0:00.00 | 10:49.08 | 0 | 48682
2 | 10:49.08 | 1:11.41 | 48683 | 54048
3 | 12:00.49 | 3:21.09 | 54049 | 69132
4 | 15:21.58 | 4:27.05 | 69133 | 89162
5 | 19:48.63 | 4:10.37 | 89163 | 107949
6 | 23:59.25 | 2:27.08 | 107950 | 118982
7 | 26:26.33 | 7:48.44 | 118983 | 154126
8 | 34:15.02 | 3:31.32 | 154127 | 169983
9 | 37:46.34 | 3:23.73 | 169984 | 185281
10 | 41:10.32 | 4:39.65 | 185282 | 206271
11 | 45:50.22 | 6:01.40 | 206272 | 233386
12 | 51:51.62 | 6:04.14 | 233387 | 260700


Track 1

Filename D:\#cdr\#wav+flac\#Add\The Rolling Stones - Tattoo You\cd 4\01. The Rolling Stones - You Can't Always Get What You Want.wav

Pre-gap length 0:00:02.00

Peak level 95.8 %
Extraction speed 2.3 X
Track quality 100.0 %
Test CRC FAAE9438
Copy CRC FAAE9438
Accurately ripped (confidence 3) [72AE7CEE] (AR v2)
Copy OK

Track 2

Filename D:\#cdr\#wav+flac\#Add\The Rolling Stones - Tattoo You\cd 4\02. The Rolling Stones - [Band Introductions].wav

Peak level 88.5 %
Extraction speed 1.9 X
Track quality 100.0 %
Test CRC 6C725226
Copy CRC 6C725226
Accurately ripped (confidence 3) [AC6EE98E] (AR v2)
Copy OK

Track 3

Filename D:\#cdr\#wav+flac\#Add\The Rolling Stones - Tattoo You\cd 4\03. The Rolling Stones - Little T & A.wav

Peak level 88.6 %
Extraction speed 2.5 X
Track quality 100.0 %
Test CRC 83A11D68
Copy CRC 83A11D68
Accurately ripped (confidence 3) [CEFECBB4] (AR v2)
Copy OK

Track 4

Filename D:\#cdr\#wav+flac\#Add\The Rolling Stones - Tattoo You\cd 4\04. The Rolling Stones - Tumbling Dice.wav

Peak level 88.6 %
Extraction speed 2.7 X
Track quality 100.0 %
Test CRC 8B557A1C
Copy CRC 8B557A1C
Accurately ripped (confidence 3) [0DCE10A2] (AR v2)
Copy OK

Track 5

Filename D:\#cdr\#wav+flac\#Add\The Rolling Stones - Tattoo You\cd 4\05. The Rolling Stones - She’s So Cold.wav

Peak level 88.6 %
Extraction speed 2.9 X
Track quality 100.0 %
Test CRC 82797236
Copy CRC 82797236
Accurately ripped (confidence 3) [0DBCB285] (AR v2)
Copy OK

Track 6

Filename D:\#cdr\#wav+flac\#Add\The Rolling Stones - Tattoo You\cd 4\06. The Rolling Stones - Hang Fire.wav

Peak level 88.6 %
Extraction speed 2.6 X
Track quality 100.0 %
Test CRC A29B5E49
Copy CRC A29B5E49
Accurately ripped (confidence 3) [D74ACD4B] (AR v2)
Copy OK

Track 7

Filename D:\#cdr\#wav+flac\#Add\The Rolling Stones - Tattoo You\cd 4\07. The Rolling Stones - Miss You.wav

Peak level 89.3 %
Extraction speed 3.4 X
Track quality 100.0 %
Test CRC 31648CD0
Copy CRC 31648CD0
Accurately ripped (confidence 3) [8BACDBCE] (AR v2)
Copy OK

Track 8

Filename D:\#cdr\#wav+flac\#Add\The Rolling Stones - Tattoo You\cd 4\08. The Rolling Stones - Honky Tonk Women.wav

Peak level 88.6 %
Extraction speed 3.3 X
Track quality 100.0 %
Test CRC 06747A15
Copy CRC 06747A15
Accurately ripped (confidence 3) [69278820] (AR v2)
Copy OK

Track 9

Filename D:\#cdr\#wav+flac\#Add\The Rolling Stones - Tattoo You\cd 4\09. The Rolling Stones - Brown Sugar.wav

Peak level 88.6 %
Extraction speed 3.4 X
Track quality 100.0 %
Test CRC 014C4803
Copy CRC 014C4803
Accurately ripped (confidence 3) [3F7D36BD] (AR v2)
Copy OK

Track 10

Filename D:\#cdr\#wav+flac\#Add\The Rolling Stones - Tattoo You\cd 4\10. The Rolling Stones - Start Me Up.wav

Peak level 88.7 %
Extraction speed 2.8 X
Track quality 99.9 %
Test CRC ADE62E32
Copy CRC ADE62E32
Accurately ripped (confidence 3) [DEF963C1] (AR v2)
Copy OK

Track 11

Filename D:\#cdr\#wav+flac\#Add\The Rolling Stones - Tattoo You\cd 4\11. The Rolling Stones - Jumpin’ Jack Flash.wav

Peak level 88.6 %
Extraction speed 3.1 X
Track quality 99.9 %
Test CRC DCF0CB52
Copy CRC DCF0CB52
Accurately ripped (confidence 3) [80792B1C] (AR v2)
Copy OK

Track 12

Filename D:\#cdr\#wav+flac\#Add\The Rolling Stones - Tattoo You\cd 4\12. The Rolling Stones - (I Can’t Get No) Satisfaction.wav

Peak level 89.8 %
Extraction speed 3.2 X
Track quality 99.9 %
Test CRC 76B39D09
Copy CRC 76B39D09
Accurately ripped (confidence 3) [A8BBED45] (AR v2)
Copy OK


All tracks accurately ripped

No errors occurred

End of status report

–– CUETools DB Plugin V2.1.6

[CTDB TOCID: 56w.Vxb7WNBVt3BXSJeJ8qwmNzM-] found
Submit result: 56w.Vxb7WNBVt3BXSJeJ8qwmNzM- has been confirmed
Track | CTDB Status
1 | (27/28) Accurately ripped
2 | (28/28) Accurately ripped
3 | (28/28) Accurately ripped
4 | (28/28) Accurately ripped
5 | (28/28) Accurately ripped
6 | (28/28) Accurately ripped
7 | (28/28) Accurately ripped
8 | (28/28) Accurately ripped
9 | (28/28) Accurately ripped
10 | (28/28) Accurately ripped
11 | (28/28) Accurately ripped
12 | (28/28) Accurately ripped


==== Log checksum F5065AF5500DC0ABAE53A1591EC366C41B00E04A0BEBD04B47F981936F48D8E9 ====

Tracklist :::
CD1 - Tattoo You 2021 Remaster
01. Start Me Up (3:34)
02. Hang Fire (2:22)
03. Slave (6:32)
04. Little T & A (3:24)
05. Black Limousine (3:35)
06. Neighbours (3:34)
07. Worried About You (5:18)
08. Tops (3:49)
09. Heaven (4:23)
10. No Use in Crying (3:27)
11. Waiting on a Friend (4:36)

CD2 - Lost & Found – Rarities
01. Living In The Heart Of Love (4:13)
02. Fiji Jim (4:00)
03. Troubles A' Comin (4:16)
04. Shame, Shame, Shame (4:14)
05. Drift Away (4:07)
06. It's A Lie (4:57)
07. Come To The Ball (3:41)
08. Fast Talking, Slow Walking (5:40)
09. Start Me Up (Early Version) (4:10)

CD3 - Still Life – Wembley Stadium 1982
01. Under My Thumb (3:55)
02. When the Whip Comes Down (4:34)
03. Let’s Spend the Night Together (4:22)
04. Shattered (4:41)
05. Neighbours (4:10)
06. Black Limousine (3:51)
07. Just My Imagination (Running Away with Me) (9:32)
08. Twenty Flight Rock (1:46)
09. Going to a Go‐Go (3:40)
10. Chantilly Lace (4:12)
11. Let Me Go (4:06)
12. Time Is on My Side (3:51)
13. Beast of Burden (7:23)
14. Let It Bleed (6:03)

CD4 - Still Life – Wembley Stadium 1982
01. You Can't Always Get What You Want (10:49)
02. [Band Introductions] (1:12)
03. Little T & A (3:21)
04. Tumbling Dice (4:27)
05. She’s So Cold (4:10)
06. Hang Fire (2:27)
07. Miss You (7:49)
08. Honky Tonk Women (3:31)
09. Brown Sugar (3:24)
10. Start Me Up (4:40)
11. Jumpin’ Jack Flash (6:02)
12. (I Can’t Get No) Satisfaction (6:04)