Subcategories

The Storm - The Storm (1991)

Posted By: BlondStyle
The Storm - The Storm (1991)

The Storm - The Storm (1991)
Rock, Melodic Rock, AOR | EAC Rip | FLAC, Img+CUE+LOG+Scans-600dpi (JPEG) | 56:37 Min | 434,68 Mb
Label: Interscope Records (USA) | Released: 1991
The Storm - The Storm (1991)

The Storm was an American supergroup rock band, formed in the Bay Area of San Francisco during the early 1990s. The band is best known for their first single, the power ballad "I've Got a Lot to Learn About Love", which peaked at #6 on the Mainstream Rock Tracks chart and at #26 on the Billboard Hot 100. The band featured three of Journey's former members (two of whom were founding members) - Gregg Rolie (original lead vocalist and keyboardist of Journey) on keyboards and lead & backing vocals, Ross Valory on bass and background vocals, and Steve Smith on drums. Kevin Chalfant, who had a #12 rock chart hit in 1982 as lead vocalist with AOR band 707 , was the lead vocalist, and Josh Ramos (who cited Journey founder and guitarist Neal Schon as a major influence) was the lead guitarist. Ramos had previously replaced Journey guitarist Neal Schon in one of his other, non-Journey groups Hardline. Consequently, The Storm sounds very much like Journey, to fans and critics alike. Chalfant and Valory had just released an album together on another side-project band called The Vu and were ready for another venture; however, Rolie was the most instrumental in bringing the band together and sending them into a climb of success. He had collaborated on material with Kevin Chalfant and sent the track "Show Me the Way" to producer Beau Hill, who with Jimmy Iovine had just begun Interscope Records as a hard rock/AOR label for Atlantic Records president Doug Morris. Interscope became seriously interested in the project and signed the band, now known as The Storm, in 1990. The Storm's debut album, self-titled and released in 1991 by Interscope, was produced by Beau Hill. It rose to #133 on the Billboard album chart, scoring two Mainstream Rock radio hits with the #6 “I’ve Got a Lot to Learn About Love” (which also reached #26 on the Billboard Hot 100) and the #22 “Show Me the Way”. Steve Smith left the band in late 1991 and was replaced by Ron Wikso, who left Cher's band to become a full member of The Storm in early 1992. In March 1992, the band embarked upon a US tour supporting Bryan Adams in arenas all over the country. They followed that up with a tour supporting Peter Frampton and did additional dates with Eddie Money, Tom Cochrane and others, in addition to several headlining dates.
~Wikipedia


The Storm - The Storm (1991)

The Storm - The Storm (1991)


Release of this CD: 1991 [CD Interscope Records (USA), Cat.# 7 91741-2 / UPC: 075679174123]
℗© 1991 Interscope Records.
Manufactured and Distributed by EastWest Records America, a Division of Atlantic Recording Corporation.
Printed in USA

Credits:
Bass, Vocals – Ross Valory
Drums – Steve Smith
Engineer – Jimmy Hoyson
Guitar [Additional] – Tim Pierce
Lead Guitar, Rhythm Guitar, Vocals – Josh Ramos
Lead Vocals – Kevin Chalfant
Lead Vocals, Keyboards – Gregg Rolie
Mixed By, Producer – Beau Hill
Vocals [Additional] – Bret Douglas


Tracklist:

01. You Keep Me Waiting (05:13)
02. I've Got a Lot to Learn About Love (04:25)
03. In the Raw (05:42)
04. You're Gonna Miss Me (04:33)
05. Call Me (04:43)
06. Show Me the Way (04:39)
07. I Want You Back (04:53)
08. Still Loving You (05:04)
09. Touch and Go (03:16)
10. Gimme Love (03:57)
11. Take Me Away (04:30)
12. Can't Live Without Love (05:42)

Exact Audio Copy V1.1 from 23. June 2015

Отчёт EAC об извлечении, выполненном 25. января 2017, 19:54

The Storm / The Storm (7 91741-2)

Дисковод: PLEXTOR BD-R PX-B950SA Adapter: 1 ID: 0

Режим чтения : Достоверность
Использование точного потока : Да
Отключение кэша аудио : Да
Использование указателей C2 : Нет

Коррекция смещения при чтении : 6
Способность читать области Lead-in и Lead-out : Нет
Заполнение пропущенных сэмплов тишиной : Да
Удаление блоков с тишиной в начале и конце : Нет
При вычислениях CRC использовались нулевые сэмплы : Да
Интерфейс : Встроенный Win32-интерфейс для Win NT/2000

Выходной формат : Пользовательский кодировщик
Выбранный битрейт : 1024 kBit/s
Качество : Высокий
Добавление ID3-тега : Нет
Утилита сжатия : C:\Program Files (x86)\Exact Audio Copy\FLAC\FLAC.EXE
Дополнительные параметры : -6 -V -T "ARTIST=%artist%" -T "TITLE=%title%" -T "ALBUM=%albumtitle%" -T "DATE=%year%" -T "TRACKNUMBER=%tracknr%" -T "GENRE=%genre%" -T "COMMENT=%comment%" -T "BAND=%albuminterpret%" -T "ALBUMARTIST=%albuminterpret%" -T "COMPOSER=%composer%" %haslyrics%–tag-from-file=LYRICS="%lyricsfile%"%haslyrics% -T "DISCNUMBER=%cdnumber%" -T "TOTALDISCS=%totalcds%" -T "TOTALTRACKS=%numtracks%" %hascover%–picture="%coverfile%"%hascover% %source% -o %dest%


TOC извлечённого CD

Трек | Старт | Длительность | Начальный сектор | Конечный сектор
––––––––––––––––––––––––––––––––––-
1 | 0:00.33 | 5:12.60 | 33 | 23492
2 | 5:13.18 | 4:25.35 | 23493 | 43402
3 | 9:38.53 | 5:41.55 | 43403 | 69032
4 | 15:20.33 | 4:33.20 | 69033 | 89527
5 | 19:53.53 | 4:43.15 | 89528 | 110767
6 | 24:36.68 | 4:38.47 | 110768 | 131664
7 | 29:15.40 | 4:52.65 | 131665 | 153629
8 | 34:08.30 | 5:04.05 | 153630 | 176434
9 | 39:12.35 | 3:15.40 | 176435 | 191099
10 | 42:28.00 | 3:57.18 | 191100 | 208892
11 | 46:25.18 | 4:30.35 | 208893 | 229177
12 | 50:55.53 | 5:41.42 | 229178 | 254794


Характеристики диапазона извлечения и сообщения об ошибках

Выбранный диапазон

Имя файла G:\RIP\The Storm 1991 FLAC by alzal\The Storm - The Storm (7 91741-2).wav

Пиковый уровень 99.8 %
Скорость извлечения 8.8 X
Качество диапазона 100.0 %
CRC теста 5B245CBC
CRC копии 5B245CBC
Копирование… OK

Ошибок не произошло


AccurateRip: сводка

Трек 1 : извлечено точно (доверие 31) [54B8AE2B] (AR v2)
Трек 2 : извлечено точно (доверие 31) [996BBE1A] (AR v2)
Трек 3 : извлечено точно (доверие 31) [1F109599] (AR v2)
Трек 4 : извлечено точно (доверие 31) [B25F049E] (AR v2)
Трек 5 : извлечено точно (доверие 31) [5CEA9796] (AR v2)
Трек 6 : извлечено точно (доверие 31) [D2FB0806] (AR v2)
Трек 7 : извлечено точно (доверие 31) [7D0DB284] (AR v2)
Трек 8 : извлечено точно (доверие 30) [06EF2134] (AR v2)
Трек 9 : извлечено точно (доверие 30) [74E7ED74] (AR v2)
Трек 10 : извлечено точно (доверие 31) [1BB9D24A] (AR v2)
Трек 11 : извлечено точно (доверие 30) [CB205079] (AR v2)
Трек 12 : извлечено точно (доверие 29) [FC6070EA] (AR v2)

Все треки извлечены точно

Конец отчёта

–– CUETools DB Plugin V2.1.6

[CTDB TOCID: TtZofwP23KV__gUm5W_6B2_lKUs-] found
Submit result: TtZofwP23KV__gUm5W_6B2_lKUs- has been confirmed
Track | CTDB Status
1 | (42/42) Accurately ripped
2 | (42/42) Accurately ripped
3 | (42/42) Accurately ripped
4 | (42/42) Accurately ripped
5 | (40/42) Accurately ripped, or (2/42) differs in 12 samples @03:20:15
6 | (41/42) Accurately ripped
7 | (42/42) Accurately ripped
8 | (42/42) Accurately ripped
9 | (42/42) Accurately ripped
10 | (41/42) Accurately ripped
11 | (42/42) Accurately ripped
12 | (41/42) Accurately ripped


==== Контрольная сумма отчёта A8F1B4AAAFE1DD8970D528AFEB6CECABF9530CFE3089EFAF8BC27CA60950443E ====

––––––––––––––––––––––––––––––––––––––––
Analyzed: The Storm / The Storm (7 91741-2)
––––––––––––––––––––––––––––––––––––––––

DR Peak RMS Duration Track
––––––––––––––––––––––––––––––––––––––––
DR11 -0.01 dB -13.19 dB 5:13 01-You Keep Me Waiting
DR11 -0.01 dB -12.47 dB 4:25 02-I've Got A Lot To Learn About Love
DR11 -0.01 dB -13.27 dB 5:42 03-In The Raw
DR11 -0.01 dB -12.21 dB 4:33 04-You're Gonna Miss Me
DR10 -0.01 dB -12.34 dB 4:43 05-Call Me
DR11 -0.01 dB -13.14 dB 4:39 06-Show Me The Way
DR11 -0.01 dB -12.77 dB 4:53 07-I Want You Back
DR12 -0.01 dB -14.70 dB 5:04 08-Still Loving You
DR10 -0.01 dB -11.53 dB 3:16 09-Touch And Go
DR11 -0.01 dB -12.28 dB 3:57 10-Gimme Love
DR11 -0.01 dB -13.70 dB 4:30 11-Take Me Away
DR10 -0.01 dB -12.70 dB 5:42 12-Can't Live Without Love
––––––––––––––––––––––––––––––––––––––––

Number of tracks: 12
Official DR value: DR11

Samplerate: 44100 Hz
Channels: 2
Bits per sample: 16
Bitrate: 968 kbps
Codec: FLAC
================================================================================

All thanks to alzal

password: BlondStyle