Subcategories

The Rolling Stones - Their Satanic Majesties Request (50th Anniversary Edition) (1967/2017)

Posted By: SERTiL
The Rolling Stones - Their Satanic Majesties Request (50th Anniversary Edition) (1967/2017)

The Rolling Stones - Their Satanic Majesties Request (50th Anniversary Edition)
Rock | WEB FLAC (tracks) & front cover | 88:14 min | 417 MB
Label: ABKCO Music & Records | Tracks: 20 | Rls.date: 2017

To commemorate the 50th anniversary of the Stones’ 1967 psychedelic classic, comes this limited edition, remastered double-vinyl, double-CD deluxe package. The set contains both stereo and mono versions of the album, remastered at Abbey Road by Bob Ludwig, and presented on two 180-gram vinyl LPs and two Super Audio CDs (compatible with all players).

TRACKLIST
01. Sing This All Together (Remastered 2017 / Stereo) 03:46
02. Citadel (Remastered 2017 / Stereo) 02:50
03. In Another Land (Remastered 2017 / Stereo) 03:15
04. 2000 Man (Remastered 2017 / Stereo) 03:07
05. Sing This All Together (See What Happens) (Remastered 2017 / Stereo) 08:33
06. Shes A Rainbow (Remastered 2017 / Stereo) 04:34
07. The Lantern (Remastered 2017 / Stereo) 04:23
08. Gomper (Remastered 2017 / Stereo) 05:08
09. 2000 Light Years From Home (Remastered 2017 / Stereo) 04:44
10. On With The Show (Remastered 2017 / Stereo) 03:41
11. Sing This All Together (Remastered 2016 / Mono) 03:46
12. Citadel (Remastered 2016 / Mono) 02:51
13. In Another Land (Remastered 2016 / Mono) 03:13
14. 2000 Man (Remastered 2016 / Mono) 03:08
15. Sing This All Together (See What Happens) (Remastered 2017 / Stereo) 08:39
16. She's A Rainbow (Remastered 2016 / Mono) 04:35
17. The Lantern (Remastered 2016 / Mono) 04:25
18. Gomper (Remastered 2016 / Mono) 05:10
19. 2000 Light Years From Home (Remastered 2016 / Mono) 04:44
20. On With The Show (Remastered 2016 / Mono) 03:42

PERFORMER: auCDtect Task Manager, ver. 1.6.0 RC1 build 1.6.0.1
Copyright © 2008-2010 y-soft. All rights reserved

ANALYZER: auCDtect: CD records authenticity detector, version 0.8.2
Copyright © 2004 Oleg Berngardt. All rights reserved.
Copyright © 2004 Alexander Djourik. All rights reserved.


FILE: 20. On With The Show (Remastered 2016 - Mono).flac
Size: 12939360 Hash: CAE35EE7FBF13F33C31F7C000C88203E Accuracy: -m0
Conclusion: CDDA 100%
Signature: 229F3AF1296E83742559D268B5CDCD2230DFD8AC
FILE: 19. 2000 Light Years From Home (Remastered 2016 - Mono).flac
Size: 15579099 Hash: CC618D31A2173C966D32437792E15BEA Accuracy: -m0
Conclusion: CDDA 100%
Signature: 395EF4FD314C5D5CA49C2C92A26540F105F6C905
FILE: 18. Gomper (Remastered 2016 - Mono).flac
Size: 16094129 Hash: BD300A98FB3EF2AD092C80C82D6C5887 Accuracy: -m0
Conclusion: CDDA 100%
Signature: 367CDEDBE07B6867D50C09AC3A441091FDBEB17E
FILE: 17. The Lantern (Remastered 2016 - Mono).flac
Size: 14657105 Hash: 9DAE007E52C014748A6625B65B96FBE7 Accuracy: -m0
Conclusion: CDDA 100%
Signature: D33FA10C3B2118E06F8853567DFE6C162EF19684
FILE: 16. She's A Rainbow (Remastered 2016 - Mono).flac
Size: 15477988 Hash: 73C067E2181A87F69451383A3010B8C9 Accuracy: -m0
Conclusion: CDDA 100%
Signature: B3CB4086F46F5D27401B628FEF163C0AA7BD78FD
FILE: 15. Sing This All Together (See What Happens) (Remastered 2016 - Mono).flac
Size: 28334012 Hash: 87B657CEA6D476460B001DFCB6F1993E Accuracy: -m0
Conclusion: CDDA 100%
Signature: EBF4CA567BEB045B750F3E99D9B64C07A24129AC
FILE: 14. 2000 Man (Remastered 2016 - Mono).flac
Size: 11524230 Hash: D13DBB44E0F2A433B2249EA3D5E9EEFE Accuracy: -m0
Conclusion: CDDA 100%
Signature: 749D190B21A4EE4636DD7BF355517E5209174256
FILE: 13. In Another Land (Remastered 2016 - Mono).flac
Size: 11105427 Hash: 35C036A397E54E0370833D627E9F1941 Accuracy: -m0
Conclusion: CDDA 100%
Signature: F71069D184CA4A6CF6D1DBEA7C34855D2F27D1AA
FILE: 12. Citadel (Remastered 2016 - Mono).flac
Size: 10541047 Hash: 51EDB2C32E90C4F5076FDA5D72DF1E4B Accuracy: -m0
Conclusion: CDDA 99%
Signature: 52F9A56182150C2720BCD90CACE22CF616D7EF9A
FILE: 11. Sing This All Together (Remastered 2016 - Mono).flac
Size: 12961451 Hash: 5468968DBBF0C5891927FFAF286A4D48 Accuracy: -m0
Conclusion: CDDA 100%
Signature: C4BBB0700F0DF25715EB07008685AACCC3DB4E71
FILE: 10. On With The Show (Remastered 2017 - Stereo).flac
Size: 24740413 Hash: FCF78807A7EBD7C632B95F40906A0224 Accuracy: -m0
Conclusion: CDDA 100%
Signature: CE1F3BEF223B82D4508BB383951652A712D128F5
FILE: 09. 2000 Light Years From Home (Remastered 2017 - Stereo).flac
Size: 30418837 Hash: 8C4A4115B2CF112DE9B127EF8FDD8C6F Accuracy: -m0
Conclusion: CDDA 100%
Signature: 68FD489243E09D325CD3058824654F3EA906F870
FILE: 08. Gomper (Remastered 2017 - Stereo).flac
Size: 31548897 Hash: 2226D407C689F78CB39B4A852EB23BF3 Accuracy: -m0
Conclusion: CDDA 100%
Signature: EEB65D6098E29456104C624D1B303C0079CBB955
FILE: 07. The Lantern (Remastered 2017 - Stereo).flac
Size: 27146103 Hash: DF926CF56D30D5559274B9C7A695A7EF Accuracy: -m0
Conclusion: CDDA 100%
Signature: 6A4BF3D51E633E5C243127034FE50F8F418EDF52
FILE: 06. She’s A Rainbow (Remastered 2017 - Stereo).flac
Size: 28984042 Hash: 9B98857AF2C51E08CD1890ADF49B744E Accuracy: -m0
Conclusion: CDDA 99%
Signature: 9CC3EFF0B9031063731B746C2EC0A64FA9F122A3
FILE: 05. Sing This All Together (See What Happens) (Remastered 2017 - Stereo).flac
Size: 55923244 Hash: FEBDDFFFAC5DFA4C2CBFF804A3533478 Accuracy: -m0
Conclusion: CDDA 100%
Signature: C591D642F8B9B4372E500FF8F62D86B4B0C9059D
FILE: 04. 2000 Man (Remastered 2017 - Stereo).flac
Size: 21964455 Hash: 3A701E30C9160F6FAE56669EEF71E0C6 Accuracy: -m0
Conclusion: CDDA 100%
Signature: F6525FDD9D1FFED812B7158FE1518161E46F480A
FILE: 03. In Another Land (Remastered 2017 - Stereo).flac
Size: 21616032 Hash: 02ADB29E08616370772DDA37DE626BB0 Accuracy: -m0
Conclusion: CDDA 99%
Signature: 02DC913F2C42B446F81A0D9137D339D3C0D5C1CE
FILE: 02. Citadel (Remastered 2017 - Stereo).flac
Size: 20239594 Hash: 3FE74B05FCB9950535BA04D4E05F2033 Accuracy: -m0
Conclusion: CDDA 100%
Signature: 89EDA5BB62A35FABAD176036E84CD8EB0936F175
FILE: 01. Sing This All Together (Remastered 2017 - Stereo).flac
Size: 24995298 Hash: 8262308F573E5EF71ACA0F0942B10F73 Accuracy: -m0
Conclusion: CDDA 100%
Signature: C407FF27ECFCA2EBB1BB6ED3F4D472AEAD539937

foobar2000 1.3.7 / Dynamic Range Meter 1.1.1
log date: 2017-09-22 00:08:43

––––––––––––––––––––––––––––––––––––––––
Analyzed: The Rolling Stones / Their Satanic Majesties Request (50th Anniversary Special Edition / Remastered)
––––––––––––––––––––––––––––––––––––––––

DR Peak RMS Duration Track
––––––––––––––––––––––––––––––––––––––––
DR10 -0.14 dB -13.26 dB 3:47 01-Sing This All Together (Remastered 2017 / Stereo)
DR9 -0.04 dB -10.77 dB 2:51 02-Citadel (Remastered 2017 / Stereo)
DR9 0.00 dB -13.08 dB 3:15 03-In Another Land (Remastered 2017 / Stereo)
DR6 0.00 dB -8.29 dB 3:08 04-2000 Man (Remastered 2017 / Stereo)
DR9 -0.17 dB -12.84 dB 8:34 05-Sing This All Together (See What Happens) (Remastered 2017 / Stereo)
DR9 0.00 dB -12.26 dB 4:35 06-She’s A Rainbow (Remastered 2017 / Stereo)
DR10 -0.16 dB -13.77 dB 4:24 07-The Lantern (Remastered 2017 / Stereo)
DR10 0.00 dB -12.16 dB 5:09 08-Gomper (Remastered 2017 / Stereo)
DR11 0.00 dB -14.23 dB 4:45 09-2000 Light Years From Home (Remastered 2017 / Stereo)
DR10 0.00 dB -12.99 dB 3:41 10-On With The Show (Remastered 2017 / Stereo)
DR12 -0.18 dB -14.12 dB 3:46 11-Sing This All Together (Remastered 2016 / Mono)
DR10 0.00 dB -11.26 dB 2:51 12-Citadel (Remastered 2016 / Mono)
DR10 -0.42 dB -13.93 dB 3:13 13-In Another Land (Remastered 2016 / Mono)
DR10 -1.05 dB -12.40 dB 3:08 14-2000 Man (Remastered 2016 / Mono)
DR11 -0.26 dB -13.91 dB 8:39 15-Sing This All Together (See What Happens) (Remastered 2016 / Mono)
DR10 -0.37 dB -12.81 dB 4:36 16-She's A Rainbow (Remastered 2016 / Mono)
DR10 -0.38 dB -13.29 dB 4:26 17-The Lantern (Remastered 2016 / Mono)
DR10 -0.30 dB -12.60 dB 5:10 18-Gomper (Remastered 2016 / Mono)
DR11 -0.07 dB -13.32 dB 4:45 19-2000 Light Years From Home (Remastered 2016 / Mono)
DR10 -0.81 dB -13.39 dB 3:42 20-On With The Show (Remastered 2016 / Mono)
––––––––––––––––––––––––––––––––––––––––

Number of tracks: 20
Official DR value: DR10

Samplerate: 44100 Hz
Channels: 2
Bits per sample: 16
Bitrate: 446 kbps
Codec: FLAC
================================================================================


Thanks to the Original customer.