Tags
Language
Tags

Thelonious Monk Quartet - Live At Monterey Jazz Festival, '63 Volume 2 (1963) [MFSL, UDCD 686]

Posted By: v3122
Thelonious Monk Quartet - Live At Monterey Jazz Festival, '63 Volume 2 (1963) [MFSL, UDCD 686]

Thelonious Monk Quartet - Live At Monterey Jazz Festival, '63 Volume 2 (1963)
EAC | Flac(Image) + Cue + Log & MP3 CBR 320Kbps
1997 | Mobile Fidelity Sound Lab, UDCD 686 | ~ 292 or 121 Mb | Scans(png) -> 121 Mb
Jazz, Hard Bop

The second volume of Thelonious Monk's appearance at the 1963 Monterey Jazz Festival is drawn from two separate concerts on back to back days, with the pianist joined by longtime tenor saxophonist Charlie Rouse, bassist John Ore and drummer Frank Dunlop. The focus is on the composer and Rouse, though the only extended workout is of the old standard "Sweet and Lovely." There aren't any real surprises, though the music is well-played. This edition was a 24-bit gold remastering by the high-end limited-edition reissue label Mobile Fidelity and is highly sought after by audiophiles who collect jazz. Expect to pay a high price for a copy, if you can locate one.

by Ken Dryden, allmusic
Thelonious Monk Quartet - Live At Monterey Jazz Festival, '63 Volume 2 (1963):

Thelonious Monk Quartet - Live At Monterey Jazz Festival, '63 Volume 2 (1963) [MFSL, UDCD 686]

Tracklist:

01. Light Blue [9:34]
02. Criss Cross [7:14]
03. Epistrophy [6:15]
04. Sweet And Lovely [18:56]
05. Bright Mississippi [9:28]

Exact Audio Copy V1.3 from 2. September 2016

EAC extraction logfile from 6. November 2016, 22:47

THELONIOUS MONK / Live At Monterey, Volume 2 (USA, MFSL, UDCD 686)

Used drive : ASUS DRW-24B3ST Adapter: 1 ID: 2

Read mode : Secure
Utilize accurate stream : Yes
Defeat audio cache : Yes
Make use of C2 pointers : No

Read offset correction : 6
Overread into Lead-In and Lead-Out : No
Fill up missing offset samples with silence : Yes
Delete leading and trailing silent blocks : No
Null samples used in CRC calculations : Yes
Used interface : Native Win32 interface for Win NT & 2000

Used output format : User Defined Encoder
Selected bitrate : 1024 kBit/s
Quality : High
Add ID3 tag : No
Command line compressor : C:\Program Files\EAC(v.1.3)\WV\wavpack.exe
Additional command line options : -h -hh -m %source%


TOC of the extracted CD

Track | Start | Length | Start sector | End sector
––––––––––––––––––––––––––––-
1 | 0:00.00 | 9:33.72 | 0 | 43046
2 | 9:33.72 | 7:13.63 | 43047 | 75584
3 | 16:47.60 | 6:14.72 | 75585 | 103706
4 | 23:02.57 | 18:55.43 | 103707 | 188874
5 | 41:58.25 | 9:27.62 | 188875 | 231461


Range status and errors

Selected range

Filename F:\THELONIOUS MONK - Live At Monterey, Volume 2 (1963) (US 1997 Mobile Fidelity Sound Lab • UDCD 686)\THELONIOUS MONK - Live At Monterey, Volume 2 (USA, MFSL, UDCD 686).wav

Peak level 96.6 %
Extraction speed 7.6 X
Range quality 100.0 %
Test CRC 6440B209
Copy CRC 6440B209
Copy OK

No errors occurred


AccurateRip summary

Track 1 accurately ripped (confidence 10) [57CB8D56] (AR v2)
Track 2 accurately ripped (confidence 10) [D2F900EC] (AR v2)
Track 3 accurately ripped (confidence 10) [4136D00C] (AR v2)
Track 4 accurately ripped (confidence 10) [4D65331F] (AR v2)
Track 5 accurately ripped (confidence 10) [3E49C786] (AR v2)

All tracks accurately ripped

End of status report

==== Log checksum 5A3280C2704B6BEC1C0A56D6A9E1827FB2CA28CD3A97BD68DE6AD58C407537D8 ====

foobar2000 1.2.9 / Dynamic Range Meter 1.1.1
log date: 2016-11-17 22:08:10

––––––––––––––––––––––––––––––––––––––––
Analyzed: THELONIOUS MONK / Live At Monterey, Volume 2 (USA, MFSL, UDCD 686)
––––––––––––––––––––––––––––––––––––––––

DR Peak RMS Duration Track
––––––––––––––––––––––––––––––––––––––––
DR14 -0.36 dB -17.57 dB 9:34 01-Light Blue
DR13 -0.42 dB -16.83 dB 7:14 02-Criss Cross
DR13 -0.30 dB -16.26 dB 6:15 03-Epistrophy
DR15 -0.54 dB -19.41 dB 18:56 04-Sweet And Lovely
DR13 -0.86 dB -17.46 dB 9:28 05-Bright Mississippi
––––––––––––––––––––––––––––––––––––––––

Number of tracks: 5
Official DR value: DR14

Samplerate: 44100 Hz
Channels: 2
Bits per sample: 16
Bitrate: 771 kbps
Codec: FLAC

[CUETools log; Date: 17.11.2016 22:08:01; Version: 2.1.4]
[CTDB TOCID: FzbY0erzgSBhxlqBMdASua6Ya4U-] found.
Track | CTDB Status
1 | (8/8) Accurately ripped
2 | (8/8) Accurately ripped
3 | (8/8) Accurately ripped
4 | (8/8) Accurately ripped
5 | (8/8) Accurately ripped
[AccurateRip ID: 0009ce74-002eb459-360c0e05] found.
Track [ CRC | V2 ] Status
01 [450cda61|57cb8d56] (05+10/15) Accurately ripped
02 [39cb2eaf|d2f900ec] (05+10/15) Accurately ripped
03 [4725a666|4136d00c] (05+10/15) Accurately ripped
04 [f4bed61e|4d65331f] (05+10/15) Accurately ripped
05 [08c58842|3e49c786] (05+10/15) Accurately ripped

Track Peak [ CRC32 ] [W/O NULL] [ LOG ]
– 96,6 [6440B209] [4413B8CE] CRC32
01 95,9 [25F383AA] [57C42914]
02 95,2 [ABD64B41] [650DFE51]
03 96,6 [6BA68D17] [084B4D66]
04 94,0 [AA83F9EF] [21B5B0D4]
05 90,6 [F13C53B6] [6F9BB9C6]

Thelonious Monk Quartet - Live At Monterey Jazz Festival, '63 Volume 2 (1963) [MFSL, UDCD 686]

All thanks go to the original releaser

Download Thelonious Monk Quartet - Live At Monterey Jazz Festival, '63 Volume 2 (1963):