Subcategories

Thelonious Monk - Thelonious Monk With John Coltrane (1961) [Re-Upload]

Posted By: technick
Thelonious Monk - Thelonious Monk With John Coltrane (1961) [Re-Upload]

Thelonious Monk - Thelonious Monk With John Coltrane (1961)
[1987, CD Reissue]

EAC: flac (tracks) + cue + log | RAR, 3 %, 194,53 MB
mp3, 320 kbps | RAR, 3 %, 86,02 MB | Scans | RAR, 3 %, 4,48 MB
Label: Riverside Records | Cat №: OJCCD_039-2 | (DepositFiles + GigaPeta + Uploaded)

"Thelonious Monk with John Coltrane" is a 1961 album by Thelonious Monk issued on Jazzland Records, a subsidiary of Riverside Records. It consists of material recorded four years earlier when Monk worked extensively with John Coltrane, issued after Coltrane had become a leader and jazz star in his own right.
The album was assembled by the label with material from three different sessions. The impetus for the album was the discovery of three usable studio tracks recorded by the Monk Quartet with Coltrane in July of 1957 at the beginning of the band's six-month residency at New York's legendary Five Spot club near Cooper Square. To round out the release, producer Keepnews included two outtakes from the Monk's Music album recorded the previous month, and an additional outtake from Thelonious Himself recorded in April. The latter selection, "Functional," is a solo piano piece by Monk.
Exact Audio Copy V1.0 beta 3 from 29. August 2011

EAC extraction logfile from 25. May 2012, 7:57

Thelonious Monk With John Coltrane / Thelonious Monk With John Coltrane

Used drive : HL-DT-STDVDRAM GSA-E10L Adapter: 2 ID: 0

Read mode : Secure
Utilize accurate stream : Yes
Defeat audio cache : Yes
Make use of C2 pointers : No

Read offset correction : 667
Overread into Lead-In and Lead-Out : No
Fill up missing offset samples with silence : Yes
Delete leading and trailing silent blocks : No
Null samples used in CRC calculations : Yes
Used interface : Native Win32 interface for Win NT & 2000
Gap handling : Appended to previous track

Used output format : User Defined Encoder
Selected bitrate : 768 kBit/s
Quality : High
Add ID3 tag : No
Command line compressor : C:\Program Files (x86)\Exact Audio Copy\FLAC\FLAC.EXE
Additional command line options : -8 -V -T "ARTIST=%artist%" -T "TITLE=%title%" -T "ALBUM=%albumtitle%" -T "DATE=%year%" -T "TRACKNUMBER=%tracknr%" -T "TOTALTRACKS=%numtracks%" -T "GENRE=%genre%" -T "ALBUM ARTIST=%albumartist%" -T "ALBUMARTIST=%albumartist%" -T "COMMENT=EAC V1.0 beta 3, Secure Mode, Test & Copy, AccurateRip, FLAC -8" %source%


TOC of the extracted CD

Track | Start | Length | Start sector | End sector
––––––––––––––––––––––––––––-
1 | 0:00.00 | 6:21.72 | 0 | 28646
2 | 6:21.72 | 6:40.73 | 28647 | 58719
3 | 13:02.70 | 5:15.72 | 58720 | 82416
4 | 18:18.67 | 6:39.10 | 82417 | 112351
5 | 24:58.02 | 3:10.05 | 112352 | 126606
6 | 28:08.07 | 9:41.48 | 126607 | 170229


Track 1

Filename C:\My Rip\(1) Ruby, My Dear - Thelonious Monk With John Coltrane.wav

Pre-gap length 0:00:02.00

Peak level 79.1 %
Extraction speed 4.9 X
Track quality 100.0 %
Test CRC AEBD6C3B
Copy CRC AEBD6C3B
Accurately ripped (confidence 3) [ADB16F9C] (AR v2)
Copy OK

Track 2

Filename C:\My Rip\(2) Trinkle, Tinkle - Thelonious Monk With John Coltrane.wav

Pre-gap length 0:00:02.96

Peak level 87.0 %
Extraction speed 5.5 X
Track quality 100.0 %
Test CRC EE402EE3
Copy CRC EE402EE3
Accurately ripped (confidence 3) [4D3D9DBB] (AR v2)
Copy OK

Track 3

Filename C:\My Rip\(3) Off Minor - Thelonious Monk With John Coltrane.wav

Pre-gap length 0:00:02.80

Peak level 89.0 %
Extraction speed 5.8 X
Track quality 100.0 %
Test CRC 75AEA001
Copy CRC 75AEA001
Accurately ripped (confidence 3) [F9CD8920] (AR v2)
Copy OK

Track 4

Filename C:\My Rip\(4) Nutty - Thelonious Monk With John Coltrane.wav

Pre-gap length 0:00:02.69

Peak level 73.1 %
Extraction speed 6.4 X
Track quality 100.0 %
Test CRC 69A4A2F8
Copy CRC 69A4A2F8
Accurately ripped (confidence 3) [507F37A8] (AR v2)
Copy OK

Track 5

Filename C:\My Rip\(5) Epistrophy - Thelonious Monk With John Coltrane.wav

Pre-gap length 0:00:03.16

Peak level 91.8 %
Extraction speed 6.3 X
Track quality 100.0 %
Test CRC 7355A172
Copy CRC 7355A172
Accurately ripped (confidence 3) [6C2E9B6E] (AR v2)
Copy OK

Track 6

Filename C:\My Rip\(6) Functional - Thelonious Monk With John Coltrane.wav

Pre-gap length 0:00:02.42

Peak level 76.1 %
Extraction speed 7.5 X
Track quality 100.0 %
Test CRC 711502BE
Copy CRC 711502BE
Accurately ripped (confidence 4) [DDB0DF27] (AR v2)
Copy OK


All tracks accurately ripped

No errors occurred

End of status report

==== Log checksum CD055F70462D12E8FF974DD34DFA822911D495EA13E5157544B770565F3053FA ====

Tracklist:
01. Ruby, My Dear [06:21]
02. Trinkle, Tinkle [06:40]
03. Off Minor [05:15]
04. Nutty [06:39]
05. Epistrophy [03:10]
06. Functional [09:41]
–––––––––––––
Total time [37:51]
Thelonious Monk - Thelonious Monk With John Coltrane (1961) [Re-Upload]
Thelonious Monk - Thelonious Monk With John Coltrane (1961) [Re-Upload]

No mirrors, please!
Not my rip! All Thanks to original uploader lervit!
Don't post these links at any web pages, please. Keep these files alive!

Welcome to My Blog!
Uploaded: flac, mp3, scans.
GigaPeta: flac, mp3, scans.
DepositFiles: flac, mp3, scans.
pass: kermith