Subcategories

Threshold - 9 Studio Albums (1993-2014)

Posted By: gribovar
Threshold - 9 Studio Albums (1993-2014)

Threshold - 9 Studio Albums (1993-2014)
EAC Rip | FLAC (image+.cue+log) - 4,66 GB | MP3 CBR 320 kbps (LAME 3.93) - 1,81 GB | Covers - 574 MB
Genre: Progressive Metal | RAR 3% Rec. | Label: Zero Corporation, Fandango, Giant Electric Pea, InsideOut Music, Nuclear Blast

Formed in the late 1980s, British progressive metal band Threshold combined their influences of heavy metal and progressive rock to craft their own unique sound which was a far cry from the commercial sound of the time. "Wounded Land" was released on GEP Records in 1993, and was hailed by many as the best debut album of the year. The albums "Psychedelicatessen" (1994), "Extinct Instinct" (1997) and "Clone" (1998) followed and were accompanied by tours with combos such as Dream Theater, Psychotic Waltz and Pain Of Salvation.
The following decade saw the release of "Hypothetical" (2001), "Critical Mass" (2002) and "Subsurface" (2004), bringing long-awaited chart success for the band. Shortly after the release of their Nuclear Blast debut "Dead Reckoning" (2007), original singer Damian Wilson rejoined the band for a period of extensive touring, replacing Andrew 'Mac' McDermott who sadly passed away on 3rd August 2011.
After five years, Threshold are back with a brand new album "March of Progress" (2012).
Threshold’s latest studio album "For The Journey" was released in 2014. It includes the 12 minute epic "The Box" and opening single "Watchtower On The Moon", which was featured on the Roadkill video game. The album charted in several countries, peaking at no. 19 in Switzerland and no. 33 in Germany and Finland.

Threshold - 9 Studio Albums (1993-2014)

Threshold - Wounded Land (1993) [Japanese Edition]
EAC Rip | FLAC (image+.cue+log) - 490 MB | MP3 CBR 320 kbps (LAME 3.93) - 151 MB | Covers - 34 MB
Genre: Progressive Metal | RAR 3% Rec. | Label: Zero Corporation (XRCN-1066)

Tracklist:
01. Consume To Live
02. Days Of Dearth
03. Sanity's End
04. Paradox
05. Surface To Air
06. Mother Earth
07. Siege Of Baghdad
08. Keep It With Mine
09. Intervention (Bonus Track)

Total time: 01:04:24

Exact Audio Copy V0.99 prebeta 5 from 4. May 2009

EAC extraction logfile from 5. December 2012, 18:13

Threshold / Wounded Land [XRCN-1066]

Used drive : ASUS DRW-22B3L Adapter: 0 ID: 1

Read mode : Secure
Utilize accurate stream : Yes
Defeat audio cache : Yes
Make use of C2 pointers : No

Read offset correction : 6
Overread into Lead-In and Lead-Out : No
Fill up missing offset samples with silence : Yes
Delete leading and trailing silent blocks : No
Null samples used in CRC calculations : Yes
Used interface : Native Win32 interface for Win NT & 2000

Used output format : Internal WAV Routines
Sample format : 44.100 Hz; 16 Bit; Stereo


TOC of the extracted CD

Track | Start | Length | Start sector | End sector
––––––––––––––––––––––––––––-
1 | 0:00.32 | 8:13.00 | 32 | 37006
2 | 8:13.32 | 5:28.13 | 37007 | 61619
3 | 13:41.45 | 10:23.00 | 61620 | 108344
4 | 24:04.45 | 7:17.25 | 108345 | 141144
5 | 31:21.70 | 10:16.25 | 141145 | 187369
6 | 41:38.20 | 5:54.00 | 187370 | 213919
7 | 47:32.20 | 7:44.52 | 213920 | 248771
8 | 55:16.72 | 2:28.35 | 248772 | 259906
9 | 57:45.32 | 6:38.43 | 259907 | 289799


Range status and errors

Selected range

Filename D:\Threshold - Wounded Land [XRCN-1066].wav

Peak level 99.6 %
Range quality 100.0 %
Test CRC 563FA3A7
Copy CRC 563FA3A7
Copy OK

No errors occurred


AccurateRip summary

Track 1 accurately ripped (confidence 1) [FC8E47DD]
Track 2 accurately ripped (confidence 1) [9564DA2B]
Track 3 accurately ripped (confidence 1) [682B1233]
Track 4 accurately ripped (confidence 1) [E243185E]
Track 5 accurately ripped (confidence 1) [2B9A9B94]
Track 6 accurately ripped (confidence 1) [90D9BE04]
Track 7 accurately ripped (confidence 1) [6DF11B39]
Track 8 accurately ripped (confidence 1) [97EDE8B7]
Track 9 accurately ripped (confidence 1) [4E6D4A14]

All tracks accurately ripped

End of status report

[CUETools log; Date: 04.03.2017 15:23:14; Version: 2.1.4]
Pregap length 00:00:32.
[CTDB TOCID: hpr0v1fwjhQaMFPCL0zcG7Qh7DE-] found.
Track | CTDB Status
1 | (30/30) Accurately ripped
2 | (30/30) Accurately ripped
3 | (30/30) Accurately ripped
4 | (30/30) Accurately ripped
5 | (30/30) Accurately ripped
6 | (30/30) Accurately ripped
7 | (29/30) Accurately ripped
8 | (29/30) Accurately ripped
9 | (30/30) Accurately ripped
[AccurateRip ID: 00179e8e-00ab9da2-810f1809] found.
Track [ CRC | V2 ] Status
01 [fc8e47dd|1c220564] (2+0/2) Accurately ripped
02 [9564da2b|bea094d9] (2+0/2) Accurately ripped
03 [682b1233|39c5480c] (2+0/2) Accurately ripped
04 [e243185e|ef426049] (2+0/2) Accurately ripped
05 [2b9a9b94|1388690f] (2+0/2) Accurately ripped
06 [90d9be04|4c953c02] (2+0/2) Accurately ripped
07 [6df11b39|43f4df96] (2+0/2) Accurately ripped
08 [97ede8b7|287828c5] (2+0/2) Accurately ripped
09 [4e6d4a14|b1094a7c] (2+0/2) Accurately ripped

Track Peak [ CRC32 ] [W/O NULL] [ LOG ]
– 99,6 [563FA3A7] [5228C745] CRC32
01 99,1 [A259870D] [7028683E]
02 98,4 [08FBFED5] [D074043C]
03 97,4 [DBA6237A] [9A13F1B1]
04 96,4 [A4324C89] [C916B1AD]
05 95,7 [C73535AC] [E43DD716]
06 97,4 [9DB9239B] [76E61AF2]
07 99,1 [8442A7CF] [7381D327]
08 99,2 [3C4DA17E] [DE04DEE1]
09 99,6 [4F5D495E] [7ABD6A9D]

Threshold - 9 Studio Albums (1993-2014)

Threshold - Psychedelicatessen (1994) [Japanese Edition, 1997]
EAC Rip | FLAC (image+.cue+log) - 465 MB | MP3 CBR 320 kbps (LAME 3.93) - 157 MB | Covers - 40 MB
Genre: Progressive Metal | RAR 3% Rec. | Label: Fandango (TKCF-45027)

Tracklist:
01. Sunseeker
02. A Tension Of Souls
03. Into The Light
04. Will To Give
05. Under The Sun
06. Babylon Rising
07. He Is I Am
08. Innocent
09. Devoted
10. Lost
11. Intervention (Bonus track)

Total time: 01:06:58

Exact Audio Copy V0.99 prebeta 5 from 4. May 2009

EAC extraction logfile from 26. December 2012, 15:07

Threshold / Psychedelicatessen [TKCF-45027]

Used drive : ASUS DRW-22B3L Adapter: 0 ID: 1

Read mode : Secure
Utilize accurate stream : Yes
Defeat audio cache : Yes
Make use of C2 pointers : No

Read offset correction : 6
Overread into Lead-In and Lead-Out : No
Fill up missing offset samples with silence : Yes
Delete leading and trailing silent blocks : No
Null samples used in CRC calculations : Yes
Used interface : Native Win32 interface for Win NT & 2000

Used output format : Internal WAV Routines
Sample format : 44.100 Hz; 16 Bit; Stereo


TOC of the extracted CD

Track | Start | Length | Start sector | End sector
––––––––––––––––––––––––––––-
1 | 0:00.01 | 8:15.33 | 1 | 37158
2 | 8:15.34 | 7:10.50 | 37159 | 69458
3 | 15:26.09 | 10:02.14 | 69459 | 114622
4 | 25:28.23 | 5:01.26 | 114623 | 137223
5 | 30:29.49 | 3:05.41 | 137224 | 151139
6 | 33:35.15 | 4:32.19 | 151140 | 171558
7 | 38:07.34 | 5:52.53 | 171559 | 198011
8 | 44:00.12 | 4:37.61 | 198012 | 218847
9 | 48:37.73 | 7:45.46 | 218848 | 253768
10 | 56:23.44 | 2:42.08 | 253769 | 265926
11 | 59:05.52 | 7:52.35 | 265927 | 301361


Range status and errors

Selected range

Filename D:\Threshold - Psychedelicatessen [TKCF-45027].wav

Peak level 95.6 %
Range quality 100.0 %
Test CRC 1C6FD7B0
Copy CRC 1C6FD7B0
Copy OK

No errors occurred


AccurateRip summary

Track 1 accurately ripped (confidence 1) [50553E7F]
Track 2 accurately ripped (confidence 1) [EB60CDC2]
Track 3 accurately ripped (confidence 1) [9F889F6F]
Track 4 accurately ripped (confidence 1) [5630C5AC]
Track 5 accurately ripped (confidence 1) [2034F6DD]
Track 6 accurately ripped (confidence 1) [E9815B74]
Track 7 accurately ripped (confidence 1) [DD5E815C]
Track 8 accurately ripped (confidence 1) [C67CD239]
Track 9 accurately ripped (confidence 1) [91BCFA36]
Track 10 accurately ripped (confidence 1) [1BB15F6F]
Track 11 accurately ripped (confidence 1) [57A5BA81]

All tracks accurately ripped

End of status report

[CUETools log; Date: 04.03.2017 15:24:40; Version: 2.1.4]
Pregap length 00:00:01.
[CTDB TOCID: E2Q88KjFzp10mnT2CcPpVKuO0cw-] found.
Track | CTDB Status
1 | (2/2) Accurately ripped
2 | (2/2) Accurately ripped
3 | (2/2) Accurately ripped
4 | (2/2) Accurately ripped
5 | (2/2) Accurately ripped
6 | (2/2) Accurately ripped
7 | (2/2) Accurately ripped
8 | (2/2) Accurately ripped
9 | (2/2) Accurately ripped
10 | (2/2) Accurately ripped
11 | (2/2) Accurately ripped
[AccurateRip ID: 001d486b-00f6b454-a70fb20b] found.
Track [ CRC | V2 ] Status
01 [50553e7f|ca2c9980] (2+0/2) Accurately ripped
02 [eb60cdc2|3fe8a31a] (2+0/2) Accurately ripped
03 [9f889f6f|799939f3] (2+0/2) Accurately ripped
04 [5630c5ac|97c30dd5] (2+0/2) Accurately ripped
05 [2034f6dd|c0e79fe5] (2+0/2) Accurately ripped
06 [e9815b74|a166e255] (2+0/2) Accurately ripped
07 [dd5e815c|483df550] (2+0/2) Accurately ripped
08 [c67cd239|cdcd4ed4] (2+0/2) Accurately ripped
09 [91bcfa36|65f5829a] (2+0/2) Accurately ripped
10 [1bb15f6f|26db820d] (2+0/2) Accurately ripped
11 [57a5ba81|51c872f7] (2+0/2) Accurately ripped

Track Peak [ CRC32 ] [W/O NULL] [ LOG ]
– 95,6 [1C6FD7B0] [61312992] CRC32
01 95,6 [B62058C8] [7190744E]
02 95,6 [ABC0E178] [F77A2295]
03 95,5 [E360AF78] [613DC334]
04 95,6 [C1ADF297] [DEC580CC]
05 60,0 [D679BA5C] [95AEC907]
06 95,1 [A78E2E4F] [49F8A22D]
07 94,8 [633E5D82] [AED2852D]
08 95,6 [B108D4B8] [CA0E1A70]
09 95,6 [CC41F0B8] [86E2C968]
10 48,6 [6C6E53E7] [BD2A795A]
11 95,6 [AB18DCC7] [9303F185]

Threshold - 9 Studio Albums (1993-2014)

Threshold - Extinct Instinct (1997)
EAC Rip | FLAC (image+.cue+log) - 458 MB | MP3 CBR 320 kbps (LAME 3.93) - 158 MB | Covers - 71 MB
Genre: Progressive Metal | RAR 3% Rec. | Label: Giant Electric Pea (GEPCD 1019)

Tracklist:
01. Exposed
02. Somatography
03. Eat The Unicorn
04. Forever
05. Virtual Isolation
06. The Whispering
07. Lake Of Despond
08. Clear
09. Life Flow
10. Part Of The Chaos / Segue

Total time: 01:07:11

Exact Audio Copy V0.99 prebeta 5 from 4. May 2009

EAC extraction logfile from 21. May 2013, 13:10

Threshold / Extinct Instinct [GEPCD 1019]

Used drive : ASUS DRW-22B3L Adapter: 0 ID: 1

Read mode : Secure
Utilize accurate stream : Yes
Defeat audio cache : Yes
Make use of C2 pointers : No

Read offset correction : 6
Overread into Lead-In and Lead-Out : No
Fill up missing offset samples with silence : Yes
Delete leading and trailing silent blocks : No
Null samples used in CRC calculations : Yes
Used interface : Native Win32 interface for Win NT & 2000

Used output format : Internal WAV Routines
Sample format : 44.100 Hz; 16 Bit; Stereo


TOC of the extracted CD

Track | Start | Length | Start sector | End sector
––––––––––––––––––––––––––––-
1 | 0:00.00 | 6:26.42 | 0 | 28991
2 | 6:26.42 | 6:25.48 | 28992 | 57914
3 | 12:52.15 | 10:06.22 | 57915 | 103386
4 | 22:58.37 | 4:35.35 | 103387 | 124046
5 | 27:33.72 | 5:32.65 | 124047 | 149011
6 | 33:06.62 | 7:50.05 | 149012 | 184266
7 | 40:56.67 | 6:21.70 | 184267 | 212911
8 | 47:18.62 | 3:22.03 | 212912 | 228064
9 | 50:40.65 | 6:00.10 | 228065 | 255074
10 | 56:41.00 | 10:30.00 | 255075 | 302324


Range status and errors

Selected range

Filename D:\Threshold - Extinct Instinct [GEPCD 1019].wav

Peak level 98.0 %
Range quality 100.0 %
Test CRC 9EA6FA93
Copy CRC 9EA6FA93
Copy OK

No errors occurred


AccurateRip summary

Track 1 accurately ripped (confidence 14) [24FF5CFC]
Track 2 accurately ripped (confidence 14) [E71C7E47]
Track 3 accurately ripped (confidence 14) [50DA755D]
Track 4 accurately ripped (confidence 14) [FADE8084]
Track 5 accurately ripped (confidence 14) [AC32DFB6]
Track 6 accurately ripped (confidence 14) [429A7703]
Track 7 accurately ripped (confidence 14) [CA5CFCA1]
Track 8 accurately ripped (confidence 14) [DBFC0A25]
Track 9 accurately ripped (confidence 14) [A0B29370]
Track 10 accurately ripped (confidence 14) [51160F8F]

All tracks accurately ripped

End of status report

[CUETools log; Date: 04.03.2017 15:26:05; Version: 2.1.4]
[CTDB TOCID: 3gzm9lgo4i6uY00Qbz972d6O9Xw-] found.
Track | CTDB Status
1 | (23/23) Accurately ripped
2 | (23/23) Accurately ripped
3 | (23/23) Accurately ripped
4 | (23/23) Accurately ripped
5 | (23/23) Accurately ripped
6 | (23/23) Accurately ripped
7 | (23/23) Accurately ripped
8 | (23/23) Accurately ripped
9 | (23/23) Accurately ripped
10 | (23/23) Accurately ripped
[AccurateRip ID: 00191dad-00c79c3c-920fbf0a] found.
Track [ CRC | V2 ] Status
01 [24ff5cfc|89058720] (16+16/32) Accurately ripped
02 [e71c7e47|e3c17fa7] (16+16/32) Accurately ripped
03 [50da755d|97c464c0] (16+16/32) Accurately ripped
04 [fade8084|967218da] (16+16/32) Accurately ripped
05 [ac32dfb6|e4081f48] (16+16/32) Accurately ripped
06 [429a7703|836461ca] (16+16/32) Accurately ripped
07 [ca5cfca1|e86e8081] (16+16/32) Accurately ripped
08 [dbfc0a25|bee0d24c] (16+16/32) Accurately ripped
09 [a0b29370|926b4e6a] (16+16/32) Accurately ripped
10 [51160f8f|f0bcb326] (16+16/32) Accurately ripped

Track Peak [ CRC32 ] [W/O NULL] [ LOG ]
– 98,0 [9EA6FA93] [5B44C0D7] CRC32
01 98,0 [B0255F9B] [DD4701B9]
02 98,0 [0A31AB8A] [0DC43130]
03 98,0 [1AF6A091] [F549D57F]
04 98,0 [C40EDD5E] [01CC4D78]
05 98,0 [D38190E2] [36840FF5]
06 98,0 [F3E94262] [219FAEFD]
07 97,9 [B819DC51] [46CC1AF8]
08 94,0 [82B062DB] [CDCCC991]
09 98,0 [1A26F16B] [B2EC5263]
10 98,0 [9F20E460] [2E387CAC]

Threshold - 9 Studio Albums (1993-2014)

Threshold - Clone (1998)
EAC Rip | FLAC (image+.cue+log) - 443 MB | MP3 CBR 320 kbps (LAME 3.93) - 138 MB | Covers - 40 MB
Genre: Progressive Metal | RAR 3% Rec. | Label: Giant Electric Pea (GEPCD 1023)

Tracklist:
01. Freaks
02. Angels
03. The Latent Gene
04. Lovelorn
05. Change
06. Life's Too Good
07. Goodbye Mother Earth
08. Voyager II
09. Sunrise On Mars

Total time: 58:39

Exact Audio Copy V0.99 prebeta 5 from 4. May 2009

EAC extraction logfile from 6. December 2012, 13:45

Threshold / Clone [GEPCD 1023]

Used drive : ASUS DRW-22B3L Adapter: 0 ID: 1

Read mode : Secure
Utilize accurate stream : Yes
Defeat audio cache : Yes
Make use of C2 pointers : No

Read offset correction : 6
Overread into Lead-In and Lead-Out : No
Fill up missing offset samples with silence : Yes
Delete leading and trailing silent blocks : No
Null samples used in CRC calculations : Yes
Used interface : Native Win32 interface for Win NT & 2000

Used output format : Internal WAV Routines
Sample format : 44.100 Hz; 16 Bit; Stereo


TOC of the extracted CD

Track | Start | Length | Start sector | End sector
––––––––––––––––––––––––––––-
1 | 0:00.00 | 5:22.32 | 0 | 24181
2 | 5:22.32 | 6:42.18 | 24182 | 54349
3 | 12:04.50 | 8:00.70 | 54350 | 90419
4 | 20:05.45 | 5:42.50 | 90420 | 116119
5 | 25:48.20 | 4:33.50 | 116120 | 136644
6 | 30:21.70 | 5:27.40 | 136645 | 161209
7 | 35:49.35 | 7:57.42 | 161210 | 197026
8 | 43:47.02 | 9:04.15 | 197027 | 237841
9 | 52:51.17 | 5:47.38 | 237842 | 263904


Range status and errors

Selected range

Filename D:\Threshold - Clone [GEPCD 1023].wav

Peak level 99.4 %
Range quality 100.0 %
Test CRC DB81EF52
Copy CRC DB81EF52
Copy OK

No errors occurred


AccurateRip summary

Track 1 accurately ripped (confidence 14) [A1EB643E]
Track 2 accurately ripped (confidence 14) [455A8DEA]
Track 3 accurately ripped (confidence 14) [39FA6AD6]
Track 4 accurately ripped (confidence 14) [3029427C]
Track 5 accurately ripped (confidence 14) [E99A6845]
Track 6 accurately ripped (confidence 14) [3BC3D555]
Track 7 accurately ripped (confidence 14) [743499E2]
Track 8 accurately ripped (confidence 14) [695FBB52]
Track 9 accurately ripped (confidence 14) [DF47E8CC]

All tracks accurately ripped

End of status report

[CUETools log; Date: 04.03.2017 15:27:05; Version: 2.1.4]
[CTDB TOCID: CtD_P8t.Fvx8N0Dxm03IdMns2uc-] found.
Track | CTDB Status
1 | (35/35) Accurately ripped
2 | (35/35) Accurately ripped
3 | (35/35) Accurately ripped
4 | (35/35) Accurately ripped
5 | (35/35) Accurately ripped
6 | (35/35) Accurately ripped
7 | (35/35) Accurately ripped
8 | (35/35) Accurately ripped
9 | (35/35) Accurately ripped
[AccurateRip ID: 00138ea5-009050d7-670dbe09] found.
Track [ CRC | V2 ] Status
01 [a1eb643e|7b555271] (17+16/45) Accurately ripped
02 [455a8dea|5a838658] (17+16/46) Accurately ripped
03 [39fa6ad6|87cd4d87] (17+16/45) Accurately ripped
04 [3029427c|b8469d5f] (17+16/46) Accurately ripped
05 [e99a6845|0985fc2f] (17+16/46) Accurately ripped
06 [3bc3d555|48fc25e5] (17+16/46) Accurately ripped
07 [743499e2|40c6c5c3] (17+16/46) Accurately ripped
08 [695fbb52|3c3a071d] (17+16/46) Accurately ripped
09 [df47e8cc|0e02d6db] (17+15/45) Accurately ripped
Offsetted by -664:
01 [4e0b43fe] (05/45) Accurately ripped
02 [889b4647] (06/46) Accurately ripped
03 [b4719864] (05/45) Accurately ripped
04 [4ee13d79] (06/46) Accurately ripped
05 [90aafbcd] (06/46) Accurately ripped
06 [85fe1aed] (06/46) Accurately ripped
07 [f96163c6] (06/46) Accurately ripped
08 [dd031e3c] (06/46) Accurately ripped
09 [2c3e58ae] (06/45) Accurately ripped
Offsetted by -1328:
01 [fa2b23be] (00/45) No match (V2 was not tested)
02 [388c99af] (00/46) No match (V2 was not tested)
03 [7a457096] (00/45) No match (V2 was not tested)
04 [a3040edf] (00/46) No match (V2 was not tested)
05 [37bb8f55] (00/46) No match (V2 was not tested)
06 [d0386085] (00/46) No match (V2 was not tested)
07 [6da679ed] (00/46) No match (V2 was not tested)
08 [69d0cd54] (00/46) No match (V2 was not tested)
09 [b708b02f] (00/45) No match (V2 was not tested)

Track Peak [ CRC32 ] [W/O NULL] [ LOG ]
– 99,4 [DB81EF52] [AF9A1F5F] CRC32
01 98,8 [16114F73] [E2AA69AD]
02 98,8 [4B04F576] [FD360CFB]
03 99,0 [6A048D06] [A815E306]
04 98,8 [D7309E37] [B037CA83]
05 99,4 [A1C887BB] [89187F19]
06 99,0 [879D4D62] [5DA206BE]
07 99,0 [820287FD] [80BCBE5E]
08 98,9 [3F5A1141] [D2150190]
09 98,5 [A9EBC31A] [D4BFBDF7]

Threshold - 9 Studio Albums (1993-2014)

Threshold - Hypothetical (2001) [Limited Edition]
EAC Rip | FLAC (image+.cue+log) - 613 MB | MP3 CBR 320 kbps (LAME 3.93) - 284 MB | Covers - 98 MB
Genre: Progressive Metal | RAR 3% Rec. | Label: InsideOut Music (IOMLTDCD 073)

Tracklist:
01. Light And Space
02. Turn On Tune In
03. The Ravages Of Time
04. Sheltering Sky
05. Oceanbound
06. Long Way Home
07. Keep My Head
08. Narcissus
09. Life Flow (acoustic, Bonus track)
+ CD-ROM Track: Video diary & screensaver

Total time: 59:37

Exact Audio Copy V0.99 prebeta 5 from 4. May 2009

EAC extraction logfile from 13. August 2013, 18:13

Threshold / Hypothetical [IOMLTDCD 073]

Used drive : ASUS DRW-22B3L Adapter: 0 ID: 1

Read mode : Secure
Utilize accurate stream : Yes
Defeat audio cache : Yes
Make use of C2 pointers : No

Read offset correction : 6
Overread into Lead-In and Lead-Out : No
Fill up missing offset samples with silence : Yes
Delete leading and trailing silent blocks : No
Null samples used in CRC calculations : Yes
Used interface : Native Win32 interface for Win NT & 2000

Used output format : Internal WAV Routines
Sample format : 44.100 Hz; 16 Bit; Stereo


TOC of the extracted CD

Track | Start | Length | Start sector | End sector
––––––––––––––––––––––––––––-
1 | 0:00.00 | 5:58.35 | 0 | 26884
2 | 5:58.35 | 6:12.07 | 26885 | 54791
3 | 12:10.42 | 10:17.20 | 54792 | 101086
4 | 22:27.62 | 5:35.70 | 101087 | 126281
5 | 28:03.57 | 6:42.48 | 126282 | 156479
6 | 34:46.30 | 6:00.05 | 156480 | 183484
7 | 40:46.35 | 4:01.30 | 183485 | 201589
8 | 44:47.65 | 11:22.46 | 201590 | 252785
9 | 56:10.36 | 3:26.27 | 252786 | 268262
10 | 62:08.63 | 16:09.41 | 279663 | 352378


Range status and errors

Selected range

Filename D:\Threshold - Hypothetical [IOMLTDCD 073].wav

Peak level 100.0 %
Range quality 100.0 %
Test CRC AA09A1CB
Copy CRC AA09A1CB
Copy OK

No errors occurred


AccurateRip summary

Track 1 accurately ripped (confidence 12) [FD97EE6B]
Track 2 accurately ripped (confidence 12) [73107239]
Track 3 accurately ripped (confidence 12) [5A8D107C]
Track 4 accurately ripped (confidence 12) [EA7AC06C]
Track 5 accurately ripped (confidence 12) [5B523C1A]
Track 6 accurately ripped (confidence 12) [6784951F]
Track 7 accurately ripped (confidence 12) [E96AA25A]
Track 8 accurately ripped (confidence 12) [04AC86D8]
Track 9 accurately ripped (confidence 11) [F91E4E1E]

All tracks accurately ripped

End of status report

[CUETools log; Date: 04.03.2017 15:28:01; Version: 2.1.4]
CD-Extra data track length 16:09:41.
[CTDB TOCID: nVgtwpEgsZ7EFJQsg80FEFi125o-] found.
Track | CTDB Status
1 | (28/28) Accurately ripped
2 | (28/28) Accurately ripped
3 | (28/28) Accurately ripped
4 | (28/28) Accurately ripped
5 | (28/28) Accurately ripped
6 | (28/28) Accurately ripped
7 | (28/28) Accurately ripped
8 | (28/28) Accurately ripped
9 | (28/28) Accurately ripped
[AccurateRip ID: 00163696-00a6263c-95125a0a] found.
Track [ CRC | V2 ] Status
01 [fd97ee6b|b909229e] (14+19/33) Accurately ripped
02 [73107239|fdca805e] (14+19/33) Accurately ripped
03 [5a8d107c|88b46680] (14+19/33) Accurately ripped
04 [ea7ac06c|8d979c37] (14+19/33) Accurately ripped
05 [5b523c1a|334c5852] (14+19/33) Accurately ripped
06 [6784951f|68237ff0] (14+19/33) Accurately ripped
07 [e96aa25a|edcc4ab9] (14+19/33) Accurately ripped
08 [04ac86d8|771c9b21] (14+19/33) Accurately ripped
09 [f91e4e1e|370eced6] (13+19/32) Accurately ripped

Track Peak [ CRC32 ] [W/O NULL] [ LOG ]
– 100,0 [AA09A1CB] [B4EA9FCE] CRC32
01 99,8 [AC973D21] [E71B9EB9]
02 97,6 [374551E6] [881F0EE3]
03 100,0 [B52D3A8F] [9F93532C]
04 99,1 [3221CABD] [21623E68]
05 94,8 [FDCFAAD8] [0498C143]
06 98,6 [DCAF88EE] [306FE968]
07 92,0 [1FAD1556] [F202C543]
08 98,1 [A5ACE2E0] [49C27302]
09 96,0 [D5CF35D4] [9A530D4E]

Threshold - 9 Studio Albums (1993-2014)

Threshold - Critical Mass (2002) [2CD Limited Edition]
EAC Rip | FLAC (image+.cue+log) - 752 MB | MP3 CBR 320 kbps (LAME 3.93) - 385 MB | Covers - 78 MB
Genre: Progressive Metal | RAR 3% Rec. | Label: InsideOut Music (IOMLTDCD 108)

CD 1 Tracklist:
01. Phenomenon
02. Choices
03. Falling Away
04. Fragmentation
05. Echoes Of Life
06. Round And Round
07. Avalon
08. Critical Mass (Part 1-3)

Total time: 59:57

CD 2 Tracklist:
01. Phenomenon (edit)
02. Do Unto Them
03. New Beginning
+ Multimedia section

Total time: 13:44

Exact Audio Copy V0.99 prebeta 5 from 4. May 2009

EAC extraction logfile from 7. December 2012, 13:04

Threshold / Critical Mass [IOMLTDCD 108]

Used drive : ASUS DRW-22B3L Adapter: 0 ID: 1

Read mode : Secure
Utilize accurate stream : Yes
Defeat audio cache : Yes
Make use of C2 pointers : No

Read offset correction : 6
Overread into Lead-In and Lead-Out : No
Fill up missing offset samples with silence : Yes
Delete leading and trailing silent blocks : No
Null samples used in CRC calculations : Yes
Used interface : Native Win32 interface for Win NT & 2000

Used output format : Internal WAV Routines
Sample format : 44.100 Hz; 16 Bit; Stereo


TOC of the extracted CD

Track | Start | Length | Start sector | End sector
––––––––––––––––––––––––––––-
1 | 0:00.00 | 5:28.37 | 0 | 24636
2 | 5:28.37 | 8:19.25 | 24637 | 62086
3 | 13:47.62 | 6:53.63 | 62087 | 93124
4 | 20:41.50 | 6:34.15 | 93125 | 122689
5 | 27:15.65 | 8:55.20 | 122690 | 162834
6 | 36:11.10 | 5:26.24 | 162835 | 187308
7 | 41:37.34 | 4:45.16 | 187309 | 208699
8 | 46:22.50 | 13:34.40 | 208700 | 269789


Range status and errors

Selected range

Filename D:\Threshold - Critical Mass (CD1) [IOMLTDCD 108].wav

Peak level 100.0 %
Range quality 100.0 %
Test CRC 75E0C088
Copy CRC 75E0C088
Copy OK

No errors occurred


AccurateRip summary

Track 1 accurately ripped (confidence 42) [5A0036EE]
Track 2 accurately ripped (confidence 42) [CA0A7332]
Track 3 accurately ripped (confidence 42) [796AF209]
Track 4 accurately ripped (confidence 42) [08CBA064]
Track 5 accurately ripped (confidence 42) [A5321AFE]
Track 6 accurately ripped (confidence 42) [C63BCCB2]
Track 7 accurately ripped (confidence 42) [179F613B]
Track 8 accurately ripped (confidence 41) [23326CAF]

All tracks accurately ripped

End of status report

[CUETools log; Date: 04.03.2017 15:30:05; Version: 2.1.4]
[CTDB TOCID: vwhShMRNHnM_nj9huIm7OEXg9Pk-] found.
Track | CTDB Status
1 | (67/67) Accurately ripped
2 | (66/67) Accurately ripped
3 | (64/67) Accurately ripped
4 | (66/67) Accurately ripped
5 | (66/67) Accurately ripped
6 | (67/67) Accurately ripped
7 | (66/67) Accurately ripped
8 | (61/67) Accurately ripped
[AccurateRip ID: 001142a5-00741449-700e0d08] found.
Track [ CRC | V2 ] Status
01 [5a0036ee|43b0f179] (44+48/98) Accurately ripped
02 [ca0a7332|945fd08c] (44+47/97) Accurately ripped
03 [796af209|7365167a] (44+47/97) Accurately ripped
04 [08cba064|f8a70ba5] (44+48/98) Accurately ripped
05 [a5321afe|ba961504] (44+46/96) Accurately ripped
06 [c63bccb2|2dc42d23] (44+48/98) Accurately ripped
07 [179f613b|fec278eb] (44+48/98) Accurately ripped
08 [23326caf|c7f47d82] (43+47/96) Accurately ripped
Offsetted by -686:
01 [f077fb1a] (02/98) Accurately ripped
02 [b3b2751c] (02/97) Accurately ripped
03 [4933aea3] (02/97) Accurately ripped
04 [ad3d9466] (02/98) Accurately ripped
05 [1cbd6872] (02/96) Accurately ripped
06 [cee0251a] (02/98) Accurately ripped
07 [55c76547] (02/98) Accurately ripped
08 [80b83b0d] (02/96) Accurately ripped
Offsetted by -664:
01 [da7a1c5e] (02/98) Accurately ripped
02 [54e1507a] (02/97) Accurately ripped
03 [62a1ad11] (02/97) Accurately ripped
04 [af6e2b8c] (02/98) Accurately ripped
05 [d141860e] (02/96) Accurately ripped
06 [8633b0d2] (02/98) Accurately ripped
07 [6f66942b] (02/98) Accurately ripped
08 [d38d2107] (02/96) Accurately ripped
Offsetted by 6:
01 [f6e985d2] (00/98) No match (V2 was not tested)
02 [248b97c0] (00/97) No match (V2 was not tested)
03 [23432027] (00/97) No match (V2 was not tested)
04 [ac4d3dfa] (00/98) No match (V2 was not tested)
05 [a7e1c5fa] (00/96) No match (V2 was not tested)
06 [6c98672a] (00/98) No match (V2 was not tested)
07 [92f956bf] (00/98) No match (V2 was not tested)
08 [0b3df139] (00/96) No match (V2 was not tested)

Track Peak [ CRC32 ] [W/O NULL] [ LOG ]
– 100,0 [75E0C088] [ACC0F5F8] CRC32
01 100,0 [0BED2142] [815BAA32]
02 99,9 [AD7C4D64] [E23E7E9E]
03 94,7 [3CB0A3BD] [D97D0819]
04 94,7 [44D26522] [C13FC4D3]
05 100,0 [D2A26829] [C5F6FAFA]
06 93,7 [85382EFF] [AFC13D85]
07 100,0 [1C1EF950] [E6EB7655]
08 94,1 [FCD069D6] [24A0801A]

Exact Audio Copy V0.99 prebeta 5 from 4. May 2009

EAC extraction logfile from 8. December 2012, 0:07

Threshold / Critical Mass (Limited Edition CDS) [IOMLTDCD 108]

Used drive : ASUS DRW-22B3L Adapter: 0 ID: 1

Read mode : Secure
Utilize accurate stream : Yes
Defeat audio cache : Yes
Make use of C2 pointers : No

Read offset correction : 6
Overread into Lead-In and Lead-Out : No
Fill up missing offset samples with silence : Yes
Delete leading and trailing silent blocks : No
Null samples used in CRC calculations : Yes
Used interface : Native Win32 interface for Win NT & 2000

Used output format : Internal WAV Routines
Sample format : 44.100 Hz; 16 Bit; Stereo


TOC of the extracted CD

Track | Start | Length | Start sector | End sector
––––––––––––––––––––––––––––-
1 | 0:00.00 | 3:47.35 | 0 | 17059
2 | 3:47.35 | 4:26.57 | 17060 | 37066
3 | 8:14.17 | 5:29.45 | 37067 | 61786
4 | 16:15.62 | 23:43.27 | 73187 | 179938


Range status and errors

Selected range

Filename D:\Threshold - Critical Mass (CD2) [IOMLTDCD 108].wav

Peak level 98.8 %
Range quality 99.9 %
Test CRC F2A8FB27
Copy CRC F2A8FB27
Copy OK

No errors occurred


AccurateRip summary

Track 1 accurately ripped (confidence 18) [65984D1E]
Track 2 accurately ripped (confidence 19) [34C95685]
Track 3 accurately ripped (confidence 19) [28E2959E]

All tracks accurately ripped

End of status report

[CUETools log; Date: 04.03.2017 15:30:40; Version: 2.1.4]
CD-Extra data track length 23:43:27.
[CTDB TOCID: YWdgARgHbIbWLHFDDc6I5WWLqXs-] found.
Track | CTDB Status
1 | (28/28) Accurately ripped
2 | (28/28) Accurately ripped
3 | (27/28) Accurately ripped
[AccurateRip ID: 00039252-000d3336-39095f04] found.
Track [ CRC | V2 ] Status
01 [65984d1e|2d2ca266] (20+29/49) Accurately ripped
02 [34c95685|15986443] (21+31/52) Accurately ripped
03 [28e2959e|38984b6f] (21+31/52) Accurately ripped

Track Peak [ CRC32 ] [W/O NULL] [ LOG ]
– 98,8 [F2A8FB27] [043F0510] CRC32
01 98,8 [FC88726D] [9DB0053C]
02 98,8 [7FB8998A] [53E00152]
03 98,8 [3EEB9566] [F16FCA36]

Threshold - 9 Studio Albums (1993-2014)

Threshold - Subsurface (2004) [Special Edition]
EAC Rip | FLAC (image+.cue+log) - 600 MB | MP3 CBR 320 kbps (LAME 3.93) - 275 MB | Covers - 98 MB
Genre: Progressive Metal | RAR 3% Rec. | Label: InsideOut Music (IOMSECD 178)

Tracklist:
01. Mission Profile
02. Ground Control
03. Opium
04. Stop Dead
05. The Art Of Reason
06. Pressure
07. Flags And Footprints
08. Static
09. The Destruction Of Words
10. What About Me (Bonus track)
+ Multimedia section

Total time: 01:02:53

Exact Audio Copy V0.99 prebeta 5 from 4. May 2009

EAC extraction logfile from 16. October 2012, 23:14

Threshold / Subsurface [IOMSECD 178]

Used drive : ASUS DRW-22B3L Adapter: 0 ID: 1

Read mode : Secure
Utilize accurate stream : Yes
Defeat audio cache : Yes
Make use of C2 pointers : No

Read offset correction : 6
Overread into Lead-In and Lead-Out : No
Fill up missing offset samples with silence : Yes
Delete leading and trailing silent blocks : No
Null samples used in CRC calculations : Yes
Used interface : Native Win32 interface for Win NT & 2000

Used output format : Internal WAV Routines
Sample format : 44.100 Hz; 16 Bit; Stereo


TOC of the extracted CD

Track | Start | Length | Start sector | End sector
––––––––––––––––––––––––––––-
1 | 0:00.00 | 8:15.32 | 0 | 37156
2 | 8:15.32 | 7:13.45 | 37157 | 69676
3 | 15:29.02 | 6:48.23 | 69677 | 100299
4 | 22:17.25 | 4:21.00 | 100300 | 119874
5 | 26:38.25 | 10:20.37 | 119875 | 166411
6 | 36:58.62 | 5:17.73 | 166412 | 190259
7 | 42:16.60 | 4:54.22 | 190260 | 212331
8 | 47:11.07 | 5:07.60 | 212332 | 235416
9 | 52:18.67 | 6:14.03 | 235417 | 263469
10 | 58:32.70 | 4:19.72 | 263470 | 282966
11 | 65:24.67 | 14:03.63 | 294367 | 357654


Range status and errors

Selected range

Filename D:\Threshold - Subsurface [IOMSECD 178].wav

Peak level 98.6 %
Range quality 100.0 %
Test CRC 3E1AE572
Copy CRC 3E1AE572
Copy OK

No errors occurred


AccurateRip summary

Track 1 accurately ripped (confidence 6) [CE4B62AD]
Track 2 accurately ripped (confidence 6) [78D737ED]
Track 3 accurately ripped (confidence 6) [60AEB5A7]
Track 4 accurately ripped (confidence 6) [79AF08AE]
Track 5 accurately ripped (confidence 6) [7EB6F233]
Track 6 accurately ripped (confidence 6) [452D4A56]
Track 7 accurately ripped (confidence 6) [B8C361EC]
Track 8 accurately ripped (confidence 6) [440E4D29]
Track 9 accurately ripped (confidence 6) [387FEFF2]
Track 10 accurately ripped (confidence 6) [E27730D5]

All tracks accurately ripped

End of status report

[CUETools log; Date: 04.03.2017 15:32:23; Version: 2.1.4]
CD-Extra data track length 14:03:63.
[CTDB TOCID: GnP7VpgU4G2LbAo6_9tOOHkKhIM-] found.
Track | CTDB Status
1 | (47/47) Accurately ripped
2 | (46/47) Accurately ripped
3 | (46/47) Accurately ripped
4 | (46/47) Accurately ripped
5 | (45/47) Accurately ripped
6 | (46/47) Accurately ripped
7 | (46/47) Accurately ripped
8 | (46/47) Accurately ripped
9 | (45/47) Accurately ripped
10 | (46/47) Accurately ripped
[AccurateRip ID: 001abdeb-00d5a18f-8b12a00b] found.
Track [ CRC | V2 ] Status
01 [ce4b62ad|901d6a85] (07+06/66) Accurately ripped
02 [78d737ed|7b7132b0] (07+06/66) Accurately ripped
03 [60aeb5a7|ff5727d3] (07+06/66) Accurately ripped
04 [79af08ae|957d59fa] (07+06/66) Accurately ripped
05 [7eb6f233|5c6aee0d] (07+06/66) Accurately ripped
06 [452d4a56|c4ca2af6] (07+06/66) Accurately ripped
07 [b8c361ec|a79c928c] (07+06/66) Accurately ripped
08 [440e4d29|74cacfed] (07+06/66) Accurately ripped
09 [387feff2|adf8b955] (07+06/66) Accurately ripped
10 [e27730d5|b04e0b15] (07+06/66) Accurately ripped
Offsetted by -12:
01 [54df372d] (27/66) Accurately ripped
02 [51842ae9] (27/66) Accurately ripped
03 [3cab5f43] (27/66) Accurately ripped
04 [ac25945a] (27/66) Accurately ripped
05 [87475743] (27/66) Accurately ripped
06 [fdfd6642] (27/66) Accurately ripped
07 [a67b00f8] (27/66) Accurately ripped
08 [d1d602ed] (27/66) Accurately ripped
09 [724e0546] (27/66) Accurately ripped
10 [70eebbf1] (27/66) Accurately ripped
Offsetted by -676:
01 [6b7dd02d] (00/66) No match (V2 was not tested)
02 [26e60561] (00/66) No match (V2 was not tested)
03 [73f2b2fb] (00/66) No match (V2 was not tested)
04 [e9c51a32] (00/66) No match (V2 was not tested)
05 [b67d2f63] (00/66) No match (V2 was not tested)
06 [9af8c49a] (00/66) No match (V2 was not tested)
07 [082b6190] (00/66) No match (V2 was not tested)
08 [7700a1f5] (00/66) No match (V2 was not tested)
09 [462ea16e] (00/66) No match (V2 was not tested)
10 [917022a9] (00/66) No match (V2 was not tested)

Track Peak [ CRC32 ] [W/O NULL] [ LOG ]
– 98,6 [3E1AE572] [1377D7E1] CRC32
01 94,1 [6029756C] [9FF56215]
02 93,4 [E9A4D9BE] [A2D54A8F]
03 97,1 [D5A06B25] [E9D9C8D1]
04 98,6 [36791EC7] [2BC23489]
05 93,5 [A5F3B1E3] [326D2419]
06 97,9 [076CA800] [4831D6A5]
07 92,3 [9E35EF2A] [834672A0]
08 96,5 [C9A704CB] [5E14B627]
09 93,5 [C6C1E13B] [3F079B0C]
10 96,4 [8F626958] [48A66ECB]

Threshold - 9 Studio Albums (1993-2014)

Threshold - Dead Reckoning (2007) [Limited Edition]
EAC Rip | FLAC (image+.cue+log) - 437 MB | MP3 CBR 320 kbps (LAME 3.93) - 137 MB | Covers - 47 MB
Genre: Progressive Metal | RAR 3% Rec. | Label: Nuclear Blast (NB 1738-0)

Tracklist:
01. Slipstream
02. This Is Your Life
03. Elusive
04. Hollow
05. Pilot In The Sky Of Dreams
06. Fighting For Breath
07. Disappear
08. Safe To Fly
09. One Degree Down
10. Supermassive Black Hole (Muse cover, Bonus track)

Total time: 58:09

Exact Audio Copy V0.99 prebeta 5 from 4. May 2009

EAC extraction logfile from 10. October 2012, 13:55

Threshold / Dead Reckoning [NB 1738-0]

Used drive : ASUS DRW-22B3L Adapter: 0 ID: 1

Read mode : Secure
Utilize accurate stream : Yes
Defeat audio cache : Yes
Make use of C2 pointers : No

Read offset correction : 6
Overread into Lead-In and Lead-Out : No
Fill up missing offset samples with silence : Yes
Delete leading and trailing silent blocks : No
Null samples used in CRC calculations : Yes
Used interface : Native Win32 interface for Win NT & 2000

Used output format : Internal WAV Routines
Sample format : 44.100 Hz; 16 Bit; Stereo


TOC of the extracted CD

Track | Start | Length | Start sector | End sector
––––––––––––––––––––––––––––-
1 | 0:00.00 | 4:55.05 | 0 | 22129
2 | 4:55.05 | 3:44.12 | 22130 | 38941
3 | 8:39.17 | 6:10.63 | 38942 | 66754
4 | 14:50.05 | 4:01.50 | 66755 | 84879
5 | 18:51.55 | 9:47.25 | 84880 | 128929
6 | 28:39.05 | 8:18.50 | 128930 | 166329
7 | 36:57.55 | 4:19.15 | 166330 | 185769
8 | 41:16.70 | 5:08.60 | 185770 | 208929
9 | 46:25.55 | 8:33.50 | 208930 | 247454
10 | 54:59.30 | 3:09.20 | 247455 | 261649


Range status and errors

Selected range

Filename D:\Threshold - Dead Reckoning [NB 1738-0].wav

Peak level 96.6 %
Range quality 99.9 %
Test CRC 80993659
Copy CRC 80993659
Copy OK

No errors occurred


AccurateRip summary

Track 1 accurately ripped (confidence 32) [0EDAE5FD]
Track 2 accurately ripped (confidence 32) [F372DE73]
Track 3 accurately ripped (confidence 32) [14A27764]
Track 4 accurately ripped (confidence 32) [B24B0776]
Track 5 accurately ripped (confidence 32) [4BBB18E4]
Track 6 accurately ripped (confidence 31) [1EBE78C4]
Track 7 accurately ripped (confidence 30) [96064CBC]
Track 8 accurately ripped (confidence 31) [511EEBEB]
Track 9 accurately ripped (confidence 30) [76379E1F]
Track 10 accurately ripped (confidence 31) [AE661E2E]

All tracks accurately ripped

End of status report

[CUETools log; Date: 04.03.2017 15:33:54; Version: 2.1.4]
[CTDB TOCID: C4FpAI0m11aJh8FoyDrtj37m78U-] found.
Track | CTDB Status
1 | (81/82) Accurately ripped
2 | (80/82) Accurately ripped
3 | (79/82) Accurately ripped
4 | (82/82) Accurately ripped
5 | (81/82) Accurately ripped
6 | (82/82) Accurately ripped
7 | (82/82) Accurately ripped
8 | (81/82) Accurately ripped
9 | (81/82) Accurately ripped
10 | (80/82) Accurately ripped
[AccurateRip ID: 00158abc-00af9f7b-840da00a] found.
Track [ CRC | V2 ] Status
01 [0edae5fd|7aeba05f] (35+37/79) Accurately ripped
02 [f372de73|88b9301c] (35+37/79) Accurately ripped
03 [14a27764|32a8c39a] (35+36/76) Accurately ripped
04 [b24b0776|e0ad4414] (35+37/77) Accurately ripped
05 [4bbb18e4|3e2e3f87] (35+36/76) Accurately ripped
06 [1ebe78c4|4052da40] (34+37/76) Accurately ripped
07 [96064cbc|13188ab2] (33+38/76) Accurately ripped
08 [511eebeb|1fd309c2] (34+38/77) Accurately ripped
09 [76379e1f|240f2cdb] (33+37/75) Accurately ripped
10 [ae661e2e|1cbf51a9] (34+36/76) Accurately ripped
Offsetted by -664:
01 [6dd938f9] (03/79) Accurately ripped
02 [aa0998af] (03/79) Accurately ripped
03 [503d5334] (03/76) Accurately ripped
04 [29a607ae] (03/77) Accurately ripped
05 [2fa3e30c] (03/76) Accurately ripped
06 [d3c49469] (03/76) Accurately ripped
07 [efa0f09f] (03/76) Accurately ripped
08 [841fa48b] (03/77) Accurately ripped
09 [f411eedf] (03/75) Accurately ripped
10 [0e643a17] (04/76) Accurately ripped
Offsetted by 6:
01 [a0c2f8a8] (02/79) Accurately ripped
02 [bdb6d29a] (02/79) Accurately ripped
03 [5d595b30] (00/76) No match (V2 was not tested)
04 [ebd12588] (00/77) No match (V2 was not tested)
05 [578d0aba] (00/76) No match (V2 was not tested)
06 [de37be88] (00/76) No match (V2 was not tested)
07 [ff9fe04e] (00/76) No match (V2 was not tested)
08 [ea1b0f43] (00/77) No match (V2 was not tested)
09 [4aab9eef] (00/75) No match (V2 was not tested)
10 [011e7663] (00/76) No match (V2 was not tested)

Track Peak [ CRC32 ] [W/O NULL] [ LOG ]
– 96,6 [80993659] [2961EADA] CRC32
01 96,6 [30CF7AA5] [789B7CA2]
02 96,6 [2D30E860] [62B6814E]
03 96,6 [50248C9A] [0678E820]
04 96,6 [B3594545] [49149186]
05 96,6 [31621F17] [4D6CEBD0]
06 96,6 [FD88347D] [764EBA76]
07 96,6 [779CF489] [1A87B0E4]
08 96,6 [0556A87A] [C7655B02]
09 96,6 [1224F04B] [9250DA6A]
10 96,6 [290BB45F] [B12C0BE7]

Threshold - 9 Studio Albums (1993-2014)

Threshold - For The Journey (2014) [Limited Edition]
EAC Rip | FLAC (image+.cue+log) - 410 MB | MP3 CBR 320 kbps (LAME 3.93) - 129 MB | Covers - 68 MB
Genre: Progressive Metal | RAR 3% Rec. | Label: Nuclear Blast (NB 3001-0)

Tracklist:
01. Watchtower on the Moon
02. Unforgiven
03. The Box
04. Turned to Dust
05. Lost in Your Memory
06. Autumn Red
07. The Mystery Show
08. Siren Sky
09. I Wish I Could (Bonus Track)

Total time: 55:00

Exact Audio Copy V1.0 beta 3 from 29. August 2011

EAC extraction logfile from 20. September 2014, 1:42

Threshold / For The Journey

Used drive : ATAPI iHAS122 W Adapter: 2 ID: 0

Read mode : Secure
Utilize accurate stream : Yes
Defeat audio cache : Yes
Make use of C2 pointers : No

Read offset correction : 48
Overread into Lead-In and Lead-Out : No
Fill up missing offset samples with silence : Yes
Delete leading and trailing silent blocks : No
Null samples used in CRC calculations : Yes
Used interface : Installed external ASPI interface

Used output format : User Defined Encoder
Selected bitrate : 1024 kBit/s
Quality : High
Add ID3 tag : No
Command line compressor : C:\Program Files\FLAC\flac.exe
Additional command line options : -V -8 -T "Date=%year%" -T "Genre=%genre%" -T"COMMENT=Ripped by Ilijan" -8 -V %source%


TOC of the extracted CD

Track | Start | Length | Start sector | End sector
––––––––––––––––––––––––––––-
1 | 0:00.00 | 5:32.07 | 0 | 24906
2 | 5:32.07 | 5:37.01 | 24907 | 50182
3 | 11:09.08 | 11:59.00 | 50183 | 104107
4 | 23:08.08 | 4:19.00 | 104108 | 123532
5 | 27:27.08 | 4:36.00 | 123533 | 144232
6 | 32:03.08 | 5:41.00 | 144233 | 169807
7 | 37:44.08 | 5:37.00 | 169808 | 195082
8 | 43:21.08 | 6:10.00 | 195083 | 222832
9 | 49:31.08 | 5:28.59 | 222833 | 247491


Range status and errors

Selected range

Filename D:\Ilijan\Threshold - For The Journey.wav

Peak level 98.8 %
Extraction speed 4.0 X
Range quality 100.0 %
Test CRC 5D746FE1
Copy CRC 5D746FE1
Copy OK

No errors occurred


AccurateRip summary

Track 1 not present in database
Track 2 not present in database
Track 3 not present in database
Track 4 not present in database
Track 5 not present in database
Track 6 not present in database
Track 7 not present in database
Track 8 not present in database
Track 9 not present in database

None of the tracks are present in the AccurateRip database

End of status report

–– CUETools DB Plugin V2.1.3

[CTDB TOCID: JcOvCpnRc9B10uuimupk8Af3hIM-] disk not present in database, Submit result: JcOvCpnRc9B10uuimupk8Af3hIM- has been uploaded


==== Log checksum 613DAA5D1965320EFDE903954E6CAFE05B337633A355F9E9F17803743BE7CD87 ====

[CUETools log; Date: 04.03.2017 15:34:48; Version: 2.1.4]
[CTDB TOCID: JcOvCpnRc9B10uuimupk8Af3hIM-] found.
Track | CTDB Status
1 | (89/91) Accurately ripped
2 | (90/91) Accurately ripped
3 | (90/91) Accurately ripped
4 | (90/91) Accurately ripped
5 | (90/91) Accurately ripped
6 | (90/91) Accurately ripped
7 | (90/91) Accurately ripped
8 | (89/91) Accurately ripped
9 | (90/91) Accurately ripped
[AccurateRip ID: 00139084-008e5bbc-7c0ce309] found.
Track [ CRC | V2 ] Status
01 [a88b1a0d|971bba6e] (05+37/42) Accurately ripped
02 [d04e75e1|c487e0ff] (05+38/43) Accurately ripped
03 [4ffd474d|f6febfce] (05+38/43) Accurately ripped
04 [e758c8c1|4d87370d] (05+38/43) Accurately ripped
05 [7a1bd359|f9ca49a6] (05+38/43) Accurately ripped
06 [d8a94cac|bc745e75] (05+38/43) Accurately ripped
07 [c46f9c37|9aadb903] (05+38/43) Accurately ripped
08 [bab099a2|54126597] (05+38/43) Accurately ripped
09 [d006c75e|42a908d9] (05+38/43) Accurately ripped
Offsetted by 6:
01 [700fe759] (00/42) No match (V2 was not tested)
02 [60ef21a7] (00/43) No match (V2 was not tested)
03 [f8f45053] (00/43) No match (V2 was not tested)
04 [6fac6ccf] (00/43) No match (V2 was not tested)
05 [7d34570f] (00/43) No match (V2 was not tested)
06 [27ac56e6] (00/43) No match (V2 was not tested)
07 [dd5ad9a5] (00/43) No match (V2 was not tested)
08 [61485e7a] (00/43) No match (V2 was not tested)
09 [9d62954b] (00/43) No match (V2 was not tested)

Track Peak [ CRC32 ] [W/O NULL] [ LOG ]
– 98,8 [5D746FE1] [99D1C262] CRC32
01 98,8 [8A05AD6E] [C65CEE4E]
02 98,8 [5FA0BBE4] [6597E0D7]
03 98,8 [E743A8B1] [EB1F8B3C]
04 98,8 [E25CF1BC] [5B4EC8BC]
05 98,8 [FE190E7F] [E56583D9]
06 98,8 [E8E4756A] [8E79FA6A]
07 98,8 [90586B4C] [186C6018]
08 98,8 [37C43657] [809D3260]
09 98,8 [E35F5ED3] [AE0B4B2D]

Thanks to Pretender & ilijan