Tags
Language
Tags

Tina Charles - I Love To Love (Plus) (1976) [2007]

Posted By:
Tina Charles - I Love To Love (Plus) (1976) [2007]

Tina Charles - I Love To Love (Plus) (1976) [2007]
EAC Rip | FLAC (Tracks) +CUE, LOG | 420 MB | Covers Included
Genre: Disco, Funk | Label: RPM | Catalog Number: RPM 324

Tina Charles (born 10 March 1954) is an English singer who achieved success as a disco artist in the mid to late 1970s. Her most successful single was the no. 1 hit "I Love to Love (But My Baby Loves to Dance)" in 1976.


Session vocalist Tina Charles was no stranger to music by the time she partnered with Martin Jay in 5000 Volts, in 1975, to score the international hit "I'm on Fire." Charles and Jay already had some time together under their belts in the little-remembered band Northern Lights, while she also released a string of unsuccessful singles for CBS during 1969-1970: "Nothing in the World," "In the Middle of the Day," "Good to Be Alive," and "Bo-Bo's Party." Another early outfit, Wild Honey, cut a brace of 45s for Gordon Mills' MAM label during 1971-1972. Solo again by 1974, Charles signed with Bell and released "One Broken Heart for Sale," while also working as a vocalist for the Top of the Pops series of hit cover albums; she appears on around a dozen volumes in the redoubtable series, recorded between 1973-1975.

In 1975, Charles reunited with her old Northern Lights partner Martin Jay as Airbus. When their debut single "Bye Love" was flipped by their UK imprint Philips (who also christened them the more electrifying 5000 Volts), the B-side "I'm on Fire" became a major worldwide hit. More importantly, it brought her to the attention of the singularly named, and fast-rising disco producer Biddu.

Having already struck disco gold with Carl Douglas' massive hit, "Kung Fu Fighting," Biddu approached Charles and had her cut the solo single "You Set My Heart on Fire." Released on CBS (her permanent home through the 1970s), the single didn't do anything in the charts; undeterred, they promptly rebounded with the monumental disco anthem "I Love to Love (But My Baby Just Loves to Dance)." Reaching number one on the UK singles charts in February 1976, the track also emerged a minor hit in the US, where it fared better in the discos than in the mainstream slipstream. With Biddu working magically behind the scenes, Charles brought yet another single, "Love Me Like a Lover," into the U.K. charts that year. Backed by a band that included future Buggles Trevor Horn and Geoff Downes, Charles released her first LP that summer. Dance Lady Dance brought a further two singles into the Top Ten at the end of 1976, the number six hit "Dance Little Lady Dance" and the number four smash "Dr Love." In total, Charles spent a remarkable 42 weeks on the UK chart in 1976 alone.

The following year was just as fruitful – she recorded two more LPs, Rendezvous and Heart 'N Soul, and three of her singles were chart smashes: "Rendezvous"; a medley of "Love Bug" and the oldie "Sweets for My Sweet" hit in 1977; but the most notable was the following year's cover of fellow-Biddu stablemate Jimmy James' hit "I'll Go Where Your Music Takes Me." Charles' star, though, appeared to be on the decline as disco gave way to a different kind of hedonism all together. Despite continuing to release singles during 1978, she began sinking from sight. A 1980 LP, Just One Smile, also failed to make any mark whatsoever. Charles returned to the British charts just one more time, with a 1986 remix of "I Love to Love." [Artist Biography by Amy Hanson]

Exact Audio Copy V1.0 beta 3 from 29. August 2011

Отчёт EAC об извлечении, выполненном 5. ноября 2014, 22:25

Tina Charles / I love to love (Plus)

Дисковод: Optiarc DVD RW AD-7280S Adapter: 3 ID: 0

Режим чтения : Достоверность
Использование точного потока : Да
Отключение кэша аудио : Да
Использование указателей C2 : Нет

Коррекция смещения при чтении : 48
Способность читать области Lead-in и Lead-out : Нет
Заполнение пропущенных сэмплов тишиной : Да
Удаление блоков с тишиной в начале и конце : Нет
При вычислениях CRC использовались нулевые сэмплы : Да
Интерфейс : Встроенный Win32-интерфейс для Win NT/2000
Обработка зазоров : Добавлено к предыдущему треку

Выходной формат : Пользовательский кодировщик
Выбранный битрейт : 128 kBit/s
Качество : Высокий
Добавление ID3-тега : Нет
Утилита сжатия : C:\Program Files\EAC\FLAC\FLAC.EXE
Дополнительные параметры : -V -8 -T "Date=%year%" -T "Genre=%genre%" %source%


TOC извлечённого CD

Трек | Старт | Длительность | Начальный сектор | Конечный сектор
––––––––––––––––––––––––––––––––––-
1 | 0:00.00 | 2:40.56 | 0 | 12055
2 | 2:40.56 | 2:40.19 | 12056 | 24074
3 | 5:21.00 | 3:28.65 | 24075 | 39739
4 | 8:49.65 | 2:39.49 | 39740 | 51713
5 | 11:29.39 | 2:39.66 | 51714 | 63704
6 | 14:09.30 | 3:05.10 | 63705 | 77589
7 | 17:14.40 | 3:01.21 | 77590 | 91185
8 | 20:15.61 | 2:43.38 | 91186 | 103448
9 | 22:59.24 | 3:05.42 | 103449 | 117365
10 | 26:04.66 | 3:13.11 | 117366 | 131851
11 | 29:18.02 | 3:37.63 | 131852 | 148189
12 | 32:55.65 | 3:18.15 | 148190 | 163054
13 | 36:14.05 | 2:48.49 | 163055 | 175703
14 | 39:02.54 | 4:55.51 | 175704 | 197879
15 | 43:58.30 | 4:11.06 | 197880 | 216710
16 | 48:09.36 | 4:10.16 | 216711 | 235476
17 | 52:19.52 | 3:11.28 | 235477 | 249829
18 | 55:31.05 | 3:06.49 | 249830 | 263828


Трек 1

Имя файла D:\Audio\T_Charles\01 In the middle of the day.wav

Длина предзазора 0:00:02.00

Пиковый уровень 96.6 %
Скорость извлечения 2.1 X
Качество трека 100.0 %
CRC теста D5857018
CRC копии D5857018
Трек не обнаружен в базе AccurateRip
Копирование… OK

Трек 2

Имя файла D:\Audio\T_Charles\02 Rich girl.wav

Длина предзазора 0:00:00.58

Пиковый уровень 96.6 %
Скорость извлечения 2.3 X
Качество трека 100.0 %
CRC теста 775C2876
CRC копии 775C2876
Трек не обнаружен в базе AccurateRip
Копирование… OK

Трек 3

Имя файла D:\Audio\T_Charles\03 Good to be alive.wav

Длина предзазора 0:00:01.58

Пиковый уровень 92.5 %
Скорость извлечения 2.6 X
Качество трека 100.0 %
CRC теста 328C280C
CRC копии 328C280C
Трек не обнаружен в базе AccurateRip
Копирование… OK

Трек 4

Имя файла D:\Audio\T_Charles\04 Same old story.wav

Длина предзазора 0:00:01.58

Пиковый уровень 96.6 %
Скорость извлечения 2.7 X
Качество трека 100.0 %
CRC теста 94F9E0CA
CRC копии 94F9E0CA
Трек не обнаружен в базе AccurateRip
Копирование… OK

Трек 5

Имя файла D:\Audio\T_Charles\05 Band of gold.wav

Длина предзазора 0:00:01.58

Пиковый уровень 92.8 %
Скорость извлечения 2.8 X
Качество трека 100.0 %
CRC теста F6C6FAC0
CRC копии F6C6FAC0
Трек не обнаружен в базе AccurateRip
Копирование… OK

Трек 6

Имя файла D:\Audio\T_Charles\06 Stoney end.wav

Длина предзазора 0:00:01.58

Пиковый уровень 96.6 %
Скорость извлечения 3.0 X
Качество трека 100.0 %
CRC теста A664B220
CRC копии A664B220
Трек не обнаружен в базе AccurateRip
Копирование… OK

Трек 7

Имя файла D:\Audio\T_Charles\07 You can do magic.wav

Длина предзазора 0:00:01.58

Пиковый уровень 96.6 %
Скорость извлечения 2.7 X
Качество трека 99.9 %
CRC теста BCBFF5EA
CRC копии BCBFF5EA
Трек не обнаружен в базе AccurateRip
Копирование… OK

Трек 8

Имя файла D:\Audio\T_Charles\08 Smarty pants.wav

Длина предзазора 0:00:01.58

Пиковый уровень 96.6 %
Скорость извлечения 3.2 X
Качество трека 100.0 %
CRC теста 27C5A9A8
CRC копии 27C5A9A8
Трек не обнаружен в базе AccurateRip
Копирование… OK

Трек 9

Имя файла D:\Audio\T_Charles\09 I love to love.wav

Длина предзазора 0:00:01.58

Пиковый уровень 96.6 %
Скорость извлечения 3.0 X
Качество трека 99.9 %
CRC теста 9881D0BD
CRC копии 9881D0BD
Трек не обнаружен в базе AccurateRip
Копирование… OK

Трек 10

Имя файла D:\Audio\T_Charles\10 You set my heart on fire (pt1).wav

Длина предзазора 0:00:01.58

Пиковый уровень 96.6 %
Скорость извлечения 3.6 X
Качество трека 100.0 %
CRC теста 4B1ABA21
CRC копии 4B1ABA21
Трек не обнаружен в базе AccurateRip
Копирование… OK

Трек 11

Имя файла D:\Audio\T_Charles\11 Hey boy.wav

Длина предзазора 0:00:01.58

Пиковый уровень 96.6 %
Скорость извлечения 3.8 X
Качество трека 100.0 %
CRC теста 92A4EA68
CRC копии 92A4EA68
Трек не обнаружен в базе AccurateRip
Копирование… OK

Трек 12

Имя файла D:\Audio\T_Charles\12 Take all of me.wav

Длина предзазора 0:00:01.58

Пиковый уровень 96.6 %
Скорость извлечения 3.4 X
Качество трека 99.9 %
CRC теста 1004A04A
CRC копии 1004A04A
Трек не обнаружен в базе AccurateRip
Копирование… OK

Трек 13

Имя файла D:\Audio\T_Charles\13 Love me like a lover.wav

Длина предзазора 0:00:01.58

Пиковый уровень 96.6 %
Скорость извлечения 3.3 X
Качество трека 99.9 %
CRC теста 67D7F9E6
CRC копии 67D7F9E6
Трек не обнаружен в базе AccurateRip
Копирование… OK

Трек 14

Имя файла D:\Audio\T_Charles\14 Why.wav

Длина предзазора 0:00:01.58

Пиковый уровень 96.6 %
Скорость извлечения 4.4 X
Качество трека 100.0 %
CRC теста 46DEE000
CRC копии 46DEE000
Трек не обнаружен в базе AccurateRip
Копирование… OK

Трек 15

Имя файла D:\Audio\T_Charles\15 Hold me.wav

Длина предзазора 0:00:01.58

Пиковый уровень 96.6 %
Скорость извлечения 4.5 X
Качество трека 100.0 %
CRC теста 57BEF019
CRC копии 57BEF019
Трек не обнаружен в базе AccurateRip
Копирование… OK

Трек 16

Имя файла D:\Audio\T_Charles\16 Disco fever.wav

Длина предзазора 0:00:01.58

Пиковый уровень 96.6 %
Скорость извлечения 4.6 X
Качество трека 100.0 %
CRC теста F152CE9A
CRC копии F152CE9A
Трек не обнаружен в базе AccurateRip
Копирование… OK

Трек 17

Имя файла D:\Audio\T_Charles\17 You set my heart on fire (pt2).wav

Длина предзазора 0:00:01.58

Пиковый уровень 96.6 %
Скорость извлечения 4.6 X
Качество трека 100.0 %
CRC теста D61F2A43
CRC копии D61F2A43
Трек не обнаружен в базе AccurateRip
Копирование… OK

Трек 18

Имя файла D:\Audio\T_Charles\18 Disco love.wav

Длина предзазора 0:00:01.58

Пиковый уровень 96.6 %
Скорость извлечения 4.6 X
Качество трека 100.0 %
CRC теста CC6FF8D6
CRC копии CC6FF8D6
Трек не обнаружен в базе AccurateRip
Копирование… OK


Ни одного трека нет в базе AccurateRip

Ошибок не произошло

Конец отчёта

==== Контрольная сумма отчёта B6D6473D5D8E040D845D02608CFF64E237322789BC84D1028443AA2416D1FDB5 ====


Tracklist:
01 In the middle of the day - 2:41
02 Rich girl - 2:40
03 Good to be alive - 3:29
04 Same old story - 2:39
05 Band of gold - 2:40
06 Stoney end - 3:05
07 You can do magic - 3:01
08 Smarty pants - 2:43
09 I love to love - 3:05
10 You set my heart on fire (pt1) - 3:13
11 Hey boy - 3:38
12 Take all of me - 3:18
13 Love me like a lover - 2:48
14 Why - 4:55
15 Hold me - 4:11
16 Disco fever - 4:10
17 You set my heart on fire (pt2) - 3:11
18 Disco love - 3:06