Subcategories

Tiny Grimes - Electric Guitar Master 1944-1947 (1998)

Posted By: Pisulik
Tiny Grimes - Electric Guitar Master 1944-1947 (1998)

Tiny Grimes - Electric Guitar Master 1944-1947 (1998)
EAC Rip | FLAC (Tracks) +cue, log, m3u, artworks - 139 MB | 01:04:35
Jazz | Label: EPM / Jazz Archives

Electric Guitar Master features a nice cross section of guitarist Tiny Grimes' more jazz-oriented material. An astonishingly gifted musician who combined the lithe fretwork of Les Paul with the raw blues tradition of T-Bone Walker, Grimes is often overlooked in favor of more well-known artists such as Charlie Christian. Featuring such legendary artists as Coleman Hawkins and Art Tatum, this compilation includes various Grimes classics such as "Tiny's Tempo" and "Tiny's Boogie Woogie."

TRACKLIST

01. After You've Gone (Creamer, Layton)
02. Moonglow (DeLange, Hudson, Mills)
03. (Back Home Again In) Indiana (Hanley, MacDonald)
04. Blue Harlem (Grimes, Quebec)
05. Step on It (Hawkins)
06. Riding on 52nd Street (Hawkins)
07. Tiny's Tempo (Grimes, Hart)
08. Groovin' With Grimes (Grimes)
09. Look Here (Cool Jive) (Cole, Hart, Thomas)
10. Living Room Romp (Burley, Feather)
11. Hardee's Partee (Hardee)
12. Basie's Morning Bluesicale (Fleagle)
13. C Jam Blues (Bigard, Ellington)
14. Flyin' High (Goodman, Hampton, Robin)
15. Tiny's Boogie Woogie (Grimes)
16. Tiny's Boogie Woogie (Grimes)
17. Profoundly Blue (Traditional)5
18. Blue Harlem (Grimes, Quebec)
19. That Old Black Magic (Arlen, Mercer)
20. Boogie Woogie Barbecue (Grimes)

Personel:

(1-2) Art Tatum Trio : Art Tatum (p), Tiny Grimes (g), Slam Stewart (b). New York City, 05/01/1944.
(3-4) Ike Quebec Quintet: Ike Quebec (ts), Roger Ramirez (p), Tiny Grimes (g), Milt Hinton (b), J.C. Heard (dm)
(5-6) Coleman Hawkins Septet: Charlie Shavers (tp), Edmond Hall (cl), Coleman Hawkins (ts), Clyde Hart (p) Tiny Grimes (g), Oscar Pettiford (b), Denzil Best (dm). NYC, 27/07/1944.
(7) Tiny Grimes Quintet: Charlie Parker (as), Clyde Hart (p), Tiny Grimes (g, Idr), Jimmy Butts (b), Harold "Doc" West (dm). NYC, 15/09/1944.
(8) Tiny Grimes Quartet: Joe Springer (p), Tiny Grimes (g, Idr), Ed Robinson (b), Harold "Doc" West (dm). NYC, 03/11/1944.
(9) Cozy Cole & His Orchestra : Charlie Shavers (tp), Hank D'Amico (cl), Walter Thomas (as, ts), Coleman Hawkins (ts), Clyde Hart (p), Tiny Grimes (g), Slam Stewart (b), Cozy Cole (dm). NYC, 14/11/1944.
(10) Dan Burley & Leonard Feather: Dan Burley & Leonard Feather (p), Tiny Grimes (g), Jack Lesberg (b), Morey Feld (dm). NYC, 01/01/1945.
(11) John Hardee's Swingtette : John Hardee (ts), Sammy Benskin (p), Tiny Grimes (q), John Simmons tb), Big Sid Catlett (dm). NYC, 28/02/1946.
(12) Buck Clayton's Big Four: Suck Clayton (tp), Scoville Brown (cl), Tiny Grimes (g), Sid Weiss (b). NYC, 26/06/1946. (13-16) Tiny Grimes Sextette : Trummy Young (tb), John Hardee (ts), Marlowe Morris (p), Tiny Grimes (g, Idr),
Jimmy Butts (b), Eddie Nicholdson (dm). NYC, 14/08/1946.
17-20) Tiny Grimes Quintet: John Hardee (ts), George Kelly (p, eel), Tiny Grimes (g, Idr), Lucille Dixon (b), Sonny Payne (dm). NYC, 29/12/1947.

Exact Audio Copy V0.99 prebeta 4 from 23. January 2008

EAC extraction logfile from 5. April 2010, 10:10

Tiny Grimes / Electric Guitar Master 1944-1947

Used drive : HL-DT-STDVD-RAM GH22NP20 Adapter: 0 ID: 0

Read mode : Secure
Utilize accurate stream : Yes
Defeat audio cache : Yes
Make use of C2 pointers : No

Read offset correction : 102
Overread into Lead-In and Lead-Out : No
Fill up missing offset samples with silence : Yes
Delete leading and trailing silent blocks : No
Null samples used in CRC calculations : Yes
Used interface : Installed external ASPI interface
Gap handling : Appended to previous track

Used output format : User Defined Encoder
Selected bitrate : 320 kBit/s
Quality : High
Add ID3 tag : No
Command line compressor : C:\Program Files\Exact Audio Copy\Flac\flac.exe
Additional command line options : -V -8 -T "artist=%a" -T "title=%t" -T "album=%g" -T "date=%y" -T "tracknumber=%n" -T "genre=%m" %s


TOC of the extracted CD

Track | Start | Length | Start sector | End sector
––––––––––––––––––––––––––––-
1 | 0:00.00 | 2:30.07 | 0 | 11256
2 | 2:30.07 | 2:37.18 | 11257 | 23049
3 | 5:07.25 | 3:57.67 | 23050 | 40891
4 | 9:05.17 | 4:36.35 | 40892 | 61626
5 | 13:41.52 | 3:07.45 | 61627 | 75696
6 | 16:49.22 | 2:52.30 | 75697 | 88626
7 | 19:41.52 | 2:55.50 | 88627 | 101801
8 | 22:37.27 | 3:06.10 | 101802 | 115761
9 | 25:43.37 | 2:47.33 | 115762 | 128319
10 | 28:30.70 | 2:44.10 | 128320 | 140629
11 | 31:15.05 | 3:11.25 | 140630 | 154979
12 | 34:26.30 | 3:21.32 | 154980 | 170086
13 | 37:47.62 | 2:49.60 | 170087 | 182821
14 | 40:37.47 | 6:02.28 | 182822 | 209999
15 | 46:40.00 | 3:35.55 | 210000 | 226179
16 | 50:15.55 | 2:59.17 | 226180 | 239621
17 | 53:14.72 | 2:45.50 | 239622 | 252046
18 | 56:00.47 | 2:54.08 | 252047 | 265104
19 | 58:54.55 | 2:38.72 | 265105 | 277026
20 | 61:33.52 | 3:02.03 | 277027 | 290679


Track 1

Filename D:\music\Musicgate's rips\Tiny Grimes - Electric Guitar Master 1944-1947 (1998)\01 - After You've Gone (277 bpm7).wav

Pre-gap length 0:00:02.00

Peak level 93.3 %
Track quality 99.9 %
Test CRC 163C0EF8
Copy CRC 163C0EF8
Accurately ripped (confidence 1) [130FCA59]
Copy OK

Track 2

Filename D:\music\Musicgate's rips\Tiny Grimes - Electric Guitar Master 1944-1947 (1998)\02 - Moonglow (175 bpm7).wav

Pre-gap length 0:00:02.56

Peak level 93.3 %
Track quality 100.0 %
Test CRC 0AE75065
Copy CRC 0AE75065
Accurately ripped (confidence 1) [5F08804A]
Copy OK

Track 3

Filename D:\music\Musicgate's rips\Tiny Grimes - Electric Guitar Master 1944-1947 (1998)\03 - Indiana.wav

Pre-gap length 0:00:02.57

Peak level 66.0 %
Track quality 100.0 %
Test CRC 896D8E48
Copy CRC 896D8E48
Accurately ripped (confidence 1) [52281F64]
Copy OK

Track 4

Filename D:\music\Musicgate's rips\Tiny Grimes - Electric Guitar Master 1944-1947 (1998)\04 - Blue Harlem (67 bpm7).wav

Pre-gap length 0:00:02.56

Peak level 93.3 %
Track quality 100.0 %
Test CRC B4542B99
Copy CRC B4542B99
Accurately ripped (confidence 1) [5C47D2BE]
Copy OK

Track 5

Filename D:\music\Musicgate's rips\Tiny Grimes - Electric Guitar Master 1944-1947 (1998)\05 - Step on It (202 bpm8).wav

Pre-gap length 0:00:02.56

Peak level 58.8 %
Track quality 99.9 %
Test CRC 6AB7C899
Copy CRC 6AB7C899
Accurately ripped (confidence 1) [53A1AADC]
Copy OK

Track 6

Filename D:\music\Musicgate's rips\Tiny Grimes - Electric Guitar Master 1944-1947 (1998)\06 - Riding on 52nd Street (245 bpm7).wav

Pre-gap length 0:00:02.56

Peak level 93.3 %
Track quality 100.0 %
Test CRC 2D6706EB
Copy CRC 2D6706EB
Accurately ripped (confidence 1) [A4BF9CEC]
Copy OK

Track 7

Filename D:\music\Musicgate's rips\Tiny Grimes - Electric Guitar Master 1944-1947 (1998)\07 - Tiny's Tempo.wav

Pre-gap length 0:00:02.56

Peak level 79.4 %
Track quality 99.9 %
Test CRC 20EF2E34
Copy CRC 20EF2E34
Accurately ripped (confidence 1) [13CB8AEB]
Copy OK

Track 8

Filename D:\music\Musicgate's rips\Tiny Grimes - Electric Guitar Master 1944-1947 (1998)\08 - Groovin' With Grimes (232 bpm7).wav

Pre-gap length 0:00:02.56

Peak level 93.3 %
Track quality 100.0 %
Test CRC 11554C18
Copy CRC 11554C18
Accurately ripped (confidence 1) [2490EA59]
Copy OK

Track 9

Filename D:\music\Musicgate's rips\Tiny Grimes - Electric Guitar Master 1944-1947 (1998)\09 - Look Here (Cool Jive) (190 bpm7).wav

Pre-gap length 0:00:02.56

Peak level 66.0 %
Track quality 100.0 %
Test CRC B9D52D17
Copy CRC B9D52D17
Accurately ripped (confidence 1) [0E8FAC04]
Copy OK

Track 10

Filename D:\music\Musicgate's rips\Tiny Grimes - Electric Guitar Master 1944-1947 (1998)\10 - Living Room Romp.wav

Pre-gap length 0:00:02.57

Peak level 78.5 %
Track quality 100.0 %
Test CRC AB799842
Copy CRC AB799842
Accurately ripped (confidence 1) [4C2B4A1D]
Copy OK

Track 11

Filename D:\music\Musicgate's rips\Tiny Grimes - Electric Guitar Master 1944-1947 (1998)\11 - Hardee's Partee.wav

Pre-gap length 0:00:02.57

Peak level 93.3 %
Track quality 100.0 %
Test CRC 1C411701
Copy CRC 1C411701
Accurately ripped (confidence 1) [977669D6]
Copy OK

Track 12

Filename D:\music\Musicgate's rips\Tiny Grimes - Electric Guitar Master 1944-1947 (1998)\12 - Basie's Morning Bluesicale.wav

Pre-gap length 0:00:02.57

Peak level 83.1 %
Track quality 100.0 %
Test CRC 7950292E
Copy CRC 7950292E
Accurately ripped (confidence 1) [A3E251F9]
Copy OK

Track 13

Filename D:\music\Musicgate's rips\Tiny Grimes - Electric Guitar Master 1944-1947 (1998)\13 - C Jam Blues (280 bpm7).wav

Pre-gap length 0:00:02.56

Peak level 66.1 %
Track quality 100.0 %
Test CRC F888971C
Copy CRC F888971C
Accurately ripped (confidence 1) [E689A0FC]
Copy OK

Track 14

Filename D:\music\Musicgate's rips\Tiny Grimes - Electric Guitar Master 1944-1947 (1998)\14 - Flying Home (307 bpm7).wav

Pre-gap length 0:00:02.56

Peak level 73.3 %
Track quality 100.0 %
Test CRC FCDDDE23
Copy CRC FCDDDE23
Accurately ripped (confidence 1) [00C882BC]
Copy OK

Track 15

Filename D:\music\Musicgate's rips\Tiny Grimes - Electric Guitar Master 1944-1947 (1998)\15 - Tiny's Boogie Woogie (185 bpm7).wav

Pre-gap length 0:00:02.57

Peak level 90.1 %
Track quality 100.0 %
Test CRC E1DB9DEB
Copy CRC E1DB9DEB
Accurately ripped (confidence 1) [9A207EE2]
Copy OK

Track 16

Filename D:\music\Musicgate's rips\Tiny Grimes - Electric Guitar Master 1944-1947 (1998)\16 - Tiny's Boogie Woogie (195 bpm7').wav

Pre-gap length 0:00:02.57

Peak level 83.1 %
Track quality 100.0 %
Test CRC 200F8AE6
Copy CRC 200F8AE6
Accurately ripped (confidence 1) [616D0A87]
Copy OK

Track 17

Filename D:\music\Musicgate's rips\Tiny Grimes - Electric Guitar Master 1944-1947 (1998)\17 - Profoundly Blue.wav

Pre-gap length 0:00:02.56

Peak level 93.3 %
Track quality 100.0 %
Test CRC F42251A5
Copy CRC F42251A5
Accurately ripped (confidence 1) [42664A56]
Copy OK

Track 18

Filename D:\music\Musicgate's rips\Tiny Grimes - Electric Guitar Master 1944-1947 (1998)\18 - Blue Harlem.wav

Pre-gap length 0:00:02.56

Peak level 70.5 %
Track quality 100.0 %
Test CRC F30070B5
Copy CRC F30070B5
Accurately ripped (confidence 1) [9CE7E8BE]
Copy OK

Track 19

Filename D:\music\Musicgate's rips\Tiny Grimes - Electric Guitar Master 1944-1947 (1998)\19 - That Old Black Magic (135 bpm7).wav

Pre-gap length 0:00:02.57

Peak level 83.1 %
Track quality 100.0 %
Test CRC 18BF3DCD
Copy CRC 18BF3DCD
Accurately ripped (confidence 1) [DA4CE2D8]
Copy OK

Track 20

Filename D:\music\Musicgate's rips\Tiny Grimes - Electric Guitar Master 1944-1947 (1998)\20 - Boogie Woogie Barbecue (158 bpm7).wav

Pre-gap length 0:00:02.56

Peak level 83.1 %
Track quality 100.0 %
Test CRC EC31D77B
Copy CRC EC31D77B
Accurately ripped (confidence 1) [755EE0E8]
Copy OK


All tracks accurately ripped

No errors occurred

End of status report


All thanks go to the original releaser - Musicgate