Subcategories

Todd Rundgren’s Utopia - Live at the Chicago Theatre (2019) [DVD9]

Posted By: juanchito
Todd Rundgren’s Utopia - Live at the Chicago Theatre (2019) [DVD9]

Todd Rundgren’s Utopia - Live at the Chicago Theatre (2019)
DVD9 | NTSC 16:9 (720x480) at 29.970 FPS | Audio: 48 KHz, 2 channels, 16 bits, AC-3
Heavy Metal | Length: 128 min | 7.92 GB GB


After a thirty-year-plus hiatus, Todd Rundgren's Utopia graced the Chicago Theater stage, with the hopes of promising fans an extraordinary, other-worldly concert experience. The original 70's-formed band established a stellar reputation for stretching the prog rock/pop envelope and infusing their mostly original material with verve and state-of-the-art technique. Rundgren has performed a diverse range of styles as a solo artist and as a member of the band Utopia. He is known for his sophisticated and often-unorthodox music, flamboyant stage outfits, and his later experiments with interactive entertainment. He also produced innovative music videos, pioneered forms of multimedia, and was an early adopter and promoter of various computer technologies.

Todd Rundgren’s Utopia - Live at the Chicago Theatre (2019) [DVD9]

Todd Rundgren’s Utopia - Live at the Chicago Theatre (2019) [DVD9]

Todd Rundgren’s Utopia - Live at the Chicago Theatre (2019) [DVD9]

Todd Rundgren’s Utopia - Live at the Chicago Theatre (2019) [DVD9]

Todd Rundgren’s Utopia - Live at the Chicago Theatre (2019) [DVD9]



Track Listing
1. Utopia Theme
2. The Ikon
3. Another Life
4. Do Ya
5. Freedom Fighters
6. The Wheel
7. Back on the Street
8. Something's Coming
9. Monument
10. Overture Communion with the Sun
11. Last of the New Wave Riders
12. Road To Utopia
13. Play This Game
14. Swing to the Right
15. Trapped
16. Set Me Free
17. Love In Action
18. Hammer In My Heart
19. Princess of the Universe
20. I Will Wait
21. Rock Love
22. Love is the Answer
23. One World
24. Just One Victory

General
Complete name : A:\Roberto Cumbreta\Todd.Rundgren.Live.at.The.Chicago.Theater.2019.NTSC.DVD9.MDVDR-FKKDVDR\VIDEO_TS\VIDEO_TS.BUP
Format : DVD Video
Format profile : Menu
File size : 30.0 KiB
Overall bit rate mode : Variable
FileExtension_Invalid : ifo

Video
ID : 224 (0xE0)
Format : MPEG Video
Format version : Version 2
Bit rate mode : Variable
Width : 720 pixels
Height : 480 pixels
Display aspect ratio : 4:3
Frame rate : 29.970 (29970/1000) FPS
Standard : NTSC
Compression mode : Lossy

Text
Format : RLE
Format/Info : Run-length encoding
Bit depth : 2 bits

General
Complete name : A:\Roberto Cumbreta\Todd.Rundgren.Live.at.The.Chicago.Theater.2019.NTSC.DVD9.MDVDR-FKKDVDR\VIDEO_TS\VIDEO_TS.IFO
Format : DVD Video
Format profile : Menu
File size : 30.0 KiB
Overall bit rate mode : Variable

Video
ID : 224 (0xE0)
Format : MPEG Video
Format version : Version 2
Bit rate mode : Variable
Width : 720 pixels
Height : 480 pixels
Display aspect ratio : 4:3
Frame rate : 29.970 (29970/1000) FPS
Standard : NTSC
Compression mode : Lossy

Text
Format : RLE
Format/Info : Run-length encoding
Bit depth : 2 bits

General
Complete name : A:\Roberto Cumbreta\Todd.Rundgren.Live.at.The.Chicago.Theater.2019.NTSC.DVD9.MDVDR-FKKDVDR\VIDEO_TS\VIDEO_TS.VOB
Format : MPEG-PS
File size : 8.00 KiB
Duration : 33 ms
Overall bit rate mode : Constant
Overall bit rate : 1 986 kb/s

Video
ID : 224 (0xE0)
Format : MPEG Video
Format version : Version 2
Format profile : Main@Main
Format settings : CustomMatrix
Format settings, BVOP : No
Format settings, Matrix : Custom
Duration : 33 ms
Bit rate mode : Constant
Maximum bit rate : 9 000 kb/s
Width : 720 pixels
Height : 480 pixels
Display aspect ratio : 4:3
Frame rate : 29.970 (30000/1001) FPS
Standard : NTSC
Color space : YUV
Chroma subsampling : 4:2:0
Bit depth : 8 bits
Scan type : Progressive
Scan order : Top Field First
Compression mode : Lossy
Time code of first frame : 00:00:00:00
Time code source : Group of pictures header
Color primaries : BT.601 NTSC
Transfer characteristics : BT.601
Matrix coefficients : BT.601

Menu

General
Complete name : A:\Roberto Cumbreta\Todd.Rundgren.Live.at.The.Chicago.Theater.2019.NTSC.DVD9.MDVDR-FKKDVDR\VIDEO_TS\VTS_01_0.BUP
Format : DVD Video
Format profile : Program
File size : 44.0 KiB
Duration : 44 min 30 s
Overall bit rate mode : Variable
Overall bit rate : 135 b/s
FileExtension_Invalid : ifo

Video
ID : 224 (0xE0)
Format : MPEG Video
Format version : Version 2
Duration : 44 min 30 s
Bit rate mode : Variable
Width : 720 pixels
Height : 480 pixels
Display aspect ratio : 16:9
Frame rate : 29.970 (29970/1000) FPS
Standard : NTSC
Compression mode : Lossy

Audio
ID : 128 (0x80)
Format : AC-3
Format/Info : Audio Coding 3
Duration : 44 min 30 s
Channel(s) : 2 channels
Sampling rate : 48.0 kHz
Compression mode : Lossy
Language : English

Menu
Duration : 44 min 30 s
00:00:00.000 : Chapter 1
00:12:28.500 : Chapter 2
00:23:46.000 : Chapter 3
00:30:53.500 : Chapter 4
00:44:30.066 : Chapter 5
List (Audio) : 0

General
Complete name : A:\Roberto Cumbreta\Todd.Rundgren.Live.at.The.Chicago.Theater.2019.NTSC.DVD9.MDVDR-FKKDVDR\VIDEO_TS\VTS_01_0.IFO
Format : DVD Video
Format profile : Program
File size : 44.0 KiB
Duration : 44 min 30 s
Overall bit rate mode : Variable
Overall bit rate : 135 b/s

Video
ID : 224 (0xE0)
Format : MPEG Video
Format version : Version 2
Duration : 44 min 30 s
Bit rate mode : Variable
Width : 720 pixels
Height : 480 pixels
Display aspect ratio : 16:9
Frame rate : 29.970 (29970/1000) FPS
Standard : NTSC
Compression mode : Lossy

Audio
ID : 128 (0x80)
Format : AC-3
Format/Info : Audio Coding 3
Duration : 44 min 30 s
Channel(s) : 2 channels
Sampling rate : 48.0 kHz
Compression mode : Lossy
Language : English

Menu
Duration : 44 min 30 s
00:00:00.000 : Chapter 1
00:12:28.500 : Chapter 2
00:23:46.000 : Chapter 3
00:30:53.500 : Chapter 4
00:44:30.066 : Chapter 5
List (Audio) : 0

General
Complete name : A:\Roberto Cumbreta\Todd.Rundgren.Live.at.The.Chicago.Theater.2019.NTSC.DVD9.MDVDR-FKKDVDR\VIDEO_TS\VTS_01_0.VOB
Format : MPEG-PS
File size : 682 KiB
Duration : 123 ms
Overall bit rate : 45.4 Mb/s

Video
ID : 224 (0xE0)
Format : MPEG Video
Format version : Version 2
Format profile : Main@Main
Format settings : CustomMatrix
Format settings, BVOP : No
Format settings, Matrix : Custom
Format settings, GOP : N=1
Duration : 123 ms
Bit rate mode : Constant
Maximum bit rate : 9 000 kb/s
Width : 720 pixels
Height : 480 pixels
Display aspect ratio : 2.40:1
Frame rate : 29.970 (30000/1001) FPS
Standard : NTSC
Color space : YUV
Chroma subsampling : 4:2:0
Bit depth : 8 bits
Scan type : Progressive
Scan order : Top Field First
Compression mode : Lossy
Color primaries : BT.601 NTSC
Transfer characteristics : BT.601
Matrix coefficients : BT.601

Text #1
ID : 189 (0xBD)-33 (0x21)
Format : RLE
Format/Info : Run-length encoding
Muxing mode : DVD-Video
Delay relative to video : 73 ms

Text #2
ID : 189 (0xBD)-34 (0x22)
Format : RLE
Format/Info : Run-length encoding
Muxing mode : DVD-Video
Delay relative to video : 73 ms

Menu

General
Complete name : A:\Roberto Cumbreta\Todd.Rundgren.Live.at.The.Chicago.Theater.2019.NTSC.DVD9.MDVDR-FKKDVDR\VIDEO_TS\VTS_01_1.VOB
Format : MPEG-PS
File size : 1 024 MiB
Duration : 39 min 34 s
Overall bit rate mode : Variable
Overall bit rate : 3 618 kb/s

Video
ID : 224 (0xE0)
Format : MPEG Video
Format version : Version 2
Format profile : Main@Main
Format settings : BVOP
Format settings, BVOP : Yes
Format settings, Matrix : Default
Format settings, GOP : M=3, N=15
Duration : 39 min 34 s
Bit rate mode : Variable
Bit rate : 3 226 kb/s
Maximum bit rate : 3 600 kb/s
Width : 720 pixels
Height : 480 pixels
Display aspect ratio : 16:9
Frame rate : 29.970 (30000/1001) FPS
Standard : NTSC
Color space : YUV
Chroma subsampling : 4:2:0
Bit depth : 8 bits
Scan type : Progressive
Compression mode : Lossy
Bits/(Pixel*Frame) : 0.311
Time code of first frame : 00:00:00;00
Time code source : Group of pictures header
GOP, Open/Closed : Open
GOP, Open/Closed of first frame : Closed
Stream size : 913 MiB (89%)

Audio
ID : 189 (0xBD)-128 (0x80)
Format : AC-3
Format/Info : Audio Coding 3
Commercial name : Dolby Digital
Muxing mode : DVD-Video
Duration : 39 min 34 s
Bit rate mode : Constant
Bit rate : 320 kb/s
Channel(s) : 2 channels
Channel layout : L R
Sampling rate : 48.0 kHz
Frame rate : 31.250 FPS (1536 SPF)
Bit depth : 16 bits
Compression mode : Lossy
Stream size : 90.6 MiB (9%)
Service kind : Complete Main

Menu

General
Complete name : A:\Roberto Cumbreta\Todd.Rundgren.Live.at.The.Chicago.Theater.2019.NTSC.DVD9.MDVDR-FKKDVDR\VIDEO_TS\VTS_01_2.VOB
Format : MPEG-PS
File size : 127 MiB
Duration : 4 min 58 s
Overall bit rate mode : Variable
Overall bit rate : 3 581 kb/s

Video
ID : 224 (0xE0)
Format : MPEG Video
Format version : Version 2
Format profile : Main@Main
Format settings : BVOP
Format settings, BVOP : Yes
Format settings, Matrix : Default
Format settings, GOP : M=3, N=15
Duration : 4 min 58 s
Bit rate mode : Variable
Bit rate : 3 189 kb/s
Maximum bit rate : 3 600 kb/s
Width : 720 pixels
Height : 480 pixels
Display aspect ratio : 16:9
Frame rate : 29.970 (30000/1001) FPS
Standard : NTSC
Color space : YUV
Chroma subsampling : 4:2:0
Bit depth : 8 bits
Scan type : Progressive
Compression mode : Lossy
Bits/(Pixel*Frame) : 0.308
Time code of first frame : 00:39:34;12
Time code source : Group of pictures header
GOP, Open/Closed : Open
Stream size : 113 MiB (89%)

Audio
ID : 189 (0xBD)-128 (0x80)
Format : AC-3
Format/Info : Audio Coding 3
Commercial name : Dolby Digital
Muxing mode : DVD-Video
Duration : 4 min 58 s
Bit rate mode : Constant
Bit rate : 320 kb/s
Channel(s) : 2 channels
Channel layout : L R
Sampling rate : 48.0 kHz
Frame rate : 31.250 FPS (1536 SPF)
Bit depth : 16 bits
Compression mode : Lossy
Delay relative to video : -71 ms
Stream size : 11.4 MiB (9%)
Service kind : Complete Main

Menu

General
Complete name : A:\Roberto Cumbreta\Todd.Rundgren.Live.at.The.Chicago.Theater.2019.NTSC.DVD9.MDVDR-FKKDVDR\VIDEO_TS\VTS_02_0.BUP
Format : DVD Video
Format profile : Program
File size : 86.0 KiB
Duration : 2 h 8 min
Overall bit rate mode : Variable
Overall bit rate : 91 b/s
FileExtension_Invalid : ifo

Video
ID : 224 (0xE0)
Format : MPEG Video
Format version : Version 2
Duration : 2 h 8 min
Bit rate mode : Variable
Width : 720 pixels
Height : 480 pixels
Display aspect ratio : 16:9
Frame rate : 29.970 (29970/1000) FPS
Standard : NTSC
Compression mode : Lossy

Audio #1
ID : 128 (0x80)
Format : AC-3
Format/Info : Audio Coding 3
Duration : 2 h 8 min
Channel(s) : 2 channels
Sampling rate : 48.0 kHz
Compression mode : Lossy
Language : English

Audio #2
ID : 129 (0x81)
Format : AC-3
Format/Info : Audio Coding 3
Duration : 2 h 8 min
Channel(s) : 6 channels
Sampling rate : 48.0 kHz
Compression mode : Lossy
Language : English

Menu
Duration : 2 h 8 min
00:00:00.000 : Chapter 1
00:01:49.000 : Chapter 2
00:16:08.500 : Chapter 3
00:20:45.500 : Chapter 4
00:28:26.500 : Chapter 5
00:32:34.000 : Chapter 6
00:36:55.000 : Chapter 7
00:43:50.500 : Chapter 8
00:48:16.000 : Chapter 9
00:51:46.500 : Chapter 10
00:56:44.500 : Chapter 11
01:04:16.000 : Chapter 12
01:09:09.000 : Chapter 13
01:14:35.000 : Chapter 14
01:18:56.500 : Chapter 15
01:23:31.500 : Chapter 16
01:26:53.000 : Chapter 17
01:30:15.000 : Chapter 18
01:33:59.000 : Chapter 19
01:38:42.500 : Chapter 20
01:42:10.000 : Chapter 21
01:46:32.000 : Chapter 22
01:51:41.500 : Chapter 23
01:56:26.000 : Chapter 24
02:00:25.000 : Chapter 25
02:06:31.000 : Chapter 26
02:08:29.200 : Chapter 27
List (Audio) : 0 / 1

General
Complete name : A:\Roberto Cumbreta\Todd.Rundgren.Live.at.The.Chicago.Theater.2019.NTSC.DVD9.MDVDR-FKKDVDR\VIDEO_TS\VTS_02_0.IFO
Format : DVD Video
Format profile : Program
File size : 86.0 KiB
Duration : 2 h 8 min
Overall bit rate mode : Variable
Overall bit rate : 91 b/s

Video
ID : 224 (0xE0)
Format : MPEG Video
Format version : Version 2
Duration : 2 h 8 min
Bit rate mode : Variable
Width : 720 pixels
Height : 480 pixels
Display aspect ratio : 16:9
Frame rate : 29.970 (29970/1000) FPS
Standard : NTSC
Compression mode : Lossy

Audio #1
ID : 128 (0x80)
Format : AC-3
Format/Info : Audio Coding 3
Duration : 2 h 8 min
Channel(s) : 2 channels
Sampling rate : 48.0 kHz
Compression mode : Lossy
Language : English

Audio #2
ID : 129 (0x81)
Format : AC-3
Format/Info : Audio Coding 3
Duration : 2 h 8 min
Channel(s) : 6 channels
Sampling rate : 48.0 kHz
Compression mode : Lossy
Language : English

Menu
Duration : 2 h 8 min
00:00:00.000 : Chapter 1
00:01:49.000 : Chapter 2
00:16:08.500 : Chapter 3
00:20:45.500 : Chapter 4
00:28:26.500 : Chapter 5
00:32:34.000 : Chapter 6
00:36:55.000 : Chapter 7
00:43:50.500 : Chapter 8
00:48:16.000 : Chapter 9
00:51:46.500 : Chapter 10
00:56:44.500 : Chapter 11
01:04:16.000 : Chapter 12
01:09:09.000 : Chapter 13
01:14:35.000 : Chapter 14
01:18:56.500 : Chapter 15
01:23:31.500 : Chapter 16
01:26:53.000 : Chapter 17
01:30:15.000 : Chapter 18
01:33:59.000 : Chapter 19
01:38:42.500 : Chapter 20
01:42:10.000 : Chapter 21
01:46:32.000 : Chapter 22
01:51:41.500 : Chapter 23
01:56:26.000 : Chapter 24
02:00:25.000 : Chapter 25
02:06:31.000 : Chapter 26
02:08:29.200 : Chapter 27
List (Audio) : 0 / 1

General
Complete name : A:\Roberto Cumbreta\Todd.Rundgren.Live.at.The.Chicago.Theater.2019.NTSC.DVD9.MDVDR-FKKDVDR\VIDEO_TS\VTS_02_0.VOB
Format : MPEG-PS
File size : 8.00 KiB
Duration : 33 ms
Overall bit rate mode : Constant
Overall bit rate : 1 986 kb/s

Video
ID : 224 (0xE0)
Format : MPEG Video
Format version : Version 2
Format profile : Main@Main
Format settings : CustomMatrix
Format settings, BVOP : No
Format settings, Matrix : Custom
Duration : 33 ms
Bit rate mode : Constant
Maximum bit rate : 9 000 kb/s
Width : 720 pixels
Height : 480 pixels
Display aspect ratio : 4:3
Frame rate : 29.970 (30000/1001) FPS
Standard : NTSC
Color space : YUV
Chroma subsampling : 4:2:0
Bit depth : 8 bits
Scan type : Progressive
Scan order : Top Field First
Compression mode : Lossy
Time code of first frame : 00:00:00:00
Time code source : Group of pictures header
Color primaries : BT.601 NTSC
Transfer characteristics : BT.601
Matrix coefficients : BT.601

Menu

General
Complete name : A:\Roberto Cumbreta\Todd.Rundgren.Live.at.The.Chicago.Theater.2019.NTSC.DVD9.MDVDR-FKKDVDR\VIDEO_TS\VTS_02_1.VOB
Format : MPEG-PS
File size : 1 024 MiB
Duration : 19 min 32 s
Overall bit rate mode : Variable
Overall bit rate : 7 325 kb/s

Video
ID : 224 (0xE0)
Format : MPEG Video
Format version : Version 2
Format profile : Main@Main
Format settings : BVOP
Format settings, BVOP : Yes
Format settings, Matrix : Default
Format settings, GOP : M=3, N=15
Duration : 19 min 32 s
Bit rate mode : Variable
Bit rate : 6 539 kb/s
Maximum bit rate : 7 000 kb/s
Width : 720 pixels
Height : 480 pixels
Display aspect ratio : 16:9
Frame rate : 29.970 (30000/1001) FPS
Standard : NTSC
Color space : YUV
Chroma subsampling : 4:2:0
Bit depth : 8 bits
Scan type : Progressive
Compression mode : Lossy
Bits/(Pixel*Frame) : 0.631
Time code of first frame : 00:00:00;00
Time code source : Group of pictures header
GOP, Open/Closed : Open
GOP, Open/Closed of first frame : Closed
Stream size : 914 MiB (89%)

Audio #1
ID : 189 (0xBD)-128 (0x80)
Format : AC-3
Format/Info : Audio Coding 3
Commercial name : Dolby Digital
Muxing mode : DVD-Video
Duration : 19 min 32 s
Bit rate mode : Constant
Bit rate : 192 kb/s
Channel(s) : 2 channels
Channel layout : L R
Sampling rate : 48.0 kHz
Frame rate : 31.250 FPS (1536 SPF)
Bit depth : 16 bits
Compression mode : Lossy
Stream size : 26.8 MiB (3%)
Service kind : Complete Main

Audio #2
ID : 189 (0xBD)-129 (0x81)
Format : AC-3
Format/Info : Audio Coding 3
Commercial name : Dolby Digital
Muxing mode : DVD-Video
Duration : 19 min 32 s
Bit rate mode : Constant
Bit rate : 448 kb/s
Channel(s) : 6 channels
Channel layout : L R C LFE Ls Rs
Sampling rate : 48.0 kHz
Frame rate : 31.250 FPS (1536 SPF)
Bit depth : 16 bits
Compression mode : Lossy
Stream size : 62.6 MiB (6%)
Service kind : Complete Main

Menu

General
Complete name : A:\Roberto Cumbreta\Todd.Rundgren.Live.at.The.Chicago.Theater.2019.NTSC.DVD9.MDVDR-FKKDVDR\VIDEO_TS\VTS_02_2.VOB
Format : MPEG-PS
File size : 1 024 MiB
Duration : 19 min 35 s
Overall bit rate mode : Variable
Overall bit rate : 7 307 kb/s

Video
ID : 224 (0xE0)
Format : MPEG Video
Format version : Version 2
Format profile : Main@Main
Format settings : BVOP
Format settings, BVOP : Yes
Format settings, Matrix : Default
Format settings, GOP : M=3, N=15
Duration : 19 min 35 s
Bit rate mode : Variable
Bit rate : 6 522 kb/s
Maximum bit rate : 7 000 kb/s
Width : 720 pixels
Height : 480 pixels
Display aspect ratio : 16:9
Frame rate : 29.970 (30000/1001) FPS
Standard : NTSC
Color space : YUV
Chroma subsampling : 4:2:0
Bit depth : 8 bits
Scan type : Progressive
Compression mode : Lossy
Bits/(Pixel*Frame) : 0.630
Time code of first frame : 00:19:32;21
Time code source : Group of pictures header
GOP, Open/Closed : Open
Stream size : 914 MiB (89%)

Audio #1
ID : 189 (0xBD)-128 (0x80)
Format : AC-3
Format/Info : Audio Coding 3
Commercial name : Dolby Digital
Muxing mode : DVD-Video
Duration : 19 min 35 s
Bit rate mode : Constant
Bit rate : 192 kb/s
Channel(s) : 2 channels
Channel layout : L R
Sampling rate : 48.0 kHz
Frame rate : 31.250 FPS (1536 SPF)
Bit depth : 16 bits
Compression mode : Lossy
Delay relative to video : -162 ms
Stream size : 26.9 MiB (3%)
Service kind : Complete Main

Audio #2
ID : 189 (0xBD)-129 (0x81)
Format : AC-3
Format/Info : Audio Coding 3
Commercial name : Dolby Digital
Muxing mode : DVD-Video
Duration : 19 min 35 s
Bit rate mode : Constant
Bit rate : 448 kb/s
Channel(s) : 6 channels
Channel layout : L R C LFE Ls Rs
Sampling rate : 48.0 kHz
Frame rate : 31.250 FPS (1536 SPF)
Bit depth : 16 bits
Compression mode : Lossy
Delay relative to video : -162 ms
Stream size : 62.8 MiB (6%)
Service kind : Complete Main

Menu

General
Complete name : A:\Roberto Cumbreta\Todd.Rundgren.Live.at.The.Chicago.Theater.2019.NTSC.DVD9.MDVDR-FKKDVDR\VIDEO_TS\VTS_02_3.VOB
Format : MPEG-PS
File size : 1 024 MiB
Duration : 19 min 36 s
Overall bit rate mode : Variable
Overall bit rate : 7 300 kb/s

Video
ID : 224 (0xE0)
Format : MPEG Video
Format version : Version 2
Format profile : Main@Main
Format settings : BVOP
Format settings, BVOP : Yes
Format settings, Matrix : Default
Format settings, GOP : M=3, N=15
Duration : 19 min 36 s
Bit rate mode : Variable
Bit rate : 6 515 kb/s
Maximum bit rate : 7 000 kb/s
Width : 720 pixels
Height : 480 pixels
Display aspect ratio : 16:9
Frame rate : 29.970 (30000/1001) FPS
Standard : NTSC
Color space : YUV
Chroma subsampling : 4:2:0
Bit depth : 8 bits
Scan type : Progressive
Compression mode : Lossy
Bits/(Pixel*Frame) : 0.629
Time code of first frame : 00:39:08;12
Time code source : Group of pictures header
GOP, Open/Closed : Open
Stream size : 914 MiB (89%)

Audio #1
ID : 189 (0xBD)-128 (0x80)
Format : AC-3
Format/Info : Audio Coding 3
Commercial name : Dolby Digital
Muxing mode : DVD-Video
Duration : 19 min 36 s
Bit rate mode : Constant
Bit rate : 192 kb/s
Channel(s) : 2 channels
Channel layout : L R
Sampling rate : 48.0 kHz
Frame rate : 31.250 FPS (1536 SPF)
Bit depth : 16 bits
Compression mode : Lossy
Delay relative to video : -253 ms
Stream size : 26.9 MiB (3%)
Service kind : Complete Main

Audio #2
ID : 189 (0xBD)-129 (0x81)
Format : AC-3
Format/Info : Audio Coding 3
Commercial name : Dolby Digital
Muxing mode : DVD-Video
Duration : 19 min 36 s
Bit rate mode : Constant
Bit rate : 448 kb/s
Channel(s) : 6 channels
Channel layout : L R C LFE Ls Rs
Sampling rate : 48.0 kHz
Frame rate : 31.250 FPS (1536 SPF)
Bit depth : 16 bits
Compression mode : Lossy
Delay relative to video : -253 ms
Stream size : 62.8 MiB (6%)
Service kind : Complete Main

Menu

General
Complete name : A:\Roberto Cumbreta\Todd.Rundgren.Live.at.The.Chicago.Theater.2019.NTSC.DVD9.MDVDR-FKKDVDR\VIDEO_TS\VTS_02_4.VOB
Format : MPEG-PS
File size : 1 024 MiB
Duration : 19 min 35 s
Overall bit rate mode : Variable
Overall bit rate : 7 304 kb/s

Video
ID : 224 (0xE0)
Format : MPEG Video
Format version : Version 2
Format profile : Main@Main
Format settings : BVOP
Format settings, BVOP : Yes
Format settings, Matrix : Default
Format settings, GOP : M=3, N=15
Duration : 19 min 35 s
Bit rate mode : Variable
Bit rate : 6 519 kb/s
Maximum bit rate : 7 000 kb/s
Width : 720 pixels
Height : 480 pixels
Display aspect ratio : 16:9
Frame rate : 29.970 (30000/1001) FPS
Standard : NTSC
Color space : YUV
Chroma subsampling : 4:2:0
Bit depth : 8 bits
Scan type : Progressive
Compression mode : Lossy
Bits/(Pixel*Frame) : 0.629
Time code of first frame : 00:58:45;01
Time code source : Group of pictures header
GOP, Open/Closed : Open
Stream size : 914 MiB (89%)

Audio #1
ID : 189 (0xBD)-128 (0x80)
Format : AC-3
Format/Info : Audio Coding 3
Commercial name : Dolby Digital
Muxing mode : DVD-Video
Duration : 19 min 35 s
Bit rate mode : Constant
Bit rate : 192 kb/s
Channel(s) : 2 channels
Channel layout : L R
Sampling rate : 48.0 kHz
Frame rate : 31.250 FPS (1536 SPF)
Bit depth : 16 bits
Compression mode : Lossy
Delay relative to video : -192 ms
Stream size : 26.9 MiB (3%)
Service kind : Complete Main

Audio #2
ID : 189 (0xBD)-129 (0x81)
Format : AC-3
Format/Info : Audio Coding 3
Commercial name : Dolby Digital
Muxing mode : DVD-Video
Duration : 19 min 35 s
Bit rate mode : Constant
Bit rate : 448 kb/s
Channel(s) : 6 channels
Channel layout : L R C LFE Ls Rs
Sampling rate : 48.0 kHz
Frame rate : 31.250 FPS (1536 SPF)
Bit depth : 16 bits
Compression mode : Lossy
Delay relative to video : -192 ms
Stream size : 62.8 MiB (6%)
Service kind : Complete Main

Menu

General
Complete name : A:\Roberto Cumbreta\Todd.Rundgren.Live.at.The.Chicago.Theater.2019.NTSC.DVD9.MDVDR-FKKDVDR\VIDEO_TS\VTS_02_5.VOB
Format : MPEG-PS
File size : 1 024 MiB
Duration : 19 min 36 s
Overall bit rate mode : Variable
Overall bit rate : 7 301 kb/s

Video
ID : 224 (0xE0)
Format : MPEG Video
Format version : Version 2
Format profile : Main@Main
Format settings : BVOP
Format settings, BVOP : Yes
Format settings, Matrix : Default
Format settings, GOP : M=3, N=15
Duration : 19 min 36 s
Bit rate mode : Variable
Bit rate : 6 516 kb/s
Maximum bit rate : 7 000 kb/s
Width : 720 pixels
Height : 480 pixels
Display aspect ratio : 16:9
Frame rate : 29.970 (30000/1001) FPS
Standard : NTSC
Color space : YUV
Chroma subsampling : 4:2:0
Bit depth : 8 bits
Scan type : Progressive
Compression mode : Lossy
Bits/(Pixel*Frame) : 0.629
Time code of first frame : 01:18:21;07
Time code source : Group of pictures header
GOP, Open/Closed : Open
Stream size : 914 MiB (89%)

Audio #1
ID : 189 (0xBD)-128 (0x80)
Format : AC-3
Format/Info : Audio Coding 3
Commercial name : Dolby Digital
Muxing mode : DVD-Video
Duration : 19 min 36 s
Bit rate mode : Constant
Bit rate : 192 kb/s
Channel(s) : 2 channels
Channel layout : L R
Sampling rate : 48.0 kHz
Frame rate : 31.250 FPS (1536 SPF)
Bit depth : 16 bits
Compression mode : Lossy
Delay relative to video : -367 ms
Stream size : 26.9 MiB (3%)
Service kind : Complete Main

Audio #2
ID : 189 (0xBD)-129 (0x81)
Format : AC-3
Format/Info : Audio Coding 3
Commercial name : Dolby Digital
Muxing mode : DVD-Video
Duration : 19 min 36 s
Bit rate mode : Constant
Bit rate : 448 kb/s
Channel(s) : 6 channels
Channel layout : L R C LFE Ls Rs
Sampling rate : 48.0 kHz
Frame rate : 31.250 FPS (1536 SPF)
Bit depth : 16 bits
Compression mode : Lossy
Delay relative to video : -367 ms
Stream size : 62.8 MiB (6%)
Service kind : Complete Main

Menu

General
Complete name : A:\Roberto Cumbreta\Todd.Rundgren.Live.at.The.Chicago.Theater.2019.NTSC.DVD9.MDVDR-FKKDVDR\VIDEO_TS\VTS_02_6.VOB
Format : MPEG-PS
File size : 1 024 MiB
Duration : 19 min 36 s
Overall bit rate mode : Variable
Overall bit rate : 7 302 kb/s

Video
ID : 224 (0xE0)
Format : MPEG Video
Format version : Version 2
Format profile : Main@Main
Format settings : BVOP
Format settings, BVOP : Yes
Format settings, Matrix : Default
Format settings, GOP : M=3, N=15
Duration : 19 min 36 s
Bit rate mode : Variable
Bit rate : 6 516 kb/s
Maximum bit rate : 7 000 kb/s
Width : 720 pixels
Height : 480 pixels
Display aspect ratio : 16:9
Frame rate : 29.970 (30000/1001) FPS
Standard : NTSC
Color space : YUV
Chroma subsampling : 4:2:0
Bit depth : 8 bits
Scan type : Progressive
Compression mode : Lossy
Bits/(Pixel*Frame) : 0.629
Time code of first frame : 01:37:57;26
Time code source : Group of pictures header
GOP, Open/Closed : Open
Stream size : 914 MiB (89%)

Audio #1
ID : 189 (0xBD)-128 (0x80)
Format : AC-3
Format/Info : Audio Coding 3
Commercial name : Dolby Digital
Muxing mode : DVD-Video
Duration : 19 min 36 s
Bit rate mode : Constant
Bit rate : 192 kb/s
Channel(s) : 2 channels
Channel layout : L R
Sampling rate : 48.0 kHz
Frame rate : 31.250 FPS (1536 SPF)
Bit depth : 16 bits
Compression mode : Lossy
Delay relative to video : -530 ms
Stream size : 26.9 MiB (3%)
Service kind : Complete Main

Audio #2
ID : 189 (0xBD)-129 (0x81)
Format : AC-3
Format/Info : Audio Coding 3
Commercial name : Dolby Digital
Muxing mode : DVD-Video
Duration : 19 min 36 s
Bit rate mode : Constant
Bit rate : 448 kb/s
Channel(s) : 6 channels
Channel layout : L R C LFE Ls Rs
Sampling rate : 48.0 kHz
Frame rate : 31.250 FPS (1536 SPF)
Bit depth : 16 bits
Compression mode : Lossy
Delay relative to video : -562 ms
Stream size : 62.8 MiB (6%)
Service kind : Complete Main

Menu

General
Complete name : A:\Roberto Cumbreta\Todd.Rundgren.Live.at.The.Chicago.Theater.2019.NTSC.DVD9.MDVDR-FKKDVDR\VIDEO_TS\VTS_02_7.VOB
Format : MPEG-PS
File size : 575 MiB
Duration : 11 min 2 s
Overall bit rate mode : Variable
Overall bit rate : 7 275 kb/s

Video
ID : 224 (0xE0)
Format : MPEG Video
Format version : Version 2
Format profile : Main@Main
Format settings : BVOP
Format settings, BVOP : Yes
Format settings, Matrix : Default
Format settings, GOP : M=3, N=15
Duration : 11 min 2 s
Bit rate mode : Variable
Bit rate : 6 491 kb/s
Maximum bit rate : 7 000 kb/s
Width : 720 pixels
Height : 480 pixels
Display aspect ratio : 16:9
Frame rate : 29.970 (30000/1001) FPS
Standard : NTSC
Color space : YUV
Chroma subsampling : 4:2:0
Bit depth : 8 bits
Scan type : Progressive
Compression mode : Lossy
Bits/(Pixel*Frame) : 0.627
Time code of first frame : 01:57:34;02
Time code source : Group of pictures header
GOP, Open/Closed : Open
Stream size : 513 MiB (89%)

Audio #1
ID : 189 (0xBD)-128 (0x80)
Format : AC-3
Format/Info : Audio Coding 3
Commercial name : Dolby Digital
Muxing mode : DVD-Video
Duration : 11 min 2 s
Bit rate mode : Constant
Bit rate : 192 kb/s
Channel(s) : 2 channels
Channel layout : L R
Sampling rate : 48.0 kHz
Frame rate : 31.250 FPS (1536 SPF)
Bit depth : 16 bits
Compression mode : Lossy
Delay relative to video : -289 ms
Stream size : 15.2 MiB (3%)
Service kind : Complete Main

Audio #2
ID : 189 (0xBD)-129 (0x81)
Format : AC-3
Format/Info : Audio Coding 3
Commercial name : Dolby Digital
Muxing mode : DVD-Video
Duration : 11 min 2 s
Bit rate mode : Constant
Bit rate : 448 kb/s
Channel(s) : 6 channels
Channel layout : L R C LFE Ls Rs
Sampling rate : 48.0 kHz
Frame rate : 31.250 FPS (1536 SPF)
Bit depth : 16 bits
Compression mode : Lossy
Delay relative to video : -289 ms
Stream size : 35.4 MiB (6%)
Service kind : Complete Main

Menu




Thanks to the original uploader