Tags
Language
Tags
April 2024
Su Mo Tu We Th Fr Sa
31 1 2 3 4 5 6
7 8 9 10 11 12 13
14 15 16 17 18 19 20
21 22 23 24 25 26 27
28 29 30 1 2 3 4

Tommy Flanagan, Ron Carter, Tony Williams - The Trio (1983) [Reissue 2005]

Posted By: gribovar
Tommy Flanagan, Ron Carter, Tony Williams - The Trio (1983) [Reissue 2005]

Tommy Flanagan, Ron Carter, Tony Williams - The Trio (1983) [Reissue 2005]
EAC Rip | FLAC (image+.cue+log) - 383 MB | MP3 CBR 320 kbps (LAME 3.93) - 172 MB | Covers - 101 MB
Genre: Jazz, Post-Bop, Hard Bop | RAR 3% Rec. | Label: Gambit Records (69218)

2 complete albums ("The Master Trio" and (Blues In The Closet") on 1 CD. Only previously available on 2 separate limited Japanese editions.
On June 16 & 17, 1983, three legendary instrumentalists recorded what would be their only collaboration as a unit. While the group's instrumentation consisted of a standard piano trio, the combination of Flanagan together with Carter and Williams was anything but standard. The studio sessions produced 14 tracks of superlative music - mostly modern jazz standards (including Rollins' "St.Thomas", Monk's "Misterioso", Davis' "Milestones", Dameron's "Good Bait" and many more great choices). The date also featured three classic standards as well as an original by each member of the trio.
Tracklist:

The Master Trio (1983):
01. It Don't Mean A Thing
02. St. Thomas
03. Angel Eyes
04. New Song #3
05. Minor Mishap
06. Misterioso
07. Milestones

Blues In The Closet (1983):
08. Good Bait
09. Afternoon In Paris
10. Giant Steps
11. Blues In The Closet
12. Sister Cheryl
13. My Ship
14. Moose The Mooche

Total time: 01:13:18

Exact Audio Copy V0.99 prebeta 5 from 4. May 2009

EAC extraction logfile from 6. March 2010, 0:37

Tommy Flanagan, Ron Carter, Tony Williams / The Trio

Used drive : ASUS DRW-1608P3S Adapter: 0 ID: 1

Read mode : Secure
Utilize accurate stream : Yes
Defeat audio cache : Yes
Make use of C2 pointers : No

Read offset correction : 48
Overread into Lead-In and Lead-Out : No
Fill up missing offset samples with silence : Yes
Delete leading and trailing silent blocks : No
Null samples used in CRC calculations : Yes
Used interface : Native Win32 interface for Win NT & 2000

Used output format : User Defined Encoder
Selected bitrate : 1024 kBit/s
Quality : High
Add ID3 tag : No
Command line compressor : C:\Program Files\Exact Audio Copy\FLAC\FLAC.EXE
Additional command line options : -5 -V -T "ARTIST=%a" -T "TITLE=%t" -T "ALBUM=%g" -T "DATE=%y" -T "TRACKNUMBER=%n" -T "GENRE=%m" -T "COMMENT=%e" %s -o %d


TOC of the extracted CD

Track | Start | Length | Start sector | End sector
––––––––––––––––––––––––––––-
1 | 0:00.00 | 6:32.10 | 0 | 29409
2 | 6:32.10 | 5:36.25 | 29410 | 54634
3 | 12:08.35 | 5:48.40 | 54635 | 80774
4 | 17:57.00 | 4:08.60 | 80775 | 99434
5 | 22:05.60 | 4:41.60 | 99435 | 120569
6 | 26:47.45 | 4:20.60 | 120570 | 140129
7 | 31:08.30 | 4:44.42 | 140130 | 161471
8 | 35:52.72 | 6:05.50 | 161472 | 188896
9 | 41:58.47 | 3:15.25 | 188897 | 203546
10 | 45:13.72 | 3:44.05 | 203547 | 220351
11 | 48:58.02 | 6:49.10 | 220352 | 251036
12 | 55:47.12 | 7:16.50 | 251037 | 283786
13 | 63:03.62 | 6:25.50 | 283787 | 312711
14 | 69:29.37 | 3:48.62 | 312712 | 329873


Range status and errors

Selected range

Filename C:\extracts\Tommy Flanagan, Ron Carter, Tony Williams - The Trio\Tommy Flanagan, Ron Carter, Tony Williams - The Trio.wav

Peak level 100.0 %
Range quality 100.0 %
Test CRC B8110F73
Copy CRC B8110F73
Copy OK

No errors occurred


AccurateRip summary

Track 1 not present in database
Track 2 not present in database
Track 3 not present in database
Track 4 not present in database
Track 5 not present in database
Track 6 not present in database
Track 7 not present in database
Track 8 not present in database
Track 9 not present in database
Track 10 not present in database
Track 11 not present in database
Track 12 not present in database
Track 13 not present in database
Track 14 not present in database

None of the tracks are present in the AccurateRip database

End of status report

[CUETools log; Date: 12.10.2023 15:29:25; Version: 2.1.4]
[CTDB TOCID: IQ7zYKFJkl2H94XRy5aAzDf5ZCw-] found.
Track | CTDB Status
1 | (19/20) Accurately ripped
2 | (19/20) Accurately ripped
3 | (18/20) Accurately ripped
4 | (19/20) Accurately ripped
5 | (19/20) Accurately ripped
6 | (19/20) Accurately ripped
7 | (19/20) Accurately ripped
8 | (19/20) Accurately ripped
9 | (19/20) Accurately ripped
10 | (18/20) Accurately ripped
11 | (17/20) Accurately ripped
12 | (19/20) Accurately ripped
13 | (19/20) Accurately ripped
14 | (18/20) Accurately ripped
[AccurateRip ID: 0025ca59-01902e63-c4112e0e] found.
Track [ CRC | V2 ] Status
01 [5155b0f0|bef8de3b] (02+19/21) Accurately ripped
02 [1471b4cd|65126c22] (02+19/21) Accurately ripped
03 [9e78d961|a35d3a56] (02+18/20) Accurately ripped
04 [bfe527af|ab0008f6] (02+19/21) Accurately ripped
05 [ef55a72a|06d57e63] (02+19/21) Accurately ripped
06 [ceff0382|efce400e] (02+19/21) Accurately ripped
07 [c8af0e72|0c576bd1] (02+19/21) Accurately ripped
08 [1684986a|996000ac] (02+19/21) Accurately ripped
09 [8dd7421d|4805e3d1] (02+19/21) Accurately ripped
10 [4bf21a4e|99baae9f] (02+19/21) Accurately ripped
11 [59169266|515e6f36] (02+19/21) Accurately ripped
12 [9a5f5b45|41296ee4] (02+19/21) Accurately ripped
13 [d9e7f762|0d22b2e6] (02+19/21) Accurately ripped
14 [9483e027|29d339ff] (00+17/17) Accurately ripped

Track Peak [ CRC32 ] [W/O NULL] [ LOG ]
– 100,0 [B8110F73] [B74578BB] CRC32
01 100,0 [20A5EFE5] [4B090118]
02 84,4 [79D7C2C7] [E8F8048C]
03 75,5 [AE1FD2AC] [2FFFA4F8]
04 89,7 [8FB654F3] [E02CB5F2]
05 84,3 [629A0D6E] [2A1CB610]
06 91,4 [535DC6C2] [D26D28FD]
07 100,0 [FC1AFA73] [31A72674]
08 100,0 [CE54B3B2] [1F26D334]
09 71,1 [BFB68930] [DCA7E5E3]
10 93,4 [5BD5A071] [21EDC1FC]
11 95,9 [3684EFBC] [FC89781C]
12 84,3 [B4CCBFD2] [BCB420E9]
13 96,1 [A4C54B72] [5121BA20]
14 100,0 [C4456C50] [221B2FAF]

Thanks to Oceandrop

See also: