Subcategories
Tags
Language
Tags

Tony DeSare - Want You (2005)

Posted By: v3122
Tony DeSare - Want You (2005)

Tony DeSare - Want You (2005)
EAC | Flac(Image) + Cue + Log & MP3 CBR 320Kbps
TELARC, CD-83620 | ~ 236 or 107 Mb | Artwork(jpg) -> 59 Mb
Vocal Jazz

Singing jazz pianists haven't always gotten a fair shake from critics, but Tony DeSare's CD debut for Telarc demonstrates a potential to win them over while also appealing to a wider audience. Backed by a swinging band that includes veteran guitarist Bucky Pizzarelli, DeSare's warm vocals are complemented by his piano chops in the brisk workout of "Just in Time." It is also refreshing to hear a performer mine overlooked gems like Cy Coleman's "Baby Dream Your Dream," "We've Got a World That Swings," and a campy striding instrumental arrangement of the oldie "Five Foot Two, Eyes of Blue," in which Pizzarelli and bassist Mike Lee give the leader a run for his money with their respective solos. But the best surprise is the quality of DeSare's originals (most of which were jointly written with Lee). Jazz vocalists are always looking for new material despite the dearth of compelling songs emerging from modern Broadway musicals and the world of pop. DeSare offers up warm, swinging ballads like the appealing "Want You" (which adds John Swana's delicious muted trumpet) and the heartfelt "How Will I Say I Love You" (which adds a string section), and while "(I'd Have It All) If I Had Drew" may be a one-shot novelty due to its subject matter (as it was written for the independent film My Date With Drew), it still swings nicely. The poppish "Marry Me" is one track that jazz fans can bypass, but on the whole, there are plenty of reasons for them to snap up this rewarding CD.

by Ken Dryden, allmusic
Tony DeSare - Want You (2005):

Tony DeSare - Want You (2005)

Tracklist:

01. Baby, Dream Your Dream [03:35.50]
02. Just In Time [02:36.55]
03. Want You [04:40.68]
04. Two For The Road [04:07.02]
05. I Wish You Love [03:07.40]
06. How I Will Say I Love You [03:11.10]
07. Another Chance For My Heart [04:40.13]
08. We've Got A World That Swings [03:11.51]
09. Something's Gotta Give [02:57.37]
10. (I'd Have It All) If I Had Drew [03:03.39]
11. Marry Me [02:49.29]
12. Movin' On [04:38.08]
13. Five Foot Two [02:42.26]

Exact Audio Copy V1.3 from 2. September 2016

Отчёт EAC об извлечении, выполненном 19. ноября 2019, 8:17

Tony DeSare / Want You

Дисковод: PLEXTOR DVDR PX-755A Adapter: 1 ID: 1

Режим чтения : Достоверность
Использование точного потока : Да
Отключение кэша аудио : Да
Использование указателей C2 : Нет

Коррекция смещения при чтении : 30
Способность читать области Lead-in и Lead-out : Нет
Заполнение пропущенных сэмплов тишиной : Да
Удаление блоков с тишиной в начале и конце : Нет
При вычислениях CRC использовались нулевые сэмплы : Да
Интерфейс : Встроенный Win32-интерфейс для Win NT/2000

Выходной формат : Пользовательский кодировщик
Выбранный битрейт : 128 kBit/s
Качество : Высокий
Добавление ID3-тега : Нет
Утилита сжатия : C:\Program Files (x86)\Exact Audio Copy\Flac\flac.exe
Дополнительные параметры : -V -8 -T "Date=%year%" -T "Genre=%genre%" %source%


TOC извлечённого CD

Трек | Старт | Длительность | Начальный сектор | Конечный сектор
––––––––––––––––––––––––––––––––––-
1 | 0:00.00 | 3:35.50 | 0 | 16174
2 | 3:35.50 | 2:36.55 | 16175 | 27929
3 | 6:12.30 | 4:40.68 | 27930 | 48997
4 | 10:53.23 | 4:07.02 | 48998 | 67524
5 | 15:00.25 | 3:07.40 | 67525 | 81589
6 | 18:07.65 | 3:11.10 | 81590 | 95924
7 | 21:19.00 | 4:40.13 | 95925 | 116937
8 | 25:59.13 | 3:11.51 | 116938 | 131313
9 | 29:10.64 | 2:57.37 | 131314 | 144625
10 | 32:08.26 | 3:03.39 | 144626 | 158389
11 | 35:11.65 | 2:49.29 | 158390 | 171093
12 | 38:01.19 | 4:38.08 | 171094 | 191951
13 | 42:39.27 | 2:42.26 | 191952 | 204127


Характеристики диапазона извлечения и сообщения об ошибках

Выбранный диапазон

Имя файла D:\РАЗДАЧА\Tony DeSare - Want You - 2005\Tony DeSare - Want You.wav

Пиковый уровень 100.0 %
Скорость извлечения 8.0 X
Качество диапазона 100.0 %
CRC теста F27DF1C9
CRC копии F27DF1C9
Копирование… OK

Ошибок не произошло


AccurateRip: сводка

Трек 1 : извлечено точно (доверие 10) [F4B0A8DA] (AR v2)
Трек 2 : извлечено точно (доверие 10) [5851EE3A] (AR v2)
Трек 3 : извлечено точно (доверие 10) [8A63A17F] (AR v2)
Трек 4 : извлечено точно (доверие 10) [92C46B54] (AR v2)
Трек 5 : извлечено точно (доверие 10) [E68FB38D] (AR v2)
Трек 6 : извлечено точно (доверие 10) [9890B7D0] (AR v2)
Трек 7 : извлечено точно (доверие 10) [B2F88D6D] (AR v2)
Трек 8 : извлечено точно (доверие 10) [E727C23A] (AR v2)
Трек 9 : извлечено точно (доверие 9) [70A9F357] (AR v2)
Трек 10 : извлечено точно (доверие 9) [E432B818] (AR v2)
Трек 11 : извлечено точно (доверие 10) [1C5DED96] (AR v2)
Трек 12 : извлечено точно (доверие 10) [F8CA41B0] (AR v2)
Трек 13 : извлечено точно (доверие 10) [6A6F9B6D] (AR v2)

Все треки извлечены точно

Конец отчёта

–– CUETools DB Plugin V2.1.6

[CTDB TOCID: JmPc0CpYJ1uSneHoh.C9qX2rxyw-] found
Submit result: JmPc0CpYJ1uSneHoh.C9qX2rxyw- has been confirmed
Track | CTDB Status
1 | (19/20) Accurately ripped
2 | (20/20) Accurately ripped
3 | (19/20) Accurately ripped
4 | (19/20) Accurately ripped
5 | (19/20) Accurately ripped
6 | (20/20) Accurately ripped
7 | (19/20) Accurately ripped
8 | (20/20) Accurately ripped
9 | (19/20) Accurately ripped
10 | (19/20) Accurately ripped
11 | (18/20) Accurately ripped
12 | (18/20) Accurately ripped
13 | (20/20) Accurately ripped


==== Контрольная сумма отчёта 5E4AEF13829FA19D66CFCB8A636E0EE20BCC5D5365E8357241CA772BED7C68C2 ====


[CUETools log; Date: 20.11.2019 16:20:48; Version: 2.1.4]
[AccurateRip ID: 001639c9-00dd9a45-a00aa10d] found.
Track [ CRC | V2 ] Status
01 [4f956e39|f4b0a8da] (08+10/20) Accurately ripped
02 [6fb0c9d9|5851ee3a] (08+10/20) Accurately ripped
03 [592c94b9|8a63a17f] (08+10/20) Accurately ripped
04 [04c56a6a|92c46b54] (08+10/20) Accurately ripped
05 [e495b9f3|e68fb38d] (08+10/20) Accurately ripped
06 [b32f9f3b|9890b7d0] (08+10/20) Accurately ripped
07 [27e4cdc5|b2f88d6d] (08+10/20) Accurately ripped
08 [e844ae2b|e727c23a] (08+10/20) Accurately ripped
09 [73ebc149|70a9f357] (08+09/19) Accurately ripped
10 [41d9fff5|e432b818] (08+09/19) Accurately ripped
11 [281ecbbb|1c5ded96] (08+10/20) Accurately ripped
12 [a0bf37a9|f8ca41b0] (08+10/20) Accurately ripped
13 [91b4b255|6a6f9b6d] (08+10/20) Accurately ripped
Offsetted by -664:
01 [4fb17bd0] (02/20) Accurately ripped
02 [1a1f8378] (02/20) Accurately ripped
03 [a276352b] (02/20) Accurately ripped
04 [c249a397] (02/20) Accurately ripped
05 [59f94fcd] (02/20) Accurately ripped
06 [5ef54105] (02/20) Accurately ripped
07 [2b72b117] (02/20) Accurately ripped
08 [d0cc363a] (02/20) Accurately ripped
09 [b616e7ea] (02/19) Accurately ripped
10 [877bb8d7] (02/19) Accurately ripped
11 [e31f6a21] (02/20) Accurately ripped
12 [61c644b5] (02/20) Accurately ripped
13 [cb91fcde] (02/20) Accurately ripped
Offsetted by 635:
01 [a3f38f6e] (00/20) No match (V2 was not tested)
02 [c016572f] (00/20) No match (V2 was not tested)
03 [d62b7bb3] (00/20) No match (V2 was not tested)
04 [96cbfd84] (00/20) No match (V2 was not tested)
05 [1236ad13] (00/20) No match (V2 was not tested)
06 [d3b28792] (00/20) No match (V2 was not tested)
07 [550274e6] (00/20) No match (V2 was not tested)
08 [ac7d07fd] (00/20) No match (V2 was not tested)
09 [b28a8e2b] (00/19) No match (V2 was not tested)
10 [5b4a62aa] (00/19) No match (V2 was not tested)
11 [c7ece7a4] (00/20) No match (V2 was not tested)
12 [134cac1a] (00/20) No match (V2 was not tested)
13 [3541e012] (00/20) No match (V2 was not tested)

Track Peak [ CRC32 ] [W/O NULL] [ LOG ]
– 100,0 [F27DF1C9] [D69ED65F] CRC32
01 98,3 [E85CFF07] [6CEA0099]
02 95,3 [5AB72098] [17DFEA6F]
03 100,0 [33172B85] [962D6FBD]
04 76,0 [9F1C19A1] [D76C0101]
05 97,8 [94109645] [4B2D655F]
06 99,8 [9870863F] [79DB2BC8]
07 99,9 [E7D5DEB9] [77A1FC3A]
08 100,0 [AF5630BE] [0CEDE4E0]
09 99,8 [777C9E56] [2F27C692]
10 99,7 [1C169611] [45054413]
11 88,5 [4941E112] [0EF814D5]
12 100,0 [C7621EE0] [8A5F9523]
13 99,7 [569ECA86] [C942278E]


Tony DeSare - Want You (2005)

All thanks go to pishin

Download Tony DeSare - Want You (2005):