Subcategories

Tord Gustavsen Ensemble - Restored, Returned (2009) {ECM 2107}

Posted By: tiburon
Tord Gustavsen Ensemble - Restored, Returned (2009) {ECM 2107}

Tord Gustavsen Ensemble - Restored, Returned (2009) {ECM 2107}
EAC 0.99pb5 | FLAC tracks level 8 | Cue+Log+M3U | Full Scans 300dpi | 235MB + 5% Recovery
MP3 CBR 320 Kbps | 117MB + 5% Recovery
Genre: Jazz, Avant-Garde, Minimalism
Tord Gustavsen Ensemble - Restored, Returned (2009) {ECM 2107}

Norwegian pianist Tord Gustavsen has built a huge and enthusiastic worldwide following through his ECM discs and touring, and 'Restored, Returned' will broaden that popularity still further. After a trilogy of trio recordings - 'Changing Places', 'The Ground', and 'Being There' - which explored a clearly-demarcated melodic terrain, here is a strikingly different album from Tord Gustavsen at the head of a reconfigured band. Into the group come two Norwegian improvisers familiar to ECM listeners, bassist Mats Eilertsen and saxophonist Tore Brunborg. Inside the ensemble new aspects of interactive possibility open up as duo, trio and quartet instrumental combinations explore the space inside Tord's compositions - his gospel-inflected hymns and lullabies and ballads and his pulsing, almost minimalistic grooves.
Track List
01. The Child Within 3:48
02. Way In 4:29
03. Lay Your Sleeping Head, My Love 2:50
04. Spiral Song 4:01
05. Restored, Returned 5:55
06. Left Over Lullaby No.2 4:44
07. The Swirl / Wrapped In A Yielding Air 5:23
08. Left Over Lullaby No.1 / O Stand, Stand At The Window 7:18
09. Your Crooked Heart (03:45)
10. The Gaze 5:39
11. Left Over Lullaby No.3 3:04

All compositions by Tord Gustavsen

musicians
Tord Gustavsen - piano
Kristin Asbjørnsen - vocals
Tore Brunborg - tenor and soprano saxophones
Mats Eilertsen - double-bass
Jarle Vespestad - drums

Produced by Manfred Eicher


Exact Audio Copy V0.99 prebeta 5 from 4. May 2009

EAC extraction logfile from 7. June 2010, 9:15

Tord Gustavsen Ensemble / Restored, Returned

Used drive : PLEXTOR DVDR PX-860A Adapter: 0 ID: 0

Read mode : Secure
Utilize accurate stream : Yes
Defeat audio cache : Yes
Make use of C2 pointers : No

Read offset correction : 96
Overread into Lead-In and Lead-Out : No
Fill up missing offset samples with silence : Yes
Delete leading and trailing silent blocks : No
Null samples used in CRC calculations : Yes
Used interface : Native Win32 interface for Win NT & 2000
Gap handling : Appended to previous track

Used output format : User Defined Encoder
Selected bitrate : 768 kBit/s
Quality : High
Add ID3 tag : No
Command line compressor : C:\Program Files\FLAC\flac.exe
Additional command line options : -8 -V -T "ARTIST=%a" -T "TITLE=%t" -T "ALBUM=%g" -T "DATE=%y" -T "TRACKNUMBER=%n" -T "TOTALTRACKS=%x" -T "GENRE=%m" -T "ALBUM ARTIST=%v" -T "ALBUMARTIST=%v" -T "COMMENT=EAC V0.99 prebeta 5, Secure Mode, Test & Copy, Accurat


TOC of the extracted CD

Track | Start | Length | Start sector | End sector
––––––––––––––––––––––––––––-
1 | 0:00.00 | 3:51.66 | 0 | 17390
2 | 3:51.66 | 4:29.30 | 17391 | 37595
3 | 8:21.21 | 2:55.13 | 37596 | 50733
4 | 11:16.34 | 4:05.74 | 50734 | 69182
5 | 15:22.33 | 5:58.36 | 69183 | 96068
6 | 21:20.69 | 4:47.72 | 96069 | 117665
7 | 26:08.66 | 5:27.30 | 117666 | 142220
8 | 31:36.21 | 7:20.15 | 142221 | 175235
9 | 38:56.36 | 3:45.25 | 175236 | 192135
10 | 42:41.61 | 5:43.69 | 192136 | 217929
11 | 48:25.55 | 3:04.54 | 217930 | 231783


Track 1

Filename M:\DL\Tord Gustavsen Ensemble - Restored, Returned (2009) [FLAC]\01 - The Child Within.wav

Pre-gap length 0:00:02.00

Peak level 60.2 %
Track quality 100.0 %
Test CRC 8A17F0D3
Copy CRC 8A17F0D3
Accurately ripped (confidence 31) [86D91FE4]
Copy OK

Track 2

Filename M:\DL\Tord Gustavsen Ensemble - Restored, Returned (2009) [FLAC]\02 - Way In.wav

Pre-gap length 0:00:03.60

Peak level 98.5 %
Track quality 100.0 %
Test CRC 98B11C81
Copy CRC 98B11C81
Accurately ripped (confidence 31) [406D3EF2]
Copy OK

Track 3

Filename M:\DL\Tord Gustavsen Ensemble - Restored, Returned (2009) [FLAC]\03 - Lay Your Sleeping Head, My Love.wav

Peak level 98.4 %
Track quality 100.0 %
Test CRC 437B865A
Copy CRC 437B865A
Accurately ripped (confidence 31) [A9CBA125]
Copy OK

Track 4

Filename M:\DL\Tord Gustavsen Ensemble - Restored, Returned (2009) [FLAC]\04 - Spiral Song.wav

Pre-gap length 0:00:04.40

Peak level 98.3 %
Track quality 100.0 %
Test CRC AA7545C3
Copy CRC AA7545C3
Accurately ripped (confidence 31) [BBE83C97]
Copy OK

Track 5

Filename M:\DL\Tord Gustavsen Ensemble - Restored, Returned (2009) [FLAC]\05 - Restored, Returned.wav

Pre-gap length 0:00:04.78

Peak level 98.5 %
Track quality 100.0 %
Test CRC 9156C4CB
Copy CRC 9156C4CB
Accurately ripped (confidence 29) [306DDCF5]
Copy OK

Track 6

Filename M:\DL\Tord Gustavsen Ensemble - Restored, Returned (2009) [FLAC]\06 - Left Over Lullaby No.2.wav

Pre-gap length 0:00:02.93

Peak level 76.8 %
Track quality 100.0 %
Test CRC 29D5BAA1
Copy CRC 29D5BAA1
Accurately ripped (confidence 31) [A3DE0B61]
Copy OK

Track 7

Filename M:\DL\Tord Gustavsen Ensemble - Restored, Returned (2009) [FLAC]\07 - The Swirl - Wrapped In A Yielding Air.wav

Pre-gap length 0:00:03.80

Peak level 82.0 %
Track quality 99.9 %
Test CRC 330ADAD8
Copy CRC 330ADAD8
Accurately ripped (confidence 31) [42D77770]
Copy OK

Track 8

Filename M:\DL\Tord Gustavsen Ensemble - Restored, Returned (2009) [FLAC]\08 - Left Over Lullaby No.1 - O Stand, Stand at the Window.wav

Pre-gap length 0:00:03.80

Peak level 55.3 %
Track quality 100.0 %
Test CRC AFFD7D9B
Copy CRC AFFD7D9B
Accurately ripped (confidence 31) [D9E83A66]
Copy OK

Track 9

Filename M:\DL\Tord Gustavsen Ensemble - Restored, Returned (2009) [FLAC]\09 - Your Crooked Heart.wav

Pre-gap length 0:00:01.80

Peak level 79.4 %
Track quality 100.0 %
Test CRC 2F57F4E5
Copy CRC 2F57F4E5
Accurately ripped (confidence 31) [39F9B7FE]
Copy OK

Track 10

Filename M:\DL\Tord Gustavsen Ensemble - Restored, Returned (2009) [FLAC]\10 - The Gaze.wav

Pre-gap length 0:00:04.01

Peak level 79.3 %
Track quality 100.0 %
Test CRC ACEACB33
Copy CRC ACEACB33
Accurately ripped (confidence 31) [CC6C3BE8]
Copy OK

Track 11

Filename M:\DL\Tord Gustavsen Ensemble - Restored, Returned (2009) [FLAC]\11 - Left Over Lullaby No.3.wav

Pre-gap length 0:00:04.80

Peak level 40.7 %
Track quality 100.0 %
Test CRC 213D72EC
Copy CRC 213D72EC
Accurately ripped (confidence 29) [174841F3]
Copy OK


All tracks accurately ripped

No errors occurred

End of status report


––––––––––––––––––––––––––––––––––––––––
Analyzed: Tord Gustavsen Ensemble / Restored, Returned
––––––––––––––––––––––––––––––––––––––––

DR Peak RMS Duration Track
––––––––––––––––––––––––––––––––––––––––
DR12 -4.41 dB -23.38 dB 3:52 01-The Child Within
DR14 -0.12 dB -21.09 dB 4:29 02-Way In
DR14 -0.14 dB -19.88 dB 2:55 03-Lay Your Sleeping Head, My Love
DR14 -0.15 dB -19.09 dB 4:06 04-Spiral Song
DR14 -0.12 dB -19.03 dB 5:58 05-Restored, Returned
DR15 -2.29 dB -24.00 dB 4:48 06-Left Over Lullaby No.2
DR13 -1.71 dB -18.10 dB 5:27 07-The Swirl - Wrapped In A Yielding Air
DR14 -5.14 dB -25.09 dB 7:20 08-Left Over Lullaby No.1 - O Stand, Stand at the Window
DR13 -2.00 dB -21.15 dB 3:45 09-Your Crooked Heart
DR14 -2.01 dB -20.06 dB 5:44 10-The Gaze
DR14 -7.79 dB -29.52 dB 3:05 11-Left Over Lullaby No.3
––––––––––––––––––––––––––––––––––––––––

Number of tracks: 11
Official DR value: DR14

Samplerate: 44100 Hz
Channels: 2
Bits per sample: 16
Bitrate: 415 kbps
Codec: FLAC
================================================================================

Tord Gustavsen Ensemble - Restored, Returned (2009) {ECM 2107}
Tord Gustavsen Ensemble - Restored, Returned (2009) {ECM 2107}
Tord Gustavsen Ensemble - Restored, Returned (2009) {ECM 2107}


Thanks to the original ripper