Tags
Language
Tags
March 2024
Su Mo Tu We Th Fr Sa
25 26 27 28 29 1 2
3 4 5 6 7 8 9
10 11 12 13 14 15 16
17 18 19 20 21 22 23
24 25 26 27 28 29 30
31 1 2 3 4 5 6

Torsten Janicke - Henze: Violin Concertos Nos. 1-3 (2005)

Posted By: tirexiss
Torsten Janicke - Henze: Violin Concertos Nos. 1-3 (2005)

Torsten Janicke - Henze: Violin Concertos Nos. 1-3 (2005)
EAC | FLAC (image+.cue, log) | Covers Included | 01:25:10 | 352 MB
Genre: Classical | Label: MDG | Catalog: 6011242

Composed over wide time intervals, Hans Werner Henze's three Violin Concertos represent key stages of his development, and mark his early efforts in twelve-tone composition, his mature phase of experimental political theater, and his late, emotionally charged programmatic style. The Concerto No. 1 (1948) is similar in some respects to Alban Berg's Violin Concerto, particularly in Henze's blending of the row with tonal features; yet in its comparative leanness and transparency, this piece is less like Berg than the complex Concerto No. 3 (1997), which, in its intense evocation of Thomas Mann's Doktor Faustus, shares much more of the passionate and disturbing colors and textures of Wozzeck or Lulu. But Henze's most avant-garde work in this two-disc set is the Concerto No. 2 for solo violinist, recorded tape, bass baritone, and 33 instrumentalists (1971), which employs Hans Magnus Enzensberger's text "Hommage à Gödel" and stage antics to make its point. Listeners seeking an easy introduction to Henze's music should try Disc 1, since these works are more conventional, and violinist Torsten Janicke and the Magdeburg Philharmonic Orchestra, conducted by Christian Ehwald, give richly colored and expressive performances. Disc 2, on the other hand, is really for adventurous listeners, and this long, raucous work's live performance is a lot less enjoyable, due to the unfocused and occasionally indistinct reproduction.

Torsten Janicke - Henze: Violin Concertos Nos. 1-3 (2005)

Track List:

CD 1:
Violin Concerto No. 1
1. Allegro molto
2. Vivacissimo
3. Andante con moto
4. Allegro molto vivace
Violin Concerto No. 3
5. Esmeralda
6. Das Kind Echo
7. Rudi S.

Exact Audio Copy V0.99 prebeta 4 from 23. January 2008

EAC extraction logfile from 8. June 2011, 15:24

Hans Werner Henze / Violinkonzerte (Torsten Janicke, Magdeburg PO, Christian Ehwald) - CD1

Used drive : TSSTcorpCDDVDW SE-S204N Adapter: 2 ID: 0

Read mode : Secure
Utilize accurate stream : Yes
Defeat audio cache : Yes
Make use of C2 pointers : No

Read offset correction : 6
Overread into Lead-In and Lead-Out : No
Fill up missing offset samples with silence : Yes
Delete leading and trailing silent blocks : No
Null samples used in CRC calculations : Yes
Used interface : Native Win32 interface for Win NT & 2000

Used output format : Internal WAV Routines
Sample format : 44.100 Hz; 16 Bit; Stereo


TOC of the extracted CD

Track | Start | Length | Start sector | End sector
––––––––––––––––––––––––––––-
1 | 0:00.00 | 9:33.33 | 0 | 43007
2 | 9:33.33 | 2:17.73 | 43008 | 53355
3 | 11:51.31 | 6:50.65 | 53356 | 84170
4 | 18:42.21 | 7:27.71 | 84171 | 117766
5 | 26:10.17 | 7:09.48 | 117767 | 149989
6 | 33:19.65 | 8:27.19 | 149990 | 188033
7 | 41:47.09 | 6:48.12 | 188034 | 218645


Range status and errors

Selected range

Filename C:\avaxhome\Hans Werner Henze - Violinkonzerte (Torsten Janicke, Magdeburg PO, Christian Ehwald) - CD1.wav

Peak level 95.1 %
Range quality 100.0 %
Copy CRC E10D2527
Copy OK

No errors occurred


AccurateRip summary

Track 1 accurately ripped (confidence 2) [780C3A4D]
Track 2 accurately ripped (confidence 2) [73D7A947]
Track 3 accurately ripped (confidence 2) [05F7D5D6]
Track 4 accurately ripped (confidence 2) [D0810DB6]
Track 5 accurately ripped (confidence 2) [C0D22976]
Track 6 accurately ripped (confidence 2) [ABA074B7]
Track 7 accurately ripped (confidence 2) [F3AF920C]

All tracks accurately ripped

End of status report

CD 2:
Violin Concerto No. 2, for bass-baritone, violin, 33 instruments & tape
1. Presentazione
2. Teorema
3. Fantasia 1
4. Divertimento
5. Fantasia 2
6. Conclusione

Exact Audio Copy V0.99 prebeta 4 from 23. January 2008

EAC extraction logfile from 8. June 2011, 16:03

Henze, Hans / Violin Concertos (disc 2)

Used drive : TSSTcorpCDDVDW SE-S204N Adapter: 2 ID: 0

Read mode : Secure
Utilize accurate stream : Yes
Defeat audio cache : Yes
Make use of C2 pointers : No

Read offset correction : 6
Overread into Lead-In and Lead-Out : No
Fill up missing offset samples with silence : Yes
Delete leading and trailing silent blocks : No
Null samples used in CRC calculations : Yes
Used interface : Native Win32 interface for Win NT & 2000

Used output format : Internal WAV Routines
Sample format : 44.100 Hz; 16 Bit; Stereo


TOC of the extracted CD

Track | Start | Length | Start sector | End sector
––––––––––––––––––––––––––––-
1 | 0:00.00 | 3:00.43 | 0 | 13542
2 | 3:00.43 | 6:30.65 | 13543 | 42857
3 | 9:31.33 | 11:26.31 | 42858 | 94338
4 | 20:57.64 | 2:43.46 | 94339 | 106609
5 | 23:41.35 | 3:58.00 | 106610 | 124459
6 | 27:39.35 | 9:02.42 | 124460 | 165151


Range status and errors

Selected range

Filename C:\avaxhome\Henze, Hans - Violin Concertos (disc 2).wav

Peak level 93.1 %
Range quality 100.0 %
Copy CRC A9CCEDF4
Copy OK

No errors occurred


AccurateRip summary

Track 1 accurately ripped (confidence 2) [C77419A7]
Track 2 accurately ripped (confidence 2) [4A3EF3F4]
Track 3 accurately ripped (confidence 2) [4F2516FF]
Track 4 accurately ripped (confidence 2) [5436E9CA]
Track 5 accurately ripped (confidence 2) [BBA4CFA1]
Track 6 accurately ripped (confidence 2) [BF5AFAE1]

All tracks accurately ripped

End of status report

Performers:
Torsten Janicke (violin)
Ulf Dirk Mädler (baritone - concerto no.2)
Magdeburg Philharmonic Orchestra
Christian Ehwald, conductor

Thanks to the Original ripper (unknown)!

Download: