Tags
Language
Tags

Toto - With A Little Help From My Friends (2021) [BDRip 1080p]

Posted By: juanchito
Toto - With A Little Help From My Friends (2021) [BDRip 1080p]

Toto - With A Little Help From My Friends (2021)
BDRip 1080p | MKV | 9583 kbps, 1920x1080 at 29.970 fps, AVC (High@L4.1) | 5.74 GB
Audio: 1405 kbps, 48 khz, 24 bits, 2 channels, FLAC | Length: 01:14:00
Genre: Rock | Label: Mascot Label Group


The performance captures one special night on November 21, 2020 when Steve Lukather, Joseph Williams and David Paich appeared with the new line-up of TOTO for a global event originating from Los Angeles, CA. Joining Lukather, Williams and Paich for this next chapter in their indelible history are new band members bassist John Pierce (Huey Lewis and The News), drummer Robert “Sput” Searight (Ghost-Note / Snarky Puppy), and keyboardist / background vocalist Steve Maggiora (Robert Jon & The Wreck). Keyboardist Dominique “Xavier” Taplin (Prince, Ghost-Note) and multi-instrumentalist / vocalist Warren Ham (Ringo Starr) segued over continuing their tenure in the ensemble. This marks the fifteenth incarnation of the TOTO line-up in consideration of band members or sidemen who joined or exited.

Toto - With A Little Help From My Friends (2021) [BDRip 1080p]

Toto - With A Little Help From My Friends (2021) [BDRip 1080p]

Toto - With A Little Help From My Friends (2021) [BDRip 1080p]

Toto - With A Little Help From My Friends (2021) [BDRip 1080p]



Tracklist
01. Till The End
02. Hold The Line
03. Pamela
04. Kingdom Of Desire
05. White Sister
06. You Are The Flower
07. I Won't Hold You Back
08. Stop Loving You
09. Band Introductions
10. Home Of The Brave
11. Rosanna
12. With A Little Help From My Friends

General
Unique ID : 194673513814696739834732268713515513554 (0x9274C145496325018C91EB8888E176D2)
Complete name : A:\Roberto Cumbreta\Toto.With.A.Little.Help.From.My.Friends.2020.1080p.MBluRay.x264-TREBLE\toto.with.a.little.help.from.my.friends.2020.1080p.mbluray.x264-treble.mkv
Format : Matroska
Format version : Version 4
File size : 5.74 GiB
Duration : 1 h 14 min
Overall bit rate mode : Variable
Overall bit rate : 11.0 Mb/s
Writing application : mkvmerge v58.0.0 ('Supper's Ready') 64-bit
Writing library : libebml v1.4.2 + libmatroska v1.6.4

Video
ID : 2
Format : AVC
Format/Info : Advanced Video Codec
Format profile : High@L4.1
Format settings : CABAC / 4 Ref Frames
Format settings, CABAC : Yes
Format settings, Reference frames : 4 frames
Codec ID : V_MPEG4/ISO/AVC
Duration : 1 h 14 min
Bit rate : 9 583 kb/s
Width : 1 920 pixels
Height : 1 080 pixels
Display aspect ratio : 16:9
Frame rate mode : Constant
Frame rate : 29.970 (30000/1001) FPS
Color space : YUV
Chroma subsampling : 4:2:0
Bit depth : 8 bits
Scan type : Progressive
Bits/(Pixel*Frame) : 0.154
Stream size : 5.01 GiB (87%)
Writing library : x264 core 164 r3065 ae03d92
Encoding settings : cabac=1 / ref=4 / deblock=1:-3:-3 / analyse=0x3:0x133 / me=umh / subme=9 / psy=1 / psy_rd=1.00:0.00 / mixed_ref=1 / me_range=16 / chroma_me=1 / trellis=2 / 8x8dct=1 / cqm=0 / deadzone=21,11 / fast_pskip=1 / chroma_qp_offset=-2 / threads=24 / lookahead_threads=2 / sliced_threads=0 / nr=0 / decimate=1 / interlaced=0 / bluray_compat=0 / constrained_intra=0 / bframes=3 / b_pyramid=2 / b_adapt=2 / b_bias=0 / direct=3 / weightb=1 / open_gop=0 / weightp=2 / keyint=250 / keyint_min=25 / scenecut=40 / intra_refresh=0 / rc_lookahead=60 / rc=crf / mbtree=1 / crf=18.5 / qcomp=0.60 / qpmin=0 / qpmax=69 / qpstep=4 / ip_ratio=1.40 / aq=3:0.80
Language : English
Default : Yes
Forced : No
Color range : Limited
Matrix coefficients : BT.709

Audio
ID : 1
Format : FLAC
Format/Info : Free Lossless Audio Codec
Codec ID : A_FLAC
Duration : 1 h 14 min
Bit rate mode : Variable
Bit rate : 1 405 kb/s
Channel(s) : 2 channels
Channel layout : L R
Sampling rate : 48.0 kHz
Frame rate : 11.719 FPS (4096 SPF)
Bit depth : 24 bits
Compression mode : Lossless
Stream size : 751 MiB (13%)
Title : 2.0 FLAC English
Writing library : libFLAC 1.3.3 (UTC 2019-08-04)
Language : English
Default : Yes
Forced : No

Menu
00:00:00.000 : Chapter 01
00:00:12.012 : Chapter 02
00:05:20.453 : Chapter 03
00:09:37.844 : Chapter 04
00:15:48.214 : Chapter 05
00:23:54.700 : Chapter 06
00:33:22.000 : Chapter 07
00:38:34.812 : Chapter 08
00:44:07.545 : Chapter 09
00:50:06.270 : Chapter 10
00:53:33.343 : Chapter 11
01:01:29.619 : Chapter 12
01:08:31.841 : Chapter 13