Subcategories

Touch Of Class - Touch Of Class (1979) [2016]

Posted By: JET 1
Touch Of Class - Touch Of Class (1979) [2016]

Touch Of Class - Touch Of Class (1979) [2016]
EAC Rip | FLAC (Tracks) +CUE, LOG | 501 MB | Scans
Genre: Soul, Funk, Disco | Label: Octave-Lab {Japan} | Catalog Number: OTLCD5313

Touch of Class was an American soul and R&B musical group from Philadelphia featuring four members: the brothers Gerald Jackson and Pete Jackson, as well as Herbert Brevard and Michael Hailstock. The band was active from the mid-1970s until mid-1980s recording for Midland International Records and affiliated RCA label and had a hit with their debut "I'm in Heaven" reaching #65 on Billboard Hot 100. It was also the title of their debut studio album. By 1979, Michael Hailstock had left to concentrate on songwriting and the band turned into a trio. Their second album, the self-titled Touch of Class included their version of "Turn the Beat Around", a song written by Gerald and Pete Jackson and recorded by Vicki Sue Robinson in 1976 that gained big recognition and a big hit for her. the song is considered a dance/disco classic. It was also re-recorded by Laura Branigan in 1990 and by Gloria Estefan in 1994.

Exact Audio Copy V1.0 beta 3 from 29. August 2011

EAC extraction logfile from 20. June 2016, 21:02

Touch Of Class / Touch Of Class

Used drive : GENERIC CDRCB05 Adapter: 4 ID: 0

Read mode : Secure
Utilize accurate stream : Yes
Defeat audio cache : Yes
Make use of C2 pointers : No

Read offset correction : 102
Overread into Lead-In and Lead-Out : No
Fill up missing offset samples with silence : Yes
Delete leading and trailing silent blocks : No
Null samples used in CRC calculations : Yes
Used interface : Native Win32 interface for Win NT & 2000
Gap handling : Appended to previous track

Used output format : User Defined Encoder
Selected bitrate : 1024 kBit/s
Quality : High
Add ID3 tag : No
Command line compressor : C:\Program Files\FLAC\flac.exe
Additional command line options : -8 -V -T "ARTIST=%artist%" -T "TITLE=%title%" -T "ALBUM=%albumtitle%" -T "DATE=%year%" -T "TRACKNUMBER=%tracknr%" -T "GENRE=%genre%" -T "PERFORMER=%albuminterpret%" -T "COMPOSER=%composer%" %haslyrics%–tag-from-file=LYRICS="%lyricsfile%"%haslyrics% -T "ALBUMARTIST=%albumartist%" -T "DISCNUMBER=%cdnumber%" -T "TOTALDISCS=%totalcds%" -T "TOTALTRACKS=%numtracks%" -T "COMMENT=%comment%" %source% -o %dest%


TOC of the extracted CD

Track | Start | Length | Start sector | End sector
––––––––––––––––––––––––––––-
1 | 0:00.00 | 4:25.11 | 0 | 19885
2 | 4:25.11 | 4:54.70 | 19886 | 42005
3 | 9:20.06 | 4:48.66 | 42006 | 63671
4 | 14:08.72 | 5:53.26 | 63672 | 90172
5 | 20:02.23 | 3:17.47 | 90173 | 104994
6 | 23:19.70 | 4:27.66 | 104995 | 125085
7 | 27:47.61 | 4:38.50 | 125086 | 145985
8 | 32:26.36 | 4:43.61 | 145986 | 167271
9 | 37:10.22 | 3:29.22 | 167272 | 182968
10 | 40:39.44 | 3:59.47 | 182969 | 200940


Track 1

Filename F:\………POSTS\Touch Of Class ‎- Touch Of Class (1979) [2016 Japan]\01 - I Need Action.wav

Pre-gap length 0:00:02.00

Peak level 97.8 %
Extraction speed 2.3 X
Track quality 100.0 %
Test CRC 41590F31
Copy CRC 41590F31
Accurately ripped (confidence 1) [0FF5A239] (AR v2)
Copy OK

Track 2

Filename F:\………POSTS\Touch Of Class ‎- Touch Of Class (1979) [2016 Japan]\02 - You Took The Sunshine.wav

Peak level 97.8 %
Extraction speed 2.7 X
Track quality 100.0 %
Test CRC 99619DFE
Copy CRC 99619DFE
Accurately ripped (confidence 1) [E11C5DA3] (AR v2)
Copy OK

Track 3

Filename F:\………POSTS\Touch Of Class ‎- Touch Of Class (1979) [2016 Japan]\03 - I Found My Rainbow.wav

Peak level 97.8 %
Extraction speed 3.0 X
Track quality 100.0 %
Test CRC 6AD55521
Copy CRC 6AD55521
Accurately ripped (confidence 1) [47556E7B] (AR v2)
Copy OK

Track 4

Filename F:\………POSTS\Touch Of Class ‎- Touch Of Class (1979) [2016 Japan]\04 - Let Yourself Go.wav

Peak level 97.8 %
Extraction speed 3.3 X
Track quality 100.0 %
Test CRC F18253FF
Copy CRC F18253FF
Accurately ripped (confidence 1) [5D7E68A2] (AR v2)
Copy OK

Track 5

Filename F:\………POSTS\Touch Of Class ‎- Touch Of Class (1979) [2016 Japan]\05 - Turn The Beat Around.wav

Peak level 97.8 %
Extraction speed 3.3 X
Track quality 100.0 %
Test CRC 3FDEABD8
Copy CRC 3FDEABD8
Accurately ripped (confidence 1) [FD31173B] (AR v2)
Copy OK

Track 6

Filename F:\………POSTS\Touch Of Class ‎- Touch Of Class (1979) [2016 Japan]\06 - El Remo.wav

Peak level 97.8 %
Extraction speed 3.1 X
Track quality 99.9 %
Test CRC C60A95CD
Copy CRC C60A95CD
Accurately ripped (confidence 1) [771EAB37] (AR v2)
Copy OK

Track 7

Filename F:\………POSTS\Touch Of Class ‎- Touch Of Class (1979) [2016 Japan]\07 - You've Got My Soul.wav

Peak level 97.8 %
Extraction speed 3.8 X
Track quality 100.0 %
Test CRC B0655E81
Copy CRC B0655E81
Accurately ripped (confidence 1) [A92E1E8D] (AR v2)
Copy OK

Track 8

Filename F:\………POSTS\Touch Of Class ‎- Touch Of Class (1979) [2016 Japan]\08 - Come Back Home.wav

Peak level 97.8 %
Extraction speed 4.0 X
Track quality 100.0 %
Test CRC E075B21D
Copy CRC E075B21D
Accurately ripped (confidence 1) [2376A7B8] (AR v2)
Copy OK

Track 9

Filename F:\………POSTS\Touch Of Class ‎- Touch Of Class (1979) [2016 Japan]\09 - I Need Action (Single Version).wav

Peak level 97.8 %
Extraction speed 4.0 X
Track quality 100.0 %
Test CRC 5186DAAB
Copy CRC 5186DAAB
Accurately ripped (confidence 1) [002001F2] (AR v2)
Copy OK

Track 10

Filename F:\………POSTS\Touch Of Class ‎- Touch Of Class (1979) [2016 Japan]\10 - I Found My Rainbow (Single Version).wav

Peak level 97.8 %
Extraction speed 4.3 X
Track quality 100.0 %
Test CRC 8AFB5E56
Copy CRC 8AFB5E56
Accurately ripped (confidence 1) [5FE1C35E] (AR v2)
Copy OK


All tracks accurately ripped

No errors occurred

End of status report

==== Log checksum AEC6CAB509AF3A5BBF017158B6C85AB942635E00247ABC5D4DC1AAB215FA1783 ====


Tracklist ::
01. Need Action
02. Took The Sunshine
03. Found My Rainbow
04. Let Yourself Go
05. Turn The Beat Around
06. El Remo
07. You've Got My Soul
08. Come Back Home
09. I Need Action (Original Single Version)
10. I Found My Rainbow (Origiinal Single Version)