Tags
Language
Tags

Touch - The Complete Works - Definitive Edition [2CD] (2008) [Japan]

Posted By: BlondStyle
Touch - The Complete Works - Definitive Edition [2CD] (2008) [Japan]

Touch - The Complete Works - Definitive Edition [2CD] (2008) [Japan]
Rock, Hard Rock, Arena Rock | EAC Rip | FLAC, Img+CUE+LOG+Scans (PNG) | 02:01:29 | 1,04 Gb
Label: Shaniatrek (Japan) | Cat.# DDCZ-1516~7 | Released: 2008-04-23 (1979/1981)

Aptly titled Japanese release containing both entire albums and more by this early '80s hard rock act that Deep Purple's Roger Glover produced. In 2008, Overdrive Productions, Ltd. released Touch I/Touch II, which contained two complete albums - Touch I (1980, originally released on Atco) and Touch II.
~Review by Rob Theakston

Touch - The Complete Works - Definitive Edition [2CD] (2008) [Japan]

Touch - The Complete Works - Definitive Edition [2CD] (2008) [Japan]

Touch - The Complete Works - Definitive Edition [2CD] (2008) [Japan]




Release of this 2CD+DVD-Set: 2008, April, 23 [CDs Overdrive Productions, Ltd. (Japan), Cat.# DDCZ-1516~7 / EAN: 4543034015108]
℗ 1979, 1981 © 2008 Overdrive Productions, Ltd.
Made in Japan

Note: Two remastered CDs come in a gatefold papersleeve album replica, the DVD comes in a separate papersleeve with 13 songs of live footage. DVD was not included to this post.

Touch - The Complete Works - Definitive Edition [2CD] (2008) [Japan]

Credits:

Bass, Backing Vocals, Lead Vocals – Doug Howard
Design – Lynn Dreese Breslin
Drums, Percussion – Glenn Kithcart
Guitar, Lead Vocals, Backing Vocals – Craig Brooks
Keyboards, Backing Vocals, Lead Vocals – Mark Mangold


Tracklist:

Disc 1 - "Works I" (1979)

01. Don't You Know What Love Is (03:59)
02. When The Spirit Moves You (03:58)
03. Love, Don't Fail Me (04:27)
04. Black Star (03:37)
05. There's A Light (03:58)
06. So High (05:24)
07. Last Chance For Love (03:57)
08. Yes (You Need To Rock'n Roll) (04:22)
09. Listen (Can You Feel It) [04:54)
Bonus Tracks:
10. My Life Depends On You (05:08)
11. Take It Back (04:00)
12. Don't You Know What Love Is (Live) (03:58)

Disc 2 - "Works II" (1981)

01. Never In Love (04:16)
02. Just One Step (04:19)
03. Far Enough (04:43)
04. Frozen On A Wire (04:48)
05. Too Much In Love (04:09)
06. Anything For Rock'n Roll (03:37)
07. You're Not A Child Anymore (04:22)
08. Feels Like Love (04:12)
09. Beg Me (04:33)
10. Is It Really Me? (04:42)
11. Between The Lines (03:57)
12. Let Me Love You (05:08)
Bonus Tracks:
13. Tonight (04:17)
14. Look (04:32)
15. Just Take A Beat Of My Heart (04:30)
16. I Found Someone (03:57)

Touch - The Complete Works - Definitive Edition [2CD] (2008) [Japan]

Exact Audio Copy V0.99 prebeta 5 from 4. May 2009

EAC extraction logfile from 4. July 2012, 22:18

Touch / The Complete Works I

Used drive : ASUS DRW-24B3ST Adapter: 3 ID: 0

Read mode : Secure
Utilize accurate stream : Yes
Defeat audio cache : Yes
Make use of C2 pointers : No

Read offset correction : 6
Overread into Lead-In and Lead-Out : No
Fill up missing offset samples with silence : Yes
Delete leading and trailing silent blocks : No
Null samples used in CRC calculations : Yes
Used interface : Native Win32 interface for Win NT & 2000

Used output format : User Defined Encoder
Selected bitrate : 1024 kBit/s
Quality : High
Add ID3 tag : No
Command line compressor : C:\Program Files (x86)\EAC\WV\wavpack.exe
Additional command line options : -h -hh -m %s %d


TOC of the extracted CD

Track | Start | Length | Start sector | End sector
––––––––––––––––––––––––––––-
1 | 0:00.00 | 3:58.67 | 0 | 17916
2 | 3:58.67 | 3:57.39 | 17917 | 35730
3 | 7:56.31 | 4:26.40 | 35731 | 55720
4 | 12:22.71 | 3:36.50 | 55721 | 71970
5 | 15:59.46 | 3:57.13 | 71971 | 89758
6 | 19:56.59 | 5:23.36 | 89759 | 114019
7 | 25:20.20 | 3:56.35 | 114020 | 131754
8 | 29:16.55 | 4:21.17 | 131755 | 151346
9 | 33:37.72 | 4:53.39 | 151347 | 173360
10 | 38:31.36 | 5:07.54 | 173361 | 196439
11 | 43:39.15 | 3:59.53 | 196440 | 214417
12 | 47:38.68 | 3:57.72 | 214418 | 232264


Range status and errors

Selected range

Filename G:\@EXCLUSIVE\Touch - Definitive Edition (2CD JP 2008 Shaniatrek • DDCZ-1516)\Touch - The Complete Works I.wav

Peak level 100.0 %
Range quality 100.0 %
Test CRC 42517B06
Copy CRC 42517B06
Copy OK

No errors occurred


AccurateRip summary

Track 1 accurately ripped (confidence 1) [54169373]
Track 2 accurately ripped (confidence 1) [1F2ED02B]
Track 3 accurately ripped (confidence 1) [C20C92EB]
Track 4 accurately ripped (confidence 1) [BEC19115]
Track 5 accurately ripped (confidence 1) [E27EDA1E]
Track 6 accurately ripped (confidence 1) [D900EF77]
Track 7 accurately ripped (confidence 1) [4850C140]
Track 8 accurately ripped (confidence 1) [4E58BD3E]
Track 9 accurately ripped (confidence 1) [8678F603]
Track 10 accurately ripped (confidence 1) [2AD8CF9B]
Track 11 accurately ripped (confidence 1) [4E9FE76E]
Track 12 accurately ripped (confidence 1) [A33D1841]

All tracks accurately ripped

End of status report

Exact Audio Copy V0.99 prebeta 5 from 4. May 2009

EAC extraction logfile from 4. July 2012, 22:21

Touch / The Complete Works II

Used drive : ASUS DRW-24B3ST Adapter: 2 ID: 0

Read mode : Secure
Utilize accurate stream : Yes
Defeat audio cache : Yes
Make use of C2 pointers : No

Read offset correction : 6
Overread into Lead-In and Lead-Out : No
Fill up missing offset samples with silence : Yes
Delete leading and trailing silent blocks : No
Null samples used in CRC calculations : Yes
Used interface : Native Win32 interface for Win NT & 2000

Used output format : User Defined Encoder
Selected bitrate : 1024 kBit/s
Quality : High
Add ID3 tag : No
Command line compressor : C:\Program Files (x86)\EAC\WV\wavpack.exe
Additional command line options : -h -hh -m %s %d


TOC of the extracted CD

Track | Start | Length | Start sector | End sector
––––––––––––––––––––––––––––-
1 | 0:00.00 | 4:15.69 | 0 | 19193
2 | 4:15.69 | 4:18.41 | 19194 | 38584
3 | 8:34.35 | 4:42.13 | 38585 | 59747
4 | 13:16.48 | 4:47.50 | 59748 | 81322
5 | 18:04.23 | 4:08.34 | 81323 | 99956
6 | 22:12.57 | 3:36.17 | 99957 | 116173
7 | 25:48.74 | 4:21.30 | 116174 | 135778
8 | 30:10.29 | 4:11.40 | 135779 | 154643
9 | 34:21.69 | 4:32.49 | 154644 | 175092
10 | 38:54.43 | 4:41.36 | 175093 | 196203
11 | 43:36.04 | 3:56.13 | 196204 | 213916
12 | 47:32.17 | 5:07.33 | 213917 | 236974
13 | 52:39.50 | 4:16.24 | 236975 | 256198
14 | 56:55.74 | 4:31.24 | 256199 | 276547
15 | 61:27.23 | 4:29.31 | 276548 | 296753
16 | 65:56.54 | 3:56.18 | 296754 | 314471


Range status and errors

Selected range

Filename G:\@EXCLUSIVE\Touch - Definitive Edition (2CD JP 2008 Shaniatrek • DDCZ-1516)\Touch - The Complete Works II.wav

Peak level 100.0 %
Range quality 99.9 %
Test CRC 9CA1CC31
Copy CRC 9CA1CC31
Copy OK

No errors occurred


AccurateRip summary

Track 1 accurately ripped (confidence 1) [CE65AF08]
Track 2 accurately ripped (confidence 1) [630C8C2F]
Track 3 accurately ripped (confidence 1) [17276391]
Track 4 accurately ripped (confidence 1) [AB3DE1E6]
Track 5 accurately ripped (confidence 1) [D6C11DED]
Track 6 accurately ripped (confidence 1) [F3842368]
Track 7 accurately ripped (confidence 1) [25713850]
Track 8 accurately ripped (confidence 1) [EEF9BA9D]
Track 9 accurately ripped (confidence 1) [5BFA7037]
Track 10 accurately ripped (confidence 1) [6298C795]
Track 11 accurately ripped (confidence 1) [B54B85AB]
Track 12 accurately ripped (confidence 1) [72FA3C9C]
Track 13 accurately ripped (confidence 1) [27C935C5]
Track 14 accurately ripped (confidence 1) [EB89CD36]
Track 15 accurately ripped (confidence 1) [60846EC6]
Track 16 not present in database

15 track(s) accurately ripped
1 track(s) not present in the AccurateRip database

Some tracks could not be verified as accurate

End of status report

––––––––––––––––––––––––––––––––––––––––
Analyzed: Touch / The Complete Works I
––––––––––––––––––––––––––––––––––––––––

DR Peak RMS Duration Track
––––––––––––––––––––––––––––––––––––––––
DR6 0.00 dB -7.91 dB 3:59 01-Don't You Know What Love Is
DR6 0.00 dB -7.84 dB 3:58 02-When The Spirit Moves You
DR6 0.00 dB -7.91 dB 4:27 03-Love, Don't Fail Me
DR6 0.00 dB -7.91 dB 3:37 04-Black Star
DR6 0.00 dB -7.18 dB 3:57 05-There's A Light
DR6 0.00 dB -7.98 dB 5:23 06-So High
DR6 0.00 dB -7.75 dB 3:56 07-Last Chance For Love
DR6 0.00 dB -7.21 dB 4:21 08-Yes (You Need To Rock'n Roll)
DR6 0.00 dB -6.99 dB 4:54 09-Listen (Can You Feel It)
DR6 0.00 dB -7.35 dB 5:08 10-My Life Depends On You
DR7 0.00 dB -8.09 dB 4:00 11-Take It Back
DR5 0.00 dB -6.44 dB 3:58 12-Don't You Know What Love Is (live)
––––––––––––––––––––––––––––––––––––––––

Number of tracks: 12
Official DR value: DR6

Samplerate: 44100 Hz
Channels: 2
Bits per sample: 16
Bitrate: 1020 kbps
Codec: FLAC
================================================================================

––––––––––––––––––––––––––––––––––––––––
Analyzed: Touch / The Complete Works II
––––––––––––––––––––––––––––––––––––––––

DR Peak RMS Duration Track
––––––––––––––––––––––––––––––––––––––––
DR6 0.00 dB -7.21 dB 4:16 01-Never In Love
DR6 0.00 dB -7.76 dB 4:19 02-Just One Step
DR6 0.00 dB -7.22 dB 4:42 03-Far Enough
DR6 0.00 dB -8.23 dB 4:48 04-Frozen On A Wire
DR6 0.00 dB -7.03 dB 4:08 05-Too Much In Love
DR7 0.00 dB -7.71 dB 3:36 06-Anything For Rock'n Roll
DR6 0.00 dB -7.44 dB 4:21 07-You're Not A Child Anymore
DR6 0.00 dB -7.78 dB 4:12 08-Feels Like Love
DR6 0.00 dB -7.33 dB 4:33 09-Beg Me
DR5 0.00 dB -6.75 dB 4:41 10-Is It Really Me?
DR6 0.00 dB -7.28 dB 3:56 11-Between The Lines
DR8 0.00 dB -9.73 dB 5:07 12-Let Me Love You
DR7 0.00 dB -8.17 dB 4:16 13-Tonight
DR7 0.00 dB -8.88 dB 4:31 14-Look
DR7 0.00 dB -8.34 dB 4:29 15-Just Take A Beat Of My Heart
DR7 0.00 dB -9.96 dB 3:56 16-I Found Someone
––––––––––––––––––––––––––––––––––––––––

Number of tracks: 16
Official DR value: DR6

Samplerate: 44100 Hz
Channels: 2
Bits per sample: 16
Bitrate: 1010 kbps
Codec: FLAC
================================================================================

Thanks to the original releaser

♫~Welcome To My Blog~♫

password: BlondStyle