Tags
Language
Tags
December 2022
Su Mo Tu We Th Fr Sa
27 28 29 30 1 2 3
4 5 6 7 8 9 10
11 12 13 14 15 16 17
18 19 20 21 22 23 24
25 26 27 28 29 30 31

Trans-4M - 2 Studio Albums (1992-1995)

Posted By: gribovar
Trans-4M - 2 Studio Albums (1992-1995)

Trans-4M - 2 Studio Albums (1992-1995)
EAC Rip | FLAC (image+.cue+log) - 693 MB | MP3 CBR 320 kbps (LAME 3.93) - 303 MB | Covers - 91 MB
Genre: Electronic, Ambient | RAR 3% Rec. | Label: Buzz Records, Big Sleep Records

The history of underground electronic music is littered with inspired releases that, for one reason or other, slipped through the cracks. It would be fair to say that Trans-4M’s 1992 debut album, Sublunar Oracles, is one such release. The full-length originally appeared on Belgian dance music megalith Buzz, an imprint whose output tended towards the more commercial end of the dance music market. Initially, Sublunar Oracles failed to make much impact and was championed only by a small group chill-out DJs; these days, it’s rightly considered a lost classic and one of the most overlooked albums of the ambient house era.
It was the product of the blossoming studio relationship between brothers Stefan and Dimitri Van Elsen. The Antwerp-based brothers designed the set as a concept album of sorts, with a clear narrative thread running through the album’s eight intoxicating and ethereal tracks. However, they never made this concept public, and it’s down to a new generation of listeners to piece together the story themselves.

Trans-4M - 2 Studio Albums (1992-1995)

Trans-4M - Sublunar Oracles (1992)
EAC Rip | FLAC (image+.cue+log) - 330 MB | MP3 CBR 320 kbps (LAME 3.93) - 143 MB | Covers - 57 MB
Genre: Electronic, Ambient | RAR 3% Rec. | Label: Buzz Records (BZZCD 106 110)

Tracklist:
01. Arrival
02. Dencity
03. Depth Probe
04. Surfacing
05. Atharvaveda
06. Amma
07. Mount Void
08. Singularity

Total time: 01:00:45

Exact Audio Copy V0.99 prebeta 5 from 4. May 2009

EAC extraction logfile from 5. January 2010, 16:12

Trans-4M / Sublunar Oracles

Used drive : PIONEER DVD-RW DVR-111 Adapter: 3 ID: 0

Read mode : Secure
Utilize accurate stream : Yes
Defeat audio cache : Yes
Make use of C2 pointers : No

Read offset correction : 48
Overread into Lead-In and Lead-Out : No
Fill up missing offset samples with silence : Yes
Delete leading and trailing silent blocks : No
Null samples used in CRC calculations : Yes
Used interface : Installed external ASPI interface

Used output format : User Defined Encoder
Selected bitrate : 1024 kBit/s
Quality : High
Add ID3 tag : No
Command line compressor : C:\Program Files\Exact Audio Copy\Flac\flac.exe
Additional command line options : -8 -V -T "ARTIST=%a" -T "ALBUM=%g" -T "DATE=%y" -T "GENRE=%m" %s -o %d


TOC of the extracted CD

Track | Start | Length | Start sector | End sector
––––––––––––––––––––––––––––-
1 | 0:00.33 | 9:24.67 | 33 | 42399
2 | 9:25.25 | 5:55.28 | 42400 | 69052
3 | 15:20.53 | 7:48.57 | 69053 | 104209
4 | 23:09.35 | 4:20.55 | 104210 | 123764
5 | 27:30.15 | 7:36.08 | 123765 | 157972
6 | 35:06.23 | 9:09.57 | 157973 | 199204
7 | 44:16.05 | 5:03.43 | 199205 | 221972
8 | 49:19.48 | 11:25.35 | 221973 | 273382


Range status and errors

Selected range

Filename F:\temp\nnm\Trans-4M - Sublunar Oracles.wav

Peak level 96.3 %
Range quality 100.0 %
Test CRC 34A4F954
Copy CRC 34A4F954
Copy OK

No errors occurred


AccurateRip summary

Track 1 accurately ripped (confidence 2) [C2E27F12]
Track 2 accurately ripped (confidence 2) [1301DED1]
Track 3 accurately ripped (confidence 2) [04109026]
Track 4 accurately ripped (confidence 2) [58A4F040]
Track 5 not present in database
Track 6 not present in database
Track 7 accurately ripped (confidence 2) [FA98CB83]
Track 8 not present in database

5 track(s) accurately ripped
3 track(s) not present in the AccurateRip database

Some tracks could not be verified as accurate

End of status report

[CUETools log; Date: 08.12.2021 13:46:20; Version: 2.1.4]
Pregap length 00:00:33.
[CTDB TOCID: uSgEkTCTcH9C_u9gCOsb8IIIKrE-] found.
Track | CTDB Status
1 | (4/4) Accurately ripped
2 | (4/4) Accurately ripped
3 | (4/4) Accurately ripped
4 | (4/4) Accurately ripped
5 | (4/4) Accurately ripped
6 | (4/4) Accurately ripped
7 | (4/4) Accurately ripped
8 | (4/4) Accurately ripped
[AccurateRip ID: 0012303b-0078a371-6f0e3d08] found.
Track [ CRC | V2 ] Status
01 [c2e27f12|9bca22ca] (2+2/4) Accurately ripped
02 [1301ded1|48c240a2] (2+2/4) Accurately ripped
03 [04109026|13583ea3] (2+2/4) Accurately ripped
04 [58a4f040|df7ea609] (2+2/4) Accurately ripped
05 [c3386af1|b09c2190] (0+2/2) Accurately ripped
06 [53dd5c89|d8bf22c0] (0+2/2) Accurately ripped
07 [fa98cb83|0037aece] (2+2/4) Accurately ripped
08 [c45c06b5|f2200337] (0+2/2) Accurately ripped

Track Peak [ CRC32 ] [W/O NULL] [ LOG ]
– 96,3 [34A4F954] [6521C8F4] CRC32
01 96,3 [400651BC] [62F96FEB]
02 96,3 [C25F9C64] [6379F2D5]
03 93,1 [6B15F663] [8743EBFD]
04 94,6 [8F53D805] [5F341B91]
05 96,3 [3427842B] [F09C9B87]
06 96,3 [4EA89AAF] [65D8E193]
07 92,6 [6749B4F0] [21A93480]
08 88,3 [F8028E98] [A1EBD5FF]

Trans-4M - 2 Studio Albums (1992-1995)

Trans-4M - Clustered (1995)
EAC Rip | FLAC (image+.cue+log) - 363 MB | MP3 CBR 320 kbps (LAME 3.93) - 160 MB | Covers - 34 MB
Genre: Electronic, Ambient | RAR 3% Rec. | Label: Big Sleep Records (2002226)

Tracklist:
01. Meru
02. Are You Happy Now?
03. Endulating Era
04. Aeons
05. Mana
06. Satori
07. Al-Aksa
08. Neo-Nasa
09. Dawn
10. Alpha
11. Entwyne

Total time: 01:08:14

Exact Audio Copy V0.99 prebeta 5 from 4. May 2009

EAC extraction logfile from 5. January 2010, 14:56

Trans-4M / Clustered

Used drive : PIONEER DVD-RW DVR-111 Adapter: 3 ID: 0

Read mode : Secure
Utilize accurate stream : Yes
Defeat audio cache : Yes
Make use of C2 pointers : No

Read offset correction : 48
Overread into Lead-In and Lead-Out : No
Fill up missing offset samples with silence : Yes
Delete leading and trailing silent blocks : No
Null samples used in CRC calculations : Yes
Used interface : Installed external ASPI interface

Used output format : User Defined Encoder
Selected bitrate : 1024 kBit/s
Quality : High
Add ID3 tag : No
Command line compressor : C:\Program Files\Exact Audio Copy\Flac\flac.exe
Additional command line options : -8 -V -T "ARTIST=%a" -T "ALBUM=%g" -T "DATE=%y" -T "GENRE=%m" %s -o %d


TOC of the extracted CD

Track | Start | Length | Start sector | End sector
––––––––––––––––––––––––––––-
1 | 0:00.00 | 6:47.67 | 0 | 30591
2 | 6:47.67 | 8:58.25 | 30592 | 70966
3 | 15:46.17 | 6:55.60 | 70967 | 102151
4 | 22:42.02 | 7:48.30 | 102152 | 137281
5 | 30:30.32 | 4:49.13 | 137282 | 158969
6 | 35:19.45 | 6:21.12 | 158970 | 187556
7 | 41:40.57 | 6:51.23 | 187557 | 218404
8 | 48:32.05 | 6:16.02 | 218405 | 246606
9 | 54:48.07 | 5:20.00 | 246607 | 270606
10 | 60:08.07 | 3:15.63 | 270607 | 285294
11 | 63:23.70 | 4:49.70 | 285295 | 307039


Range status and errors

Selected range

Filename F:\temp\nnm\Trans-4M - Clustered.wav

Peak level 98.0 %
Range quality 100.0 %
Test CRC 3AFBB970
Copy CRC 3AFBB970
Copy OK

No errors occurred


AccurateRip summary

Track 1 not present in database
Track 2 not present in database
Track 3 not present in database
Track 4 not present in database
Track 5 not present in database
Track 6 not present in database
Track 7 not present in database
Track 8 not present in database
Track 9 not present in database
Track 10 not present in database
Track 11 not present in database

None of the tracks are present in the AccurateRip database

End of status report

[[CUETools log; Date: 08.12.2021 13:46:47; Version: 2.1.4]
[CTDB TOCID: DpRNOwLGNpi4ZAkmd3aQcg_uQL0-] found.
Track | CTDB Status
1 | (1/1) Accurately ripped
2 | (1/1) Accurately ripped
3 | (1/1) Accurately ripped
4 | (1/1) Accurately ripped
5 | (1/1) Accurately ripped
6 | (1/1) Accurately ripped
7 | (1/1) Accurately ripped
8 | (1/1) Accurately ripped
9 | (1/1) Accurately ripped
10 | (1/1) Accurately ripped
11 | (1/1) Accurately ripped
[AccurateRip ID: 001ec0f2-01056739-870ffd0b] found.
Track [ CRC | V2 ] Status
01 [1740494f|cff062a3] (0+0/1) No match
02 [dd11fe97|7e4b2434] (0+0/1) No match
03 [2c889f4f|80101da0] (0+0/1) No match
04 [84f63418|cd1bdf96] (0+0/1) No match
05 [2a9f867e|ab8a06b2] (0+0/1) No match
06 [155ddead|23217de2] (0+0/1) No match
07 [1b30ba82|62852408] (0+0/1) No match
08 [6bf94237|cf527afb] (0+0/1) No match
09 [e4ee46d7|338c08db] (0+0/1) No match
10 [5bc4bcef|f0020185] (0+0/1) No match
11 [db4adf66|826df95d] (0+0/1) No match
Offsetted by 6:
01 [79e2e3fe] (0/1) No match (V2 was not tested)
02 [dc158b03] (0/1) No match (V2 was not tested)
03 [0a9c0256] (0/1) No match (V2 was not tested)
04 [58fe44bf] (0/1) No match (V2 was not tested)
05 [669290a5] (0/1) No match (V2 was not tested)
06 [fd0634bd] (0/1) No match (V2 was not tested)
07 [36882f6d] (0/1) No match (V2 was not tested)
08 [a40507bd] (0/1) No match (V2 was not tested)
09 [d769cf0f] (0/1) No match (V2 was not tested)
10 [97e67ec5] (0/1) No match (V2 was not tested)
11 [619d9e46] (0/1) No match (V2 was not tested)

Track Peak [ CRC32 ] [W/O NULL] [ LOG ]
– 97,9 [3AFBB970] [C6BB6ECA] CRC32
01 97,7 [99D6BAC7] [26BA9195]
02 91,5 [FEF9BD18] [D36342FA]
03 97,9 [F385E841] [E47E8EC7]
04 95,5 [576699F1] [DAF96902]
05 88,6 [C97A206D] [56DC6577]
06 97,9 [CC2A6EDF] [D45D4264]
07 97,2 [9B0DDA0C] [D695BDE0]
08 92,7 [76428CD0] [5E3FB8D5]
09 86,4 [5D33CB23] [491C6D10]
10 47,6 [C9D5123A] [CC231406]
11 64,4 [4794A2ED] [4D6F69A0]

Thanks to _ok