Subcategories

Transatlantic - KaLIVEoscope: Live in Tilburg (2014)

Posted By: v3122
Transatlantic - KaLIVEoscope: Live in Tilburg (2014)

Transatlantic - KaLIVEoscope: Live in Tilburg (2014)
EAC | Flac(Image) + Cue + Log & MP3 CBR 320Kbps
Radiant Records, 3984-15349-2 | ~ 1296 or 432 Mb | Scans(png) -> 759 Mb
Progressive Rock / Symphonic Prog | 3CD from 3CD + 2DVD + Blu-Ray Box Set

One thing is certain following a new Transatlantic album and that is the Live CD/DVD set to follow. This band knows its audience better than most bands and they know that those fans that are not able to see this incredible group live at one of their few shows, relish any opportunity to watch them perform, even if its on a recording. This dedication to their fans not only comes through in the impressive packaging that each CD or DVD comes in, but also in the performances. With most of the songs this band has ever recorded clocking in at 30 minutes, they might be left to perform only the shorter songs, or to leave some major songs out. But instead they do a 3 hour show with all the fan favorites. With KaLIVEoscope, Transatlantic are at their peak and no longer merely a side project. Presenting the entire new award-winning Kaleidoscope album along with a 30 minute medley of The Whirlwind and older classics, you see a band that still enjoys performing together and realize how special this group and their music is.

The show kicks off with “Into the Blue” from the latest album. This has instantly become one of the band’s classic songs and is a beautiful epic way to kick off any set. Ted Leonard (Spock’s Beard, Enchant) fills in admirably for Daniel Gildenlöw (Pain of Salvation) who was the 5th member of the group in the last tour and also is on Kaleidoscope. He does the middle vocal section perfectly on this opening track. The group dive right into a song off the first album “My New World” which is a bit of a forgotten classic in their catalog, but is certainly a nice surprise.

As a Prog group, they are able to evoke emotions in their music in a way that eludes most bands in the genre. A few of the shorter songs such as “Shine”, “We All Need Some Light” and “Black as the Sky” provide a nice break from the epics and the former is a great reminder of how a simple song canwork just as nicely even when incorporated within more complicated numbers. “Shine” finds Neal and Roine both sounding as fresh as ever. And Mike tears through each song as only he can. But he adds a great element with his background vocals and become quite the good singer over the years.

But the highlights remain the longer epics, especially if you are a hardcore fan. The medley of “The Whirlwind” compresses a 72 minute masterpiece into 30 minutes and in a highly entertaining manner. Most of the integral sections are there and it allows the group to include the album in the show. “Kaleidoscope” is preceded by Neal performing “Beyond the Sun” and then performed with more energy than the record. Pete sings his lone solo performance in the middle of the song. Watching the Bluray, you get lost in the songs and forget how long they really are. Before you know it, you are sitting watching for 2 hours and it feels like not a minute has passed.

The encore is a medley of the original epic “All of the Above” and “Stranger in Your Soul.” Combining the two best Transatlantic songs is a great idea but you also miss hearing each song in its entirety. Regardless, there is no greater climax in a song than the ending for “Stranger” which could be one of the greatest pieces of music ever written and live is performed with such power and emotion you might find yourself swaying your arms back and forth in your living room. The quality of the audio and the dvd/bluray is top notch and it is also great to see this band perform in such a nice venue in front of a lrTransatlantic are not just a group of great musicians, they are an incredible band that continue to put out music meant for their fans and everything they do is no less than perfect. This live set is no exception.

~ progreport
Transatlantic - KaLIVEoscope: Live in Tilburg (2014):

Transatlantic - KaLIVEoscope: Live in Tilburg (2014)

Tracklist CD1:

1. Into The Blue (27:49)
2. My New World (18:28)
3. Shine (7:23)

Exact Audio Copy V1.0 beta 3 from 29. August 2011

EAC extraction logfile from 22. January 2015, 21:55

Transatlantic / KaLIVEoscope Live in Tilburg CD1

Used drive : PIONEER DVD-RW DVR-220RS Adapter: 0 ID: 0

Read mode : Secure
Utilize accurate stream : Yes
Defeat audio cache : Yes
Make use of C2 pointers : No

Read offset correction : 6
Overread into Lead-In and Lead-Out : No
Fill up missing offset samples with silence : Yes
Delete leading and trailing silent blocks : No
Null samples used in CRC calculations : Yes
Used interface : Native Win32 interface for Win NT & 2000

Used output format : User Defined Encoder
Selected bitrate : 768 kBit/s
Quality : High
Add ID3 tag : No
Command line compressor : C:\Program Files (x86)\Exact Audio Copy\Wavpack\wavpack.exe
Additional command line options : -hm -w "Year=%year%" -w "Genre=%genre%" %source% %dest%


TOC of the extracted CD

Track | Start | Length | Start sector | End sector
––––––––––––––––––––––––––––-
1 | 0:00.00 | 27:47.36 | 0 | 125060
2 | 27:47.36 | 18:28.04 | 125061 | 208164
3 | 46:15.40 | 7:23.22 | 208165 | 241411


Range status and errors

Selected range

Filename C:\_NL+_\CD74\Transatlantic - KaLIVEoscope Live in Tilburg CD1.wav

Peak level 100.0 %
Extraction speed 7.1 X
Range quality 100.0 %
Test CRC 3703BFBF
Copy CRC 3703BFBF
Copy OK

No errors occurred


AccurateRip summary

Track 1 accurately ripped (confidence 2) [DCD1C66B] (AR v2)
Track 2 accurately ripped (confidence 2) [225E0993] (AR v2)
Track 3 accurately ripped (confidence 2) [37C62009] (AR v2)

All tracks accurately ripped

End of status report

–– CUETools DB Plugin V2.1.3

[CTDB TOCID: oy2S5Olw_7Q09iarHN5o9UDC3a0-] found, Submit result: already submitted
[2ed2ef7d] (15/19) No match
[4bf0d426] (04/19) Accurately ripped


==== Log checksum 15B710A3459B8C53B6C8ED26616127EB7BA4AC918F8DDC0A1BE65BAADD33E2C9 ====

foobar2000 1.2.9 / Dynamic Range Meter 1.1.1
log date: 2015-01-29 22:24:18

––––––––––––––––––––––––––––––––––––––––
Analyzed: Transatlantic / KaLIVEoscope Live in Tilburg CD1
––––––––––––––––––––––––––––––––––––––––

DR Peak RMS Duration Track
––––––––––––––––––––––––––––––––––––––––
DR8 0.00 dB -10.37 dB 27:47 01-Into The Blue
DR8 0.00 dB -10.98 dB 18:28 02-My New World
DR9 0.00 dB -13.24 dB 7:23 03-Shine
––––––––––––––––––––––––––––––––––––––––

Number of tracks: 3
Official DR value: DR8

Samplerate: 44100 Hz
Channels: 2
Bits per sample: 16
Bitrate: 941 kbps
Codec: FLAC

[CUETools log; Date: 29.01.2015 22:23:56; Version: 2.1.4]
[CTDB TOCID: oy2S5Olw_7Q09iarHN5o9UDC3a0-] found.
Track | CTDB Status
1 | ( 4/19) Accurately ripped
2 | (19/19) Accurately ripped
3 | (19/19) Accurately ripped
[AccurateRip ID: 0008c4ae-001c148a-2f0c9203] found.
Track [ CRC | V2 ] Status
01 [00688ca3|dcd1c66b] (0+2/7) Accurately ripped
02 [1a8735df|225e0993] (0+2/7) Accurately ripped
03 [e6f31739|37c62009] (0+2/7) Accurately ripped
Offsetted by -594:
01 [ef4e072e] (0/7) No match (V2 was not tested)
02 [106507b8] (0/7) No match
03 [9724ce60] (0/7) No match
Offsetted by -6:
01 [5c0c829d] (0/7) No match
02 [b2eff0e7] (2/7) Accurately ripped
03 [19f044b3] (2/7) Accurately ripped

Track Peak [ CRC32 ] [W/O NULL] [ LOG ]
– 100,0 [3703BFBF] [88EB4730] CRC32
01 100,0 [4463526E] [6B03B314]
02 100,0 [030B3268] [922EA292]
03 100,0 [6075CDE2] [A15ABB26]

Transatlantic - KaLIVEoscope: Live in Tilburg (2014)

Tracklist CD2:

1. The Whirlwind Medley (30:12)
2. Beyond The Sun (4:50)
3. Kaleidoscope (31:30)

Exact Audio Copy V1.0 beta 3 from 29. August 2011

EAC extraction logfile from 22. January 2015, 20:55

Transatlantic / KaLIVEoscope in Tilburg CD2

Used drive : PIONEER DVD-RW DVR-220RS Adapter: 0 ID: 0

Read mode : Secure
Utilize accurate stream : Yes
Defeat audio cache : Yes
Make use of C2 pointers : No

Read offset correction : 6
Overread into Lead-In and Lead-Out : No
Fill up missing offset samples with silence : Yes
Delete leading and trailing silent blocks : No
Null samples used in CRC calculations : Yes
Used interface : Native Win32 interface for Win NT & 2000

Used output format : User Defined Encoder
Selected bitrate : 768 kBit/s
Quality : High
Add ID3 tag : No
Command line compressor : C:\Program Files (x86)\Exact Audio Copy\Wavpack\wavpack.exe
Additional command line options : -hm -w "Year=%year%" -w "Genre=%genre%" %source% %dest%


TOC of the extracted CD

Track | Start | Length | Start sector | End sector
––––––––––––––––––––––––––––-
1 | 0:00.00 | 30:10.62 | 0 | 135811
2 | 30:10.62 | 4:50.47 | 135812 | 157608
3 | 35:01.34 | 31:30.04 | 157609 | 299362


Range status and errors

Selected range

Filename C:\_NL+_\CD76\Transatlantic - KaLIVEoscope in Tilburg CD2.wav

Peak level 100.0 %
Extraction speed 3.2 X
Range quality 100.0 %
Test CRC CD154359
Copy CRC CD154359
Copy OK

No errors occurred


AccurateRip summary

Track 1 cannot be verified as accurate (confidence 3) [255C546E], AccurateRip returned [90BDD558] (AR v2)
Track 2 cannot be verified as accurate (confidence 3) [076E337C], AccurateRip returned [BF4D16BA] (AR v2)
Track 3 cannot be verified as accurate (confidence 3) [A63BB9E9], AccurateRip returned [3B03D8A7] (AR v2)

No tracks could be verified as accurate
You may have a different pressing from the one(s) in the database

End of status report

–– CUETools DB Plugin V2.1.3

[CTDB TOCID: 0jQHUM7yfD1wb50mWsRfLBKzuMI-] found, Submit result: 0jQHUM7yfD1wb50mWsRfLBKzuMI- has been confirmed
[8583b926] (16/19) No match
[84a7df69] (03/19) Accurately ripped


==== Log checksum 997208E343D0EA1FA48A9B467158AA8B33407717E2ACA32DA51054BADD3674FE ====

foobar2000 1.2.9 / Dynamic Range Meter 1.1.1
log date: 2015-01-29 22:24:52

––––––––––––––––––––––––––––––––––––––––
Analyzed: Transatlantic / KaLIVEoscope Live in Tilburg CD2
––––––––––––––––––––––––––––––––––––––––

DR Peak RMS Duration Track
––––––––––––––––––––––––––––––––––––––––
DR8 0.00 dB -10.14 dB 30:11 01-The Whirlwind Medley
DR11 -1.03 dB -16.89 dB 4:51 02-Beyond The Sun
DR8 0.00 dB -10.06 dB 31:30 03-Kaleidoscope
––––––––––––––––––––––––––––––––––––––––

Number of tracks: 3
Official DR value: DR9

Samplerate: 44100 Hz
Channels: 2
Bits per sample: 16
Bitrate: 959 kbps
Codec: FLAC

[CUETools log; Date: 29.01.2015 22:24:56; Version: 2.1.4]
[CTDB TOCID: 0jQHUM7yfD1wb50mWsRfLBKzuMI-] found.
Track | CTDB Status
1 | ( 4/20) Accurately ripped
2 | (20/20) Accurately ripped
3 | (20/20) Accurately ripped
[AccurateRip ID: 00090b90-001da190-140f9703] found.
Track [ CRC | V2 ] Status
01 [cc3b88bb|255c546e] (0+0/3) No match
02 [fc9ddf13|076e337c] (0+0/3) No match
03 [3eb4b898|a63bb9e9] (0+0/3) No match
Offsetted by -594:
01 [8e41a8ee] (0/3) No match (V2 was not tested)
02 [d1b2b3a1] (0/3) No match
03 [df16ee83] (0/3) No match
Offsetted by -6:
01 [a0fcc33a] (0/3) No match
02 [b5f5a2df] (0/3) No match (V2 was not tested)
03 [d371e5b0] (0/3) No match (V2 was not tested)

Track Peak [ CRC32 ] [W/O NULL] [ LOG ]
– 100,0 [CD154359] [29A7975A] CRC32
01 100,0 [99524C82] [4F657B1B]
02 88,8 [72C758B2] [E94353D5]
03 100,0 [E5034AE7] [55501193]

Transatlantic - KaLIVEoscope: Live in Tilburg (2014)

Tracklist CD3:

1. Neal & Roine Duet (4:34)
2. We All Need Some Light (6:05)
3. Black As The Sky (7:22)
4. Nights In White Satin (8:09)
5. Sylvia (4:46)
6. Hocus Pocus (7:09)
7. Medley: All Of The Above / Stranger In Your Soul (24:34)

Musicians:

- Neal Morse / vocals, keyboards and acoustic guitars
- Roine Stolt / vocals and guitars
- Mike Portnoy / drums and vocals
- Pete Trewavas / bass and vocals
- Ted Leonard / guitars, keyboards, percussion, vocals


Exact Audio Copy V1.0 beta 3 from 29. August 2011

EAC extraction logfile from 22. January 2015, 22:27

Transatlantic / KaLIVEoscope Live in Tilburg CD3

Used drive : PIONEER DVD-RW DVR-220RS Adapter: 0 ID: 0

Read mode : Secure
Utilize accurate stream : Yes
Defeat audio cache : Yes
Make use of C2 pointers : No

Read offset correction : 6
Overread into Lead-In and Lead-Out : No
Fill up missing offset samples with silence : Yes
Delete leading and trailing silent blocks : No
Null samples used in CRC calculations : Yes
Used interface : Native Win32 interface for Win NT & 2000

Used output format : User Defined Encoder
Selected bitrate : 768 kBit/s
Quality : High
Add ID3 tag : No
Command line compressor : C:\Program Files (x86)\Exact Audio Copy\Wavpack\wavpack.exe
Additional command line options : -hm -w "Year=%year%" -w "Genre=%genre%" %source% %dest%


TOC of the extracted CD

Track | Start | Length | Start sector | End sector
––––––––––––––––––––––––––––-
1 | 0:00.00 | 4:32.29 | 0 | 20428
2 | 4:32.29 | 6:05.17 | 20429 | 47820
3 | 10:37.46 | 7:25.15 | 47821 | 81210
4 | 18:02.61 | 8:09.69 | 81211 | 117954
5 | 26:12.55 | 4:43.42 | 117955 | 139221
6 | 30:56.22 | 7:11.64 | 139222 | 171610
7 | 38:08.11 | 24:32.64 | 171611 | 282074


Range status and errors

Selected range

Filename C:\_NL+_\CD80\Transatlantic - KaLIVEoscope Live in Tilburg CD3.wav

Peak level 100.0 %
Extraction speed 7.4 X
Range quality 100.0 %
Test CRC 4E86F7C9
Copy CRC 4E86F7C9
Copy OK

No errors occurred


AccurateRip summary

Track 1 cannot be verified as accurate (confidence 3) [57403505], AccurateRip returned [0B5C2121] (AR v2)
Track 2 cannot be verified as accurate (confidence 3) [F9B90488], AccurateRip returned [86298BF2] (AR v2)
Track 3 cannot be verified as accurate (confidence 3) [8406F129], AccurateRip returned [0BE2A11F] (AR v2)
Track 4 cannot be verified as accurate (confidence 3) [945808CB], AccurateRip returned [C65EB7F0] (AR v2)
Track 5 cannot be verified as accurate (confidence 3) [7A083628], AccurateRip returned [3F59A07E] (AR v2)
Track 6 cannot be verified as accurate (confidence 3) [C7AEBEA0], AccurateRip returned [CB014CA0] (AR v2)
Track 7 cannot be verified as accurate (confidence 3) [AE355495], AccurateRip returned [0CE175E2] (AR v2)

No tracks could be verified as accurate
You may have a different pressing from the one(s) in the database

End of status report

–– CUETools DB Plugin V2.1.3

[CTDB TOCID: a2Pg.jt2R5zP1mozjicTWjGZuq0-] found, Submit result: a2Pg.jt2R5zP1mozjicTWjGZuq0- has been confirmed
[d7ddfa08] (18/21) No match
[f0af67ee] (03/21) Accurately ripped


==== Log checksum 47A2D0032CE099A29B7C73BCAE8F985206D21CB835567991125D84CEF08A5C97 ====

foobar2000 1.2.9 / Dynamic Range Meter 1.1.1
log date: 2015-01-29 22:25:18

––––––––––––––––––––––––––––––––––––––––
Analyzed: Transatlantic / KaLIVEoscope Live in Tilburg CD3
––––––––––––––––––––––––––––––––––––––––

DR Peak RMS Duration Track
––––––––––––––––––––––––––––––––––––––––
DR13 -0.74 dB -17.24 dB 4:32 01-Roine and Neal Jam
DR9 0.00 dB -12.19 dB 6:05 02-We All Need Some Light
DR8 0.00 dB -9.10 dB 7:25 03-Black As The Sky
DR8 0.00 dB -11.89 dB 8:10 04-Nights In White Satin
DR8 0.00 dB -10.14 dB 4:44 05-Sylvia
DR8 0.00 dB -10.17 dB 7:12 06-Hocus Pocus
DR7 0.00 dB -9.12 dB 24:33 07-Medley: All Of The Above/Stranger In Your Soul
––––––––––––––––––––––––––––––––––––––––

Number of tracks: 7
Official DR value: DR9

Samplerate: 44100 Hz
Channels: 2
Bits per sample: 16
Bitrate: 982 kbps
Codec: FLAC

[CUETools log; Date: 29.01.2015 22:25:23; Version: 2.1.4]
[CTDB TOCID: a2Pg.jt2R5zP1mozjicTWjGZuq0-] found.
Track | CTDB Status
1 | (22/22) Accurately ripped
2 | ( 4/22) Accurately ripped
3 | (22/22) Accurately ripped
4 | (22/22) Accurately ripped
5 | (22/22) Accurately ripped
6 | (22/22) Accurately ripped
7 | (22/22) Accurately ripped
[AccurateRip ID: 000d20a4-00524716-620eb107] found.
Track [ CRC | V2 ] Status
01 [815a1659|57403505] (0+0/3) No match
02 [e0dfebf0|f9b90488] (0+0/3) No match
03 [948ebd1a|8406f129] (0+0/3) No match
04 [e8845793|945808cb] (0+0/3) No match
05 [f60f42cd|7a083628] (0+0/3) No match
06 [d259d749|c7aebea0] (0+0/3) No match
07 [1084204c|ae355495] (0+0/3) No match
Offsetted by -594:
01 [478fedc1] (0/3) No match (V2 was not tested)
02 [42d55b38] (0/3) No match (V2 was not tested)
03 [67404d71] (0/3) No match
04 [f7386dd0] (0/3) No match
05 [bb28592f] (0/3) No match
06 [1eaa987f] (0/3) No match
07 [e2fd987b] (0/3) No match
Offsetted by -6:
01 [ff737cf9] (0/3) No match
02 [d67ce79c] (0/3) No match
03 [18e7f441] (0/3) No match (V2 was not tested)
04 [1d2a190c] (0/3) No match (V2 was not tested)
05 [bd46c3af] (0/3) No match (V2 was not tested)
06 [d2436083] (0/3) No match (V2 was not tested)
07 [6390b46b] (0/3) No match (V2 was not tested)

Track Peak [ CRC32 ] [W/O NULL] [ LOG ]
– 100,0 [4E86F7C9] [7A65989B] CRC32
01 91,8 [9F1E8FF5] [E4F1B068]
02 100,0 [6FC400FD] [60E72E54]
03 100,0 [7C31C1A0] [B7320697]
04 100,0 [110A6B84] [30107C19]
05 100,0 [A1FFA336] [1E4CBD24]
06 100,0 [0A863410] [17FDC5BD]
07 100,0 [DDDAD54C] [C3EFAC6C]

Transatlantic - KaLIVEoscope: Live in Tilburg (2014)

All thanks go to tatuk