Subcategories

Benjamin Lazar, Florent Hubert, Paul Escobar, Judith Chemla - Traviata: Vous meritez un avenir meilleur (2020) [Blu-Ray]

Posted By: Vilboa
Benjamin Lazar, Florent Hubert, Paul Escobar, Judith Chemla - Traviata: Vous meritez un avenir meilleur (2020) [Blu-Ray]

Benjamin Lazar, Florent Hubert, Paul Escobar, Judith Chemla - Traviata: Vous méritez un avenir meilleur (2020) [Blu-Ray]
BluRay | BDMV | MPEG-4 AVC Video / 29975 kbps / 1080i / 29,970 fps | 130 min | 34,5 Gb
Audio1: Italiano, Français / LPCM Audio 2.0 / 16 bit | Audio2: DTS-HD Master Audio / 5.1 / 48 kHz / 3782 kbps / 24-bit
––––––
BluRay-rip | AVC | MKV 1920x1080 / 6215 kbps / 29,970 fps | 130 min | 7,09 Gb
Audio: Italiano, Français / DTS / 6ch / 48.0 KHz / 24 bits
Classical | Bel Air Classiques | Sub: English, French

In Traviata – You deserve a better future, the audience is invited into Violetta’s privacy to have a close look at the fire to which she abandons herself among the guests of this musical and phantasmagorical celebration that blends theatre and opera, voices that speak and sing, and where the phantoms of this Paris in full industrial boom whose future we are living at present, sing and die.

Cast:
Violetta Valéry - Judith Chemla
Alfredo Germont - Damien Bigourdan
Giorgio Germont - Jérôme Billy
Flora Bervoix et Anina - Élise Chauvin
Le médecin - Florent Baffi
Le baron Douphol - Benjamin Locher

Marie Salvat, violin
Myrtille Hetzel, cello
Axelle Ciofolo, clarinet
Sébastien Llado, trombone
Benjamin Locher, horn
Bruno Le Bris, double bass
Gabriel Levasseur, accordion
Florent Hubert, concept, conductor, arranger
Paul Escobar, conductor and arranger

Judith Chemla, concept
Benjamin Lazar, concept and stage director
Julia Brochier, costume designer
Maël Iger, lighting designer


Disc Title: TRAVIATA
Disc Size: 37 151 450,032 bytes
Protection: AACS
Playlist: 00005.MPLS
Size: 36 691 040 256 bytes
Length: 2:10:42.034
Total Bitrate: 37.43 Mbps
Video: MPEG-4 AVC Video / 29975 kbps / 1080i / 29.970 fps / 16:9 / High Profile 4.1
Audio: Undetermined / LPCM Audio / 2.0 / 48 kHz / 1536 kbps / 16-bit
Audio: Undetermined / DTS-HD Master Audio / 5.1 / 48 kHz / 3782 kbps / 24-bit (DTS Core: 5.1 / 48 kHz / 1509 kbps / 24-bit)
Subtitle: French / 13.568 kbps
Subtitle: English / 26.343 kbps


General
Unique ID : 254030133502185277991704343273543743359 (0xBF1C6C911651040297A043F023BEB77F)
Complete name : C:\TRAVIATA.mkv
Format : Matroska
Format version : Version 2
File size : 7.09 GiB
Duration : 2h 10mn
Overall bit rate : 7 770 Kbps
Movie name : TRAVIATA
Encoded date : UTC 2020-01-14 11:09:50
Writing application : DVDFab 9.1.6.8
Writing library : libebml v0.7.8 + libmatroska v0.8.1

Video
ID : 1
Format : AVC
Format/Info : Advanced Video Codec
Format profile : High@L4.1
Format settings, CABAC : Yes
Format settings, ReFrames : 2 frames
Codec ID : V_MPEG4/ISO/AVC
Duration : 2h 10mn
Bit rate : 6 215 Kbps
Width : 1 920 pixels
Height : 1 080 pixels
Display aspect ratio : 16:9
Frame rate mode : Constant
Frame rate : 29.970 fps
Color space : YUV
Chroma subsampling : 4:2:0
Bit depth : 8 bits
Scan type : Progressive
Bits/(Pixel*Frame) : 0.100
Stream size : 5.57 GiB (79%)
Writing library : x264 core 142
Encoding settings : cabac=1 / ref=1 / deblock=1:-1:-1 / analyse=0x3:0 / me=hex / subme=5 / psy=0 / mixed_ref=0 / me_range=16 / chroma_me=1 / trellis=0 / 8x8dct=1 / cqm=0 / deadzone=21,11 / fast_pskip=1 / chroma_qp_offset=0 / threads=8 / lookahead_threads=2 / sliced_threads=0 / nr=0 / decimate=1 / interlaced=0 / bluray_compat=0 / constrained_intra=0 / bframes=2 / b_pyramid=0 / b_adapt=1 / b_bias=0 / direct=1 / weightb=1 / open_gop=0 / weightp=0 / keyint=24 / keyint_min=13 / scenecut=40 / intra_refresh=0 / rc=abr / mbtree=0 / bitrate=6215 / ratetol=1.0 / qcomp=0.60 / qpmin=0 / qpmax=69 / qpstep=4 / ip_ratio=1.40 / pb_ratio=1.30 / aq=1:1.00
Default : Yes
Forced : No
Color primaries : BT.709
Transfer characteristics : BT.709
Matrix coefficients : BT.709
Color range : Limited

Audio
ID : 2
Format : DTS
Format/Info : Digital Theater Systems
Mode : 16
Format settings, Endianness : Big
Codec ID : A_DTS
Duration : 2h 10mn
Bit rate mode : Constant
Bit rate : 1 509 Kbps
Channel(s) : 6 channels
Channel positions : Front: L C R, Side: L R, LFE
Sampling rate : 48.0 KHz
Bit depth : 24 bits
Compression mode : Lossy
Stream size : 1.38 GiB (19%)
Default : Yes
Forced : No

Text #1
ID : 103
Format : VobSub
Codec ID : S_VOBSUB
Codec ID/Info : The same subtitle format used on DVDs
Language : French
Default : Yes
Forced : No

Text #2
ID : 104
Format : VobSub
Codec ID : S_VOBSUB
Codec ID/Info : The same subtitle format used on DVDs
Language : English
Default : No
Forced : No

Menu
00:00:00.000 : en:Chapter 01
00:04:35.274 : en:Chapter 02
00:11:42.101 : en:Chapter 03
00:19:00.706 : en:Chapter 04
00:20:18.317 : en:Chapter 05
00:34:38.943 : en:Chapter 06
00:38:40.985 : en:Chapter 07
00:44:20.858 : en:Chapter 08
00:55:34.297 : en:Chapter 09
01:01:46.903 : en:Chapter 10
01:05:38.935 : en:Chapter 11
01:10:41.136 : en:Chapter 12
01:24:40.275 : en:Chapter 13
01:30:16.344 : en:Chapter 14
01:39:36.937 : en:Chapter 15
01:40:40.901 : en:Chapter 16
01:48:09.416 : en:Chapter 17
01:52:46.960 : en:Chapter 18
01:54:11.811 : en:Chapter 19
02:03:03.976 : en:Chapter 20
02:07:43.422 : en:Chapter 21

All screenshots taken from BDRip

Benjamin Lazar, Florent Hubert, Paul Escobar, Judith Chemla - Traviata: Vous meritez un avenir meilleur (2020) [Blu-Ray]