Subcategories
Tags
Language
Tags

Trevor Pinnock, The English Concert - Bach: 6 Brandenburg Concertos; 4 Orchestral Suites (1988)

Posted By: ArlegZ
Trevor Pinnock, The English Concert - Bach: 6 Brandenburg Concertos; 4 Orchestral Suites (1988)

Trevor Pinnock, The English Concert - Bach: 6 Brandenburg Concertos; 4 Orchestral Suites (1988)
EAC | FLAC | Image (Cue & Log) ~ 949 Mb | Total time: 58:26+56:18+56:51 | Scans included
Classical | Label: Archiv Produktion | # 423 492-2 | Recorded: 1978, 1982

This recording by Trevor Pinnock is one of the finest ever. Played on original baroque instruments, the sound is a little thinner than what we are used to with modern orchestras. This is not a fault - it is actually an advantage. It brings Bach to life - every instrument is heard clearly, the feel is gutsy, real, lively. This is the Brandenburgs as Bach himself would have heard it. Wonderful stuff.

Performer:
The English Concert
Trevor Pinnock, director & harpsichord

Track List:
CD1:
6 Brandenburg Concertos
Concerto No. 1 BWV 1046 In F Major
01. 1. Ohne Satsbezeichnung
02. 2. Adagio
03. 3. Allegro
04. 4. Menuetto - Trio I - Polacca - Trio II
Concerto No. 2 BWV 1047 In F Major
05. 1. Ohne Satsbezeichnung
06. 2. Andante
07. 3. Allegro Assai
Concerto No. 3 BWV 1048 In G Major
08. 1. Ohne Satsbezeichnung
09. 2. Adagio
10. 3. Allegro
Concerto No. 4 BWV 1049 In G Major
11. 1. Allegro
12. 2. Andante
13. 3 Presto
CD2:
Concerto No. 5 BWV 1050 In D Major
01. 1. Allegro
02. 2. Affettuoso
03. 3. Allegro
Concerto No. 6 BWV 1051 In B Flat Major
04. 1. Ohne Satsbezeichnung
05. 2. Adagio ma non tanto
06. 3. Allegro
4 Overtures (Orchestral Suites)
Ouverture No. 1 BWV 1066 In C Major
07. 1. Ouverture
08. 2. Courante
09. 3. Gavotte I/II
10. 4. Forlane
11. 5. Menuet I/II
12. 6. Bourrée I/II
13. 7. Passepied I/II
CD3:
Ouverture No. 2 BWV 1067 In B Minor
01. 1. Ouverture
02. 2. Rondeau
03. 3. Sarabande
04. 4. Bourrée I/II
05. 5. Polonaise
06. 6. Menuet
07. 7. Badinerie
Ouverture No. 3 BWV 1068 In D Major
08. 1 Ouverture
09. 2. Air
10. 3. Gavotte I/II
11. 4. Bourrée
12. 5. Gigue
Ouverture No. 4 BWV 1069 In D Major
13. 1. Ouverture
14. 2. Bourrée I/II
15. 3. Gavotte
16. 4. Menuet I/II
17. 5. Réjouissance


Exact Audio Copy V1.5 from 20. February 2020

EAC extraction logfile from 6. October 2020, 0:26

Johann Sebastian Bach / 6 Brandenburg Concertos / 4 Orchestral Suites

Used drive : HL-DT-STDVDRAM GH24NSD5 Adapter: 1 ID: 0

Read mode : Secure
Utilize accurate stream : Yes
Defeat audio cache : Yes
Make use of C2 pointers : No

Read offset correction : 6
Overread into Lead-In and Lead-Out : No
Fill up missing offset samples with silence : Yes
Delete leading and trailing silent blocks : No
Null samples used in CRC calculations : Yes
Used interface : Native Win32 interface for Win NT & 2000

Used output format : User Defined Encoder
Selected bitrate : 896 kBit/s
Quality : High
Add ID3 tag : No
Command line compressor : C:\Program Files (x86)\Exact Audio Copy\FLAC\FLAC.EXE
Additional command line options : -6 -V -T "ARTIST=%artist%" -T "TITLE=%title%" -T "ALBUM=%albumtitle%" -T "DATE=%year%" -T "TRACKNUMBER=%tracknr%" -T "GENRE=%genre%" -T "COMMENT=%comment%" -T "BAND=%albuminterpret%" -T "ALBUMARTIST=%albuminterpret%" -T "COMPOSER=%composer%" %haslyrics%–tag-from-file=LYRICS="%lyricsfile%"%haslyrics% -T "DISCNUMBER=%cdnumber%" -T "TOTALDISCS=%totalcds%" -T "TOTALTRACKS=%numtracks%" %hascover%–picture="%coverfile%"%hascover% %source% -o %dest%


TOC of the extracted CD

Track | Start | Length | Start sector | End sector
––––––––––––––––––––––––––––-
1 | 0:00.32 | 4:10.70 | 32 | 18851
2 | 4:11.27 | 4:13.33 | 18852 | 37859
3 | 8:24.60 | 4:09.40 | 37860 | 56574
4 | 12:34.25 | 7:30.67 | 56575 | 90391
5 | 20:05.17 | 5:18.30 | 90392 | 114271
6 | 25:23.47 | 3:52.55 | 114272 | 131726
7 | 29:16.27 | 3:07.20 | 131727 | 145771
8 | 32:23.47 | 5:45.03 | 145772 | 171649
9 | 38:08.50 | 0:33.45 | 171650 | 174169
10 | 38:42.20 | 4:48.45 | 174170 | 195814
11 | 43:30.65 | 6:57.32 | 195815 | 227121
12 | 50:28.22 | 3:46.20 | 227122 | 244091
13 | 54:14.42 | 4:44.73 | 244092 | 265464


Range status and errors

Selected range

Filename I:\Rips\Bach JS - 6 Brandenburg Concertos, 4 Orchestral Suites - Pinnock\CD1\Johann Sebastian Bach - 6 Brandenburg Concertos , 4 Orchestral Suites (Disc1).wav

Peak level 97.7 %
Extraction speed 1.8 X
Range quality 100.0 %
Test CRC 37F0B556
Copy CRC 37F0B556
Copy OK

No errors occurred


AccurateRip summary

Track 1 accurately ripped (confidence 70) [4A0F46C0] (AR v2)
Track 2 accurately ripped (confidence 70) [87364AC1] (AR v2)
Track 3 accurately ripped (confidence 71) [CDC860DA] (AR v2)
Track 4 accurately ripped (confidence 70) [997A7864] (AR v2)
Track 5 accurately ripped (confidence 71) [F25B2FB1] (AR v2)
Track 6 accurately ripped (confidence 69) [FE96FBF7] (AR v2)
Track 7 accurately ripped (confidence 70) [02E136D8] (AR v2)
Track 8 accurately ripped (confidence 68) [DA5DE066] (AR v2)
Track 9 accurately ripped (confidence 69) [EE53A5D9] (AR v2)
Track 10 accurately ripped (confidence 69) [28C86EF8] (AR v2)
Track 11 accurately ripped (confidence 70) [4C4AE1E6] (AR v2)
Track 12 accurately ripped (confidence 70) [B568F230] (AR v2)
Track 13 accurately ripped (confidence 70) [9603108D] (AR v2)

All tracks accurately ripped

End of status report

–– CUETools DB Plugin V2.1.6

[CTDB TOCID: 892cEQGjQOvI8QjogDqW4UympQs-] found
Submit result: 892cEQGjQOvI8QjogDqW4UympQs- has been confirmed
Track | CTDB Status
1 | (402/473) Accurately ripped
2 | (400/473) Accurately ripped
3 | (400/473) Accurately ripped
4 | (399/473) Accurately ripped
5 | (398/473) Accurately ripped
6 | (401/473) Accurately ripped
7 | (399/473) Accurately ripped
8 | (398/473) Accurately ripped
9 | (401/473) Accurately ripped
10 | (400/473) Accurately ripped
11 | (395/473) Accurately ripped
12 | (396/473) Accurately ripped
13 | (395/473) Accurately ripped


==== Log checksum AB11EE49EC52ACE58CB2842AC509A5BC93AC8B1641BDF32A91F17FA9DAEA0B9E ====


Exact Audio Copy V1.5 from 20. February 2020

EAC extraction logfile from 6. October 2020, 8:24

Johann Sebastian Bach / 6 Brandenburg Concertos / 4 Orchestral Suites

Used drive : TSSTcorpDVDWBD SE-406AB Adapter: 1 ID: 1

Read mode : Secure
Utilize accurate stream : Yes
Defeat audio cache : Yes
Make use of C2 pointers : No

Read offset correction : 6
Overread into Lead-In and Lead-Out : No
Fill up missing offset samples with silence : Yes
Delete leading and trailing silent blocks : No
Null samples used in CRC calculations : Yes
Used interface : Native Win32 interface for Win NT & 2000

Used output format : User Defined Encoder
Selected bitrate : 896 kBit/s
Quality : High
Add ID3 tag : No
Command line compressor : C:\Program Files (x86)\Exact Audio Copy\FLAC\FLAC.EXE
Additional command line options : -6 -V -T "ARTIST=%artist%" -T "TITLE=%title%" -T "ALBUM=%albumtitle%" -T "DATE=%year%" -T "TRACKNUMBER=%tracknr%" -T "GENRE=%genre%" -T "COMMENT=%comment%" -T "BAND=%albuminterpret%" -T "ALBUMARTIST=%albuminterpret%" -T "COMPOSER=%composer%" %haslyrics%–tag-from-file=LYRICS="%lyricsfile%"%haslyrics% -T "DISCNUMBER=%cdnumber%" -T "TOTALDISCS=%totalcds%" -T "TOTALTRACKS=%numtracks%" %hascover%–picture="%coverfile%"%hascover% %source% -o %dest%


TOC of the extracted CD

Track | Start | Length | Start sector | End sector
––––––––––––––––––––––––––––-
1 | 0:00.33 | 9:50.05 | 33 | 44287
2 | 9:50.38 | 5:11.47 | 44288 | 67659
3 | 15:02.10 | 5:14.25 | 67660 | 91234
4 | 20:16.35 | 6:05.30 | 91235 | 118639
5 | 26:21.65 | 5:20.28 | 118640 | 142667
6 | 31:42.18 | 5:28.55 | 142668 | 167322
7 | 37:10.73 | 5:37.22 | 167323 | 192619
8 | 42:48.20 | 1:58.40 | 192620 | 201509
9 | 44:46.60 | 2:43.50 | 201510 | 213784
10 | 47:30.35 | 1:13.33 | 213785 | 219292
11 | 48:43.68 | 3:08.05 | 219293 | 233397
12 | 51:51.73 | 2:20.55 | 233398 | 243952
13 | 54:12.53 | 2:25.22 | 243953 | 254849


Range status and errors

Selected range

Filename I:\Rips\Bach JS - 6 Brandenburg Concertos, 4 Orchestral Suites - Pinnock\CD2\Johann Sebastian Bach - 6 Brandenburg Concertos , 4 Orchestral Suites (Disc 2).wav

Peak level 85.8 %
Extraction speed 1.9 X
Range quality 99.9 %
Test CRC 63AA8F1E
Copy CRC 63AA8F1E
Copy OK

No errors occurred


AccurateRip summary

Track 1 accurately ripped (confidence 62) [495EACCE] (AR v2)
Track 2 accurately ripped (confidence 62) [F8875D48] (AR v2)
Track 3 accurately ripped (confidence 62) [B71AA0E9] (AR v2)
Track 4 accurately ripped (confidence 62) [4BBA4D15] (AR v2)
Track 5 accurately ripped (confidence 62) [32166F69] (AR v2)
Track 6 accurately ripped (confidence 62) [DD5D34C3] (AR v2)
Track 7 accurately ripped (confidence 64) [643BCFBA] (AR v2)
Track 8 accurately ripped (confidence 64) [E6171C45] (AR v2)
Track 9 accurately ripped (confidence 64) [31581D31] (AR v2)
Track 10 accurately ripped (confidence 64) [99D58B66] (AR v2)
Track 11 accurately ripped (confidence 64) [067DB631] (AR v2)
Track 12 accurately ripped (confidence 63) [2C5A4A2A] (AR v2)
Track 13 accurately ripped (confidence 62) [ADE7EC67] (AR v2)

All tracks accurately ripped

End of status report

–– CUETools DB Plugin V2.1.6

[CTDB TOCID: Gsuup_i2R_S3j9kdrMm1NhN05XI-] found
Submit result: Gsuup_i2R_S3j9kdrMm1NhN05XI- has been confirmed
Track | CTDB Status
1 | (362/366) Accurately ripped
2 | (357/366) Accurately ripped
3 | (301/366) Accurately ripped, or (56/366) differs in 96 samples @04:48:00-04:48:02,04:48:12-04:48:14
4 | (363/366) Accurately ripped
5 | (362/366) Accurately ripped
6 | (360/366) Accurately ripped
7 | (359/366) Accurately ripped
8 | (361/366) Accurately ripped
9 | (361/366) Accurately ripped
10 | (360/366) Accurately ripped
11 | (362/366) Accurately ripped
12 | (358/366) Accurately ripped
13 | (349/366) Accurately ripped


==== Log checksum 4476331F9B37A32B595E1DAC55F2387CAB46E856132AE4763120716E8EF4C55A ====


Exact Audio Copy V1.5 from 20. February 2020

EAC extraction logfile from 6. October 2020, 9:58

Johann Sebastian Bach / 6 Brandenburg Concertos / 4 Orchestral Suites

Used drive : HL-DT-STDVDRAM GH24NSD5 Adapter: 1 ID: 0

Read mode : Secure
Utilize accurate stream : Yes
Defeat audio cache : Yes
Make use of C2 pointers : No

Read offset correction : 6
Overread into Lead-In and Lead-Out : No
Fill up missing offset samples with silence : Yes
Delete leading and trailing silent blocks : No
Null samples used in CRC calculations : Yes
Used interface : Native Win32 interface for Win NT & 2000

Used output format : User Defined Encoder
Selected bitrate : 896 kBit/s
Quality : High
Add ID3 tag : No
Command line compressor : C:\Program Files (x86)\Exact Audio Copy\FLAC\FLAC.EXE
Additional command line options : -6 -V -T "ARTIST=%artist%" -T "TITLE=%title%" -T "ALBUM=%albumtitle%" -T "DATE=%year%" -T "TRACKNUMBER=%tracknr%" -T "GENRE=%genre%" -T "COMMENT=%comment%" -T "BAND=%albuminterpret%" -T "ALBUMARTIST=%albuminterpret%" -T "COMPOSER=%composer%" %haslyrics%–tag-from-file=LYRICS="%lyricsfile%"%haslyrics% -T "DISCNUMBER=%cdnumber%" -T "TOTALDISCS=%totalcds%" -T "TOTALTRACKS=%numtracks%" %hascover%–picture="%coverfile%"%hascover% %source% -o %dest%


TOC of the extracted CD

Track | Start | Length | Start sector | End sector
––––––––––––––––––––––––––––-
1 | 0:00.33 | 6:10.45 | 33 | 27827
2 | 6:11.03 | 1:58.30 | 27828 | 36707
3 | 8:09.33 | 2:53.45 | 36708 | 49727
4 | 11:03.03 | 1:56.55 | 49728 | 58482
5 | 12:59.58 | 3:41.32 | 58483 | 75089
6 | 16:41.15 | 1:30.48 | 75090 | 81887
7 | 18:11.63 | 1:38.27 | 81888 | 89264
8 | 19:50.15 | 6:05.28 | 89265 | 116667
9 | 25:55.43 | 4:49.57 | 116668 | 138399
10 | 30:45.25 | 3:18.65 | 138400 | 153314
11 | 34:04.15 | 1:11.70 | 153315 | 158709
12 | 35:16.10 | 2:56.73 | 158710 | 171982
13 | 38:13.08 | 7:22.02 | 171983 | 205134
14 | 45:35.10 | 2:39.73 | 205135 | 217132
15 | 48:15.08 | 2:03.35 | 217133 | 226392
16 | 50:18.43 | 3:54.67 | 226393 | 244009
17 | 54:13.35 | 2:42.68 | 244010 | 256227


Range status and errors

Selected range

Filename I:\Rips\Bach JS - 6 Brandenburg Concertos, 4 Orchestral Suites - Pinnock\CD3\Johann Sebastian Bach - 6 Brandenburg Concertos , 4 Orchestral Suites (Disc 3).wav

Peak level 90.1 %
Extraction speed 1.7 X
Range quality 100.0 %
Test CRC 754ECAF9
Copy CRC 754ECAF9
Copy OK

No errors occurred


AccurateRip summary

Track 1 accurately ripped (confidence 67) [EEA244BA] (AR v2)
Track 2 accurately ripped (confidence 67) [4458B8E6] (AR v2)
Track 3 accurately ripped (confidence 68) [42C2ADC3] (AR v2)
Track 4 accurately ripped (confidence 68) [909DDABA] (AR v2)
Track 5 accurately ripped (confidence 68) [C37B7D40] (AR v2)
Track 6 accurately ripped (confidence 68) [3D988617] (AR v2)
Track 7 accurately ripped (confidence 68) [CAF36FA9] (AR v2)
Track 8 accurately ripped (confidence 68) [B7E6BDEA] (AR v2)
Track 9 accurately ripped (confidence 67) [488B709B] (AR v2)
Track 10 accurately ripped (confidence 68) [7D99A267] (AR v2)
Track 11 accurately ripped (confidence 68) [10506B1A] (AR v2)
Track 12 accurately ripped (confidence 68) [4DCE579B] (AR v2)
Track 13 accurately ripped (confidence 68) [A296DA58] (AR v2)
Track 14 accurately ripped (confidence 68) [629FBF72] (AR v2)
Track 15 accurately ripped (confidence 68) [8B0F6C98] (AR v2)
Track 16 accurately ripped (confidence 65) [67BA45E6] (AR v2)
Track 17 accurately ripped (confidence 67) [B1E3DF5C] (AR v2)

All tracks accurately ripped

End of status report

–– CUETools DB Plugin V2.1.6

[CTDB TOCID: CRu.TaPMpGcfdgMYaZqyxz6GLCs-] found
Submit result: CRu.TaPMpGcfdgMYaZqyxz6GLCs- has been confirmed
Track | CTDB Status
1 | (268/271) Accurately ripped
2 | (267/271) Accurately ripped
3 | (267/271) Accurately ripped
4 | (268/271) Accurately ripped
5 | (267/271) Accurately ripped
6 | (268/271) Accurately ripped
7 | (268/271) Accurately ripped
8 | (268/271) Accurately ripped
9 | (268/271) Accurately ripped
10 | (268/271) Accurately ripped
11 | (268/271) Accurately ripped
12 | (268/271) Accurately ripped
13 | (267/271) Accurately ripped
14 | (265/271) Accurately ripped
15 | (265/271) Accurately ripped
16 | (265/271) Accurately ripped
17 | (266/271) Accurately ripped


==== Log checksum 9686C801DBD7A585FC37B4B4422ECF236BEBDC792CBAC00593126C8C22B851B0 ====

Trevor Pinnock, The English Concert - Bach: 6 Brandenburg Concertos; 4 Orchestral Suites (1988)

Thanks to the original releaser