Tags
Language
Tags

Trevor Sensor - Andy Warhol's Dream (2017)

Posted By: Pisulik
Trevor Sensor - Andy Warhol's Dream (2017)

Trevor Sensor - Andy Warhol's Dream (2017)
EAC Rip | FLAC (Tracks) +cue, log, m3u - 236 MB | MP3 CBR 320 kbps - 84 MB | 00:36:12
Indie Rock, Alternative Rock | Label: Jagjaguwar

It's Trevor Sensor's voice you notice first. A deep bubbling black tar pit of a sound, it's a voice whose unique timbre resonates far beyond the constraints of the songwriting format. It demands the listener reaches for a new vocabulary. The 23 year old's debut album Andy Warhol's Dream is part of a literate folk lineage that runs from Woody Guthrie and Bob Dylan through Tom Waits and onto the likes of Bon Iver, Bright Eyes and Sufjan Stevens today. It’s an unflinching honest album, transcendent in its exploration of self and sonically a collision between the classic and the forward-thinking. Sensor's debut EP for the label, 'Texas Girls and Jesus Christ', was written on a borrowed acoustic guitar and took him out into the world. 2016 saw him tour Europe before hitting the road in the US for tours with Foy Vance and The Staves. Andy Warhol's Dream was recorded to tape at Steve Albini's Electrical Audio and produced by both Jonathan Rado of Foxygen (The Lemon Twigs, Whitney) and songwriter/producer Richard Swift (Damien Jurado, Foxygen). His backing band featured members of Whitney. On these 11 songs Sensor doesn't so much wear his heart on his sleeve as flings it out in the darkness of the front rows that sit beyond the glare of the single blinding spotlight. This is the sound of one man’s soul laid bare, facing life head on.

TRACKLIST

01. High Beams
02. Lion's Pride
03. On Your Side
04. The Reaper Man
05. Stolen Boots
06. Andy Warhol’s Dream
07. It Wasn’t Good Enough
08. Sedgwick
09. In Hollywood, Everything is Plastic
10. The Money Gets Bigger
11. Starborne Eyes

Exact Audio Copy V1.3 from 2. September 2016

EAC extraction logfile from 11. June 2017, 15:52

Trevor Sensor / Andy Warhol's Dream

Used drive : hp CDDVDW SH-216DB Adapter: 1 ID: 0

Read mode : Secure
Utilize accurate stream : Yes
Defeat audio cache : Yes
Make use of C2 pointers : No

Read offset correction : 6
Overread into Lead-In and Lead-Out : No
Fill up missing offset samples with silence : Yes
Delete leading and trailing silent blocks : No
Null samples used in CRC calculations : Yes
Used interface : Native Win32 interface for Win NT & 2000
Gap handling : Appended to previous track

Used output format : User Defined Encoder
Selected bitrate : 896 kBit/s
Quality : High
Add ID3 tag : No
Command line compressor : C:\Program Files\flac-1.3.2-win\win64\flac.exe
Additional command line options : -8 -e -p -V -T "ARTIST=%artist%" -T "TITLE=%title%" -T "ALBUM=%albumtitle%" -T "DATE=%year%" -T "TRACKNUMBER=%tracknr%" -T "GENRE=%genre%" -T "PERFORMER=%albuminterpret%" -T "COMPOSER=%composer%" %haslyrics%–tag-from-file=LYRICS="%lyricsfile%"%haslyrics% -T "ALBUMARTIST=%albumartist%" -T "DISCNUMBER=%cdnumber%" -T "TOTALDISCS=%totalcds%" -T "TOTALTRACKS=%numtracks%" -T "COMMENT=%comment%" %source% -o %dest%


TOC of the extracted CD

Track | Start | Length | Start sector | End sector
––––––––––––––––––––––––––––-
1 | 0:00.00 | 3:25.73 | 0 | 15447
2 | 3:25.73 | 2:46.23 | 15448 | 27920
3 | 6:12.21 | 2:42.14 | 27921 | 40084
4 | 8:54.35 | 3:01.48 | 40085 | 53707
5 | 11:56.08 | 3:15.58 | 53708 | 68390
6 | 15:11.66 | 3:16.17 | 68391 | 83107
7 | 18:28.08 | 3:33.73 | 83108 | 99155
8 | 22:02.06 | 2:38.73 | 99156 | 111078
9 | 24:41.04 | 3:35.03 | 111079 | 127206
10 | 28:16.07 | 5:00.01 | 127207 | 149707
11 | 33:16.08 | 3:30.40 | 149708 | 165497


Track 1

Filename C:\EAC Rips\Trevor Sensor - Andy Warhol's Dream - 2017 - CD - FLAC\ 01 - High Beams.wav

Pre-gap length 0:00:02.00

Peak level 96.3 %
Extraction speed 1.7 X
Track quality 100.0 %
Test CRC A34CB73B
Copy CRC A34CB73B
Track not present in AccurateRip database
Copy OK

Track 2

Filename C:\EAC Rips\Trevor Sensor - Andy Warhol's Dream - 2017 - CD - FLAC\ 02 - Lion's Pride.wav

Pre-gap length 0:00:02.05

Peak level 96.3 %
Extraction speed 1.5 X
Track quality 99.9 %
Test CRC 078A5035
Copy CRC 078A5035
Track not present in AccurateRip database
Copy OK

Track 3

Filename C:\EAC Rips\Trevor Sensor - Andy Warhol's Dream - 2017 - CD - FLAC\ 03 - On Your Side.wav

Pre-gap length 0:00:02.01

Peak level 96.3 %
Extraction speed 1.9 X
Track quality 100.0 %
Test CRC F058B51D
Copy CRC F058B51D
Track not present in AccurateRip database
Copy OK

Track 4

Filename C:\EAC Rips\Trevor Sensor - Andy Warhol's Dream - 2017 - CD - FLAC\ 04 - The Reaper Man.wav

Pre-gap length 0:00:02.86

Peak level 96.3 %
Extraction speed 2.0 X
Track quality 100.0 %
Test CRC CDB4956B
Copy CRC CDB4956B
Track not present in AccurateRip database
Copy OK

Track 5

Filename C:\EAC Rips\Trevor Sensor - Andy Warhol's Dream - 2017 - CD - FLAC\ 05 - Stolen Boots.wav

Pre-gap length 0:00:03.86

Peak level 96.3 %
Extraction speed 2.2 X
Track quality 100.0 %
Test CRC BB937922
Copy CRC BB937922
Track not present in AccurateRip database
Copy OK

Track 6

Filename C:\EAC Rips\Trevor Sensor - Andy Warhol's Dream - 2017 - CD - FLAC\ 06 - Andy Warhol’s Dream.wav

Pre-gap length 0:00:03.72

Peak level 96.3 %
Extraction speed 1.9 X
Track quality 99.9 %
Test CRC AC0F911F
Copy CRC AC0F911F
Track not present in AccurateRip database
Copy OK

Track 7

Filename C:\EAC Rips\Trevor Sensor - Andy Warhol's Dream - 2017 - CD - FLAC\ 07 - It Wasn’t Good Enough.wav

Pre-gap length 0:00:03.81

Peak level 96.3 %
Extraction speed 2.5 X
Track quality 100.0 %
Test CRC 6BDE5E81
Copy CRC 6BDE5E81
Track not present in AccurateRip database
Copy OK

Track 8

Filename C:\EAC Rips\Trevor Sensor - Andy Warhol's Dream - 2017 - CD - FLAC\ 08 - Sedgwick.wav

Pre-gap length 0:00:03.02

Peak level 96.3 %
Extraction speed 2.5 X
Track quality 100.0 %
Test CRC 89CB3015
Copy CRC 89CB3015
Track not present in AccurateRip database
Copy OK

Track 9

Filename C:\EAC Rips\Trevor Sensor - Andy Warhol's Dream - 2017 - CD - FLAC\ 09 - In Hollywood, Everything is Plastic.wav

Pre-gap length 0:00:02.80

Peak level 96.3 %
Extraction speed 2.7 X
Track quality 100.0 %
Test CRC 910B3511
Copy CRC 910B3511
Track not present in AccurateRip database
Copy OK

Track 10

Filename C:\EAC Rips\Trevor Sensor - Andy Warhol's Dream - 2017 - CD - FLAC\ 10 - The Money Gets Bigger.wav

Pre-gap length 0:00:01.73

Peak level 96.3 %
Extraction speed 2.9 X
Track quality 100.0 %
Test CRC 7C0695F9
Copy CRC 7C0695F9
Track not present in AccurateRip database
Copy OK

Track 11

Filename C:\EAC Rips\Trevor Sensor - Andy Warhol's Dream - 2017 - CD - FLAC\ 11 - Starborne Eyes.wav

Pre-gap length 0:00:03.64

Peak level 96.3 %
Extraction speed 2.9 X
Track quality 100.0 %
Test CRC 1ABCA3E4
Copy CRC 1ABCA3E4
Track not present in AccurateRip database
Copy OK


None of the tracks are present in the AccurateRip database

No errors occurred

End of status report

–– CUETools DB Plugin V2.1.6

[CTDB TOCID: askVwC5a2i251HQBp16dKE_g0mc-] disk not present in database
Submit result: askVwC5a2i251HQBp16dKE_g0mc- has been uploaded


==== Log checksum CF26E29325A1A612B3375217E1C8C97A5AE064F3B557210BC385B9E8E83B93CF ====


All thanks go to the original releaser