Subcategories

U2 - The Best Of 1980-1990 & B-sides (1998) [Island UICY-9242~3, Japan]

Posted By: v3122
U2 - The Best Of 1980-1990 & B-sides (1998) [Island UICY-9242~3, Japan]

U2 - The Best Of 1980-1990 & B-sides (1998)
EAC | Flac(Image) + Cue + Log & MP3 CBR 320Kbps
2CD | Island UICY-9242~3 | ~ 842 or 366 Mb | Artwork(jpg) -> 46 Mb
Pop Rock, Alternative Rock, New wave

As one of the most popular bands of the '80s, U2 didn't quite fit into any particular category. They were a post-punk band that quickly found acceptance from a hard rock audience, a group that made fully formed albums but often made their best statements on individual songs, especially during the '80s. Consequently, they're a very hard band to anthologize. Since they were most effective on single songs, it seems that throwing all of them together on one disc would work. The problem is, each of the albums, from Boy to Rattle and Hum, has a distinctive flavor that doesn't necessarily blend when combined, especially in the nonchronological form of The Best of 1980-1990. There's little quibbling with the featured tracks on U2's first compilation – a few important songs, such as "Gloria," "I Fall Down," "Seconds," and "Two Hearts Beat as One," may be missing, but everything else deserves to be here ("Pride," "New Year's Day," "With or Without You," "I Still Haven't Found What I'm Looking For," "Sunday Bloody Sunday," "Bad," "Desire," etc.). Even though the song selection is strong, the album winds up as less than the sum of its parts – each song is pretty great of its own accord (even the single mix of the B-side "Sweetest Thing," which is, in truth, not much different at all), but the overall effect is a little underwhelming. On one hand, it may be a good choice for casual fans or nostalgia mongers, since it does contain everything they need to hear, but anyone who has more than a passing interest in the band will be better suited with individual albums.

by Stephen Thomas Erlewine, allmusic
U2 - The Best Of 1980-1990 & B-sides (1998) [Island UICY-9242~3, Japan]

U2 - The Best Of 1980-1990 & B-sides (1998):

U2 - The Best Of 1980-1990 & B-sides (1998) [Island UICY-9242~3, Japan]

Tracklist CD1:

01.Pride (In the Name of Love) (3:50)
02.New Year's Day (4:19)
03.With or Without You (4:59)
04.I Still Haven't Found What I'm Looking For (4:41)
05.Sunday Bloody Sunday (4:42)
06.Bad (5:52)
07.Where the Streets Have No Name (4:36)
08.I Will Follow (3:38)
09.The Unforgettable Fire (4:55)
10.Sweetest Thing [The single mix] (3:03)
11.Desire (3:00)
12.When Love Comes To Town (4:18)
13.Angel of Harlem (3:50)
14.All I Want Is You (6:31)
15.One Tree Hill (5:22)

Exact Audio Copy V1.0 beta 2 from 29. April 2011

EAC extraction logfile from 29. October 2011, 10:35

U2 / THE BEST OF 1980 - 1990

Used drive : ASUS DRW-1814BLT Adapter: 0 ID: 1

Read mode : Secure
Utilize accurate stream : Yes
Defeat audio cache : Yes
Make use of C2 pointers : No

Read offset correction : 6
Overread into Lead-In and Lead-Out : No
Fill up missing offset samples with silence : Yes
Delete leading and trailing silent blocks : No
Null samples used in CRC calculations : Yes
Used interface : Native Win32 interface for Win NT & 2000
Gap handling : Appended to previous track

Used output format : User Defined Encoder
Selected bitrate : 128 kBit/s
Quality : High
Add ID3 tag : No
Command line compressor : C:\Program Files (x86)\Exact Audio Copy\Flac\flac.exe
Additional command line options : -V -8 -T "Genre=%genre%" -T "Artist=%artist%" -T "Title=%title%" -T "Album=%albumtitle%" -T "Date=%year%" -T "Tracknumber=%tracknr%" -T "Comment=%comment%" %source%


TOC of the extracted CD

Track | Start | Length | Start sector | End sector
––––––––––––––––––––––––––––-
1 | 0:00.00 | 3:50.13 | 0 | 17262
2 | 3:50.13 | 4:18.62 | 17263 | 36674
3 | 8:09.00 | 4:58.70 | 36675 | 59094
4 | 13:07.70 | 4:40.50 | 59095 | 80144
5 | 17:48.45 | 4:42.08 | 80145 | 101302
6 | 22:30.53 | 5:51.55 | 101303 | 127682
7 | 28:22.33 | 4:36.10 | 127683 | 148392
8 | 32:58.43 | 3:38.12 | 148393 | 164754
9 | 36:36.55 | 4:55.08 | 164755 | 186887
10 | 41:31.63 | 3:02.72 | 186888 | 200609
11 | 44:34.60 | 2:59.58 | 200610 | 214092
12 | 47:34.43 | 4:18.07 | 214093 | 233449
13 | 51:52.50 | 3:50.10 | 233450 | 250709
14 | 55:42.60 | 6:31.18 | 250710 | 280052
15 | 62:14.03 | 8:44.60 | 280053 | 319412


Track 1

Filename F:\=MUSIC=\U2 Discography\U2 - 1998 - The Best Of 1980-1990 + B-Sides [2CD Japan]\01. Pride (In the Name of Love).wav

Pre-gap length 0:00:02.00

Peak level 100.0 %
Extraction speed 3.5 X
Track quality 100.0 %
Test CRC B812EC15
Copy CRC B812EC15
Accurately ripped (confidence 2) [A1D555AD] (AR v1)
Copy OK

Track 2

Filename F:\=MUSIC=\U2 Discography\U2 - 1998 - The Best Of 1980-1990 + B-Sides [2CD Japan]\02. New Year's Day.wav

Pre-gap length 0:00:01.53

Peak level 100.0 %
Extraction speed 4.0 X
Track quality 100.0 %
Test CRC 920F6589
Copy CRC 920F6589
Accurately ripped (confidence 2) [35C89B60] (AR v1)
Copy OK

Track 3

Filename F:\=MUSIC=\U2 Discography\U2 - 1998 - The Best Of 1980-1990 + B-Sides [2CD Japan]\03. With or Without You.wav

Pre-gap length 0:00:01.60

Peak level 100.0 %
Extraction speed 4.4 X
Track quality 100.0 %
Test CRC 602F8A0B
Copy CRC 602F8A0B
Accurately ripped (confidence 2) [0D726A28] (AR v1)
Copy OK

Track 4

Filename F:\=MUSIC=\U2 Discography\U2 - 1998 - The Best Of 1980-1990 + B-Sides [2CD Japan]\04. I Still Haven't Found What I'm Looking For.wav

Pre-gap length 0:00:03.55

Peak level 100.0 %
Extraction speed 4.7 X
Track quality 100.0 %
Test CRC 68F7502F
Copy CRC 68F7502F
Accurately ripped (confidence 2) [295A5690] (AR v1)
Copy OK

Track 5

Filename F:\=MUSIC=\U2 Discography\U2 - 1998 - The Best Of 1980-1990 + B-Sides [2CD Japan]\05. Sunday Bloody Sunday.wav

Pre-gap length 0:00:02.60

Peak level 100.0 %
Extraction speed 5.1 X
Track quality 100.0 %
Test CRC 69EB7C0F
Copy CRC 69EB7C0F
Accurately ripped (confidence 2) [080B8ED7] (AR v1)
Copy OK

Track 6

Filename F:\=MUSIC=\U2 Discography\U2 - 1998 - The Best Of 1980-1990 + B-Sides [2CD Japan]\06. Bad.wav

Pre-gap length 0:00:02.45

Peak level 99.8 %
Extraction speed 5.6 X
Track quality 100.0 %
Test CRC A5063D9E
Copy CRC A5063D9E
Accurately ripped (confidence 2) [04D08B78] (AR v1)
Copy OK

Track 7

Filename F:\=MUSIC=\U2 Discography\U2 - 1998 - The Best Of 1980-1990 + B-Sides [2CD Japan]\07. Where the Streets Have No Name.wav

Pre-gap length 0:00:02.18

Peak level 100.0 %
Extraction speed 5.7 X
Track quality 100.0 %
Test CRC 04CFC99A
Copy CRC 04CFC99A
Accurately ripped (confidence 2) [4286F15F] (AR v1)
Copy OK

Track 8

Filename F:\=MUSIC=\U2 Discography\U2 - 1998 - The Best Of 1980-1990 + B-Sides [2CD Japan]\08. I Will Follow.wav

Pre-gap length 0:00:01.08

Peak level 100.0 %
Extraction speed 5.6 X
Track quality 100.0 %
Test CRC A8E10B90
Copy CRC A8E10B90
Accurately ripped (confidence 2) [5DBBFFB3] (AR v1)
Copy OK

Track 9

Filename F:\=MUSIC=\U2 Discography\U2 - 1998 - The Best Of 1980-1990 + B-Sides [2CD Japan]\09. The Unforgettable Fire.wav

Pre-gap length 0:00:02.25

Peak level 100.0 %
Extraction speed 5.6 X
Track quality 99.9 %
Test CRC 665F27B8
Copy CRC 665F27B8
Accurately ripped (confidence 2) [09043FBA] (AR v1)
Copy OK

Track 10

Filename F:\=MUSIC=\U2 Discography\U2 - 1998 - The Best Of 1980-1990 + B-Sides [2CD Japan]\10. Sweetest Thing [The single mix].wav

Pre-gap length 0:00:01.53

Peak level 100.0 %
Extraction speed 5.8 X
Track quality 100.0 %
Test CRC 7A296BC8
Copy CRC 7A296BC8
Accurately ripped (confidence 2) [1B1C6BD4] (AR v1)
Copy OK

Track 11

Filename F:\=MUSIC=\U2 Discography\U2 - 1998 - The Best Of 1980-1990 + B-Sides [2CD Japan]\11. Desire.wav

Pre-gap length 0:00:03.00

Peak level 100.0 %
Extraction speed 5.9 X
Track quality 100.0 %
Test CRC 72BD6C9C
Copy CRC 72BD6C9C
Accurately ripped (confidence 2) [C3D1B561] (AR v1)
Copy OK

Track 12

Filename F:\=MUSIC=\U2 Discography\U2 - 1998 - The Best Of 1980-1990 + B-Sides [2CD Japan]\12. When Love Comes To Town.wav

Pre-gap length 0:00:01.15

Peak level 100.0 %
Extraction speed 6.3 X
Track quality 100.0 %
Test CRC 08BF28BF
Copy CRC 08BF28BF
Accurately ripped (confidence 2) [DEB30BE6] (AR v1)
Copy OK

Track 13

Filename F:\=MUSIC=\U2 Discography\U2 - 1998 - The Best Of 1980-1990 + B-Sides [2CD Japan]\13. Angel of Harlem.wav

Pre-gap length 0:00:00.67

Peak level 100.0 %
Extraction speed 6.6 X
Track quality 100.0 %
Test CRC B7BD1A04
Copy CRC B7BD1A04
Accurately ripped (confidence 2) [6940B17B] (AR v1)
Copy OK

Track 14

Filename F:\=MUSIC=\U2 Discography\U2 - 1998 - The Best Of 1980-1990 + B-Sides [2CD Japan]\14. All I Want Is You.wav

Pre-gap length 0:00:00.20

Peak level 100.0 %
Extraction speed 3.0 X
Track quality 99.7 %
Test CRC 0465F333
Copy CRC 0465F333
Accurately ripped (confidence 2) [6DDE83FB] (AR v1)
Copy OK

Track 15

Filename F:\=MUSIC=\U2 Discography\U2 - 1998 - The Best Of 1980-1990 + B-Sides [2CD Japan]\15. One Tree Hill.wav

Pre-gap length 0:00:01.25

Peak level 100.0 %
Extraction speed 6.0 X
Track quality 100.0 %
Test CRC FB7073ED
Copy CRC FB7073ED
Cannot be verified as accurate (confidence 5) [B38B17FE], AccurateRip returned [756A5410] (AR v2)
Copy OK


14 трек(и) скопированы точно
1 трек(и) не удалось проверить на точность

Some tracks could not be verified as accurate

No errors occurred

End of status report

==== Log checksum 49F4B24F5EA029F45E9B05D994F57B3AB7E9A4FB60D3D0B8CD6E8ABD198760F7 ====


[CUETools log; Date: 20.12.2018 21:17:26; Version: 2.1.4]
[AccurateRip ID: 0024ef31-01a2ea8e-da10a20f] found.
Track [ CRC | V2 ] Status
01 [a1d555ad|6c61148e] (02+13/96) Accurately ripped
02 [35c89b60|566c8336] (02+13/95) Accurately ripped
03 [0d726a28|90113aa9] (02+13/93) Accurately ripped
04 [295a5690|281d0e9a] (02+13/96) Accurately ripped
05 [080b8ed7|2588b016] (02+13/97) Accurately ripped
06 [04d08b78|6aab9ec2] (02+13/97) Accurately ripped
07 [4286f15f|4645591d] (02+13/94) Accurately ripped
08 [5dbbffb3|60b45edf] (02+13/96) Accurately ripped
09 [09043fba|44a5a948] (02+13/96) Accurately ripped
10 [1b1c6bd4|ec829e90] (02+13/97) Accurately ripped
11 [c3d1b561|82796fc8] (02+13/97) Accurately ripped
12 [deb30be6|d2977544] (02+12/96) Accurately ripped
13 [6940b17b|fe00de07] (02+13/97) Accurately ripped
14 [6dde83fb|74fc276d] (02+13/95) Accurately ripped
15 [0c797aed|b38b17fe] (00+13/87) Accurately ripped
Offsetted by -100:
01 [ea69f81f] (02/96) Accurately ripped
02 [25855049] (02/95) Accurately ripped
03 [8a9508e0] (02/93) Accurately ripped
04 [4171a7d1] (02/96) Accurately ripped
05 [33eac307] (02/97) Accurately ripped
06 [bb19ecf6] (02/97) Accurately ripped
07 [d28544f2] (02/94) Accurately ripped
08 [774bf337] (02/96) Accurately ripped
09 [cbc23cae] (02/96) Accurately ripped
10 [eee57a18] (02/97) Accurately ripped
11 [e98e83aa] (02/97) Accurately ripped
12 [1c858917] (02/96) Accurately ripped
13 [c2bd2ef6] (02/97) Accurately ripped
14 [705fd41b] (02/95) Accurately ripped
15 [69cc0cfa] (02/87) Accurately ripped
Offsetted by -99:
01 [3f0a3d1a] (06/96) Accurately ripped
02 [05a4a3d5] (06/95) Accurately ripped
03 [9d30739b] (06/93) Accurately ripped
04 [ac57851e] (06/96) Accurately ripped
05 [fdddf343] (06/97) Accurately ripped
06 [51baeac3] (06/97) Accurately ripped
07 [64e471b2] (06/94) Accurately ripped
08 [1cb7cb17] (06/96) Accurately ripped
09 [8c9277a1] (06/96) Accurately ripped
10 [c76a30a8] (06/97) Accurately ripped
11 [5df9ba4b] (06/97) Accurately ripped
12 [0570a81f] (06/96) Accurately ripped
13 [471cc61f] (06/97) Accurately ripped
14 [2a2cd38f] (06/95) Accurately ripped
15 [756a5410] (06/87) Accurately ripped
Offsetted by 27:
01 [1d3d36a4] (03/96) Accurately ripped
02 [0a0f27d7] (03/95) Accurately ripped
03 [586ece47] (03/93) Accurately ripped
04 [6e693d1d] (03/96) Accurately ripped
05 [4abe9f5e] (03/97) Accurately ripped
06 [ccceca8e] (03/97) Accurately ripped
07 [5b26916d] (03/94) Accurately ripped
08 [10f08991] (03/96) Accurately ripped
09 [518b4b61] (03/96) Accurately ripped
10 [38b5fed3] (03/97) Accurately ripped
11 [f3c9a61b] (03/97) Accurately ripped
12 [ec59fed4] (03/96) Accurately ripped
13 [80608c47] (03/97) Accurately ripped
14 [96c21f17] (03/95) Accurately ripped
15 [2d01d84e] (03/87) Accurately ripped
Offsetted by 85:
01 [045eef11] (02/96) Accurately ripped
02 [b635e269] (02/95) Accurately ripped
03 [c91c46b5] (02/93) Accurately ripped
04 [09a376f0] (02/96) Accurately ripped
05 [eead7e9c] (02/97) Accurately ripped
06 [426d6903] (02/97) Accurately ripped
07 [187a0ebd] (02/94) Accurately ripped
08 [f628ffa8] (02/96) Accurately ripped
09 [265d5760] (02/96) Accurately ripped
10 [2d08b166] (02/97) Accurately ripped
11 [d6d3ad62] (02/97) Accurately ripped
12 [54e70566] (02/96) Accurately ripped
13 [b76bdbea] (02/97) Accurately ripped
14 [ed26cfa5] (02/95) Accurately ripped
15 [f607b5f4] (02/87) Accurately ripped
Offsetted by 197:
01 [df569d09] (02/96) Accurately ripped
02 [0a61dd04] (02/95) Accurately ripped
03 [439384dd] (02/93) Accurately ripped
04 [d1da509f] (02/96) Accurately ripped
05 [f3176c0e] (02/97) Accurately ripped
06 [0d1c07c5] (02/97) Accurately ripped
07 [90693f8d] (02/94) Accurately ripped
08 [a373b32f] (02/96) Accurately ripped
09 [abe5b57a] (02/96) Accurately ripped
10 [b06889d3] (02/97) Accurately ripped
11 [6fda4d79] (02/97) Accurately ripped
12 [ab2d7afd] (02/96) Accurately ripped
13 [5be188d7] (02/97) Accurately ripped
14 [d31a8ae8] (02/95) Accurately ripped
15 [e096df3c] (02/87) Accurately ripped
Offsetted by 288:
01 [ff5d90b1] (05/96) Accurately ripped
02 [f05c1049] (05/95) Accurately ripped
03 [5acb2426] (05/93) Accurately ripped
04 [1b49a6a0] (05/96) Accurately ripped
05 [564f5e4c] (05/97) Accurately ripped
06 [66c395f6] (05/97) Accurately ripped
07 [865bf5fd] (05/94) Accurately ripped
08 [20e0a462] (05/96) Accurately ripped
09 [a8d8d475] (05/96) Accurately ripped
10 [369d53af] (05/97) Accurately ripped
11 [37983f81] (05/97) Accurately ripped
12 [9ce2fa32] (05/96) Accurately ripped
13 [51399e31] (05/97) Accurately ripped
14 [a0b84289] (05/95) Accurately ripped
15 [2e9737e4] (05/87) Accurately ripped
Offsetted by -8:
01 [3f1e7eb6] (00/96) No match (V2 was not tested)
02 [e6eb056c] (00/95) No match (V2 was not tested)
03 [73aad340] (00/93) No match (V2 was not tested)
04 [dfbc02b5] (00/96) No match (V2 was not tested)
05 [bae90e8d] (00/97) No match (V2 was not tested)
06 [b9469be1] (00/97) No match (V2 was not tested)
07 [c8126bbb] (00/94) No match (V2 was not tested)
08 [1b136691] (00/96) No match (V2 was not tested)
09 [f8bbd402] (00/96) No match (V2 was not tested)
10 [d710ff5a] (00/97) No match (V2 was not tested)
11 [e00ee796] (00/97) No match (V2 was not tested)
12 [6bf0019d] (00/96) No match (V2 was not tested)
13 [09636ce3] (00/97) No match (V2 was not tested)
14 [f0791a72] (00/95) No match (V2 was not tested)
15 [ff858a82] (00/87) No match (V2 was not tested)
Offsetted by 19:
01 [9b3bb658] (00/96) No match (V2 was not tested)
02 [66f19206] (00/95) No match (V2 was not tested)
03 [3411bffe] (00/93) No match (V2 was not tested)
04 [451c5154] (00/96) No match (V2 was not tested)
05 [fe541f41] (00/97) No match (V2 was not tested)
06 [f7edf063] (00/97) No match (V2 was not tested)
07 [5ab49f75] (00/94) No match (V2 was not tested)
08 [0740231b] (00/96) No match (V2 was not tested)
09 [5cba32b4] (00/96) No match (V2 was not tested)
10 [f4857486] (00/97) No match (V2 was not tested)
11 [2dfac279] (00/97) No match (V2 was not tested)
12 [235c41e8] (00/96) No match (V2 was not tested)
13 [fc066bcf] (00/97) No match (V2 was not tested)
14 [4f480fae] (00/95) No match (V2 was not tested)
15 [e974b420] (00/87) No match (V2 was not tested)
Offsetted by 25:
01 [cb668f4b] (00/96) No match (V2 was not tested)
02 [f5a85774] (00/95) No match (V2 was not tested)
03 [e7fee8ac] (00/93) No match (V2 was not tested)
04 [74bba4ef] (00/96) No match (V2 was not tested)
05 [b7a93f59] (00/97) No match (V2 was not tested)
06 [9c646f7a] (00/97) No match (V2 was not tested)
07 [672508f6] (00/94) No match (V2 was not tested)
08 [5ab6d5e2] (00/96) No match (V2 was not tested)
09 [e882d5a7] (00/96) No match (V2 was not tested)
10 [36a6a3af] (00/97) No match (V2 was not tested)
11 [bed36b62] (00/97) No match (V2 was not tested)
12 [23490e22] (00/96) No match (V2 was not tested)
13 [318df233] (00/97) No match (V2 was not tested)
14 [6782db3c] (00/95) No match (V2 was not tested)
15 [9e80fbe7] (00/87) No match (V2 was not tested)
Offsetted by 65:
01 [e0cf869a] (00/96) No match (V2 was not tested)
02 [9f3c41e3] (00/95) No match (V2 was not tested)
03 [2e679f7c] (00/93) No match (V2 was not tested)
04 [a6c234a8] (00/96) No match (V2 was not tested)
05 [3300bf36] (00/97) No match (V2 was not tested)
06 [191c7f66] (00/97) No match (V2 was not tested)
07 [7ef9cd99] (00/94) No match (V2 was not tested)
08 [06dd9d0d] (00/96) No match (V2 was not tested)
09 [c514398b] (00/96) No match (V2 was not tested)
10 [5de07b62] (00/97) No match (V2 was not tested)
11 [e259aad4] (00/97) No match (V2 was not tested)
12 [27f75b17] (00/96) No match (V2 was not tested)
13 [3773b378] (00/97) No match (V2 was not tested)
14 [030f6dfa] (00/95) No match (V2 was not tested)
15 [919c1a32] (00/87) No match (V2 was not tested)
Offsetted by 84:
01 [acfd1e04] (00/96) No match (V2 was not tested)
02 [d6118eee] (00/95) No match (V2 was not tested)
03 [69c37be4] (00/93) No match (V2 was not tested)
04 [c1499962] (00/96) No match (V2 was not tested)
05 [25534ea8] (00/97) No match (V2 was not tested)
06 [9ef47987] (00/97) No match (V2 was not tested)
07 [869ae292] (00/94) No match (V2 was not tested)
08 [4eb1bf10] (00/96) No match (V2 was not tested)
09 [d1bdb132] (00/96) No match (V2 was not tested)
10 [ac1b83d6] (00/97) No match (V2 was not tested)
11 [4150b096] (00/97) No match (V2 was not tested)
12 [17d43995] (00/96) No match (V2 was not tested)
13 [ec58fceb] (00/97) No match (V2 was not tested)
14 [ff13bb7c] (00/95) No match (V2 was not tested)
15 [4ff56e61] (00/87) No match (V2 was not tested)
Offsetted by 208:
01 [b48962cf] (00/96) No match (V2 was not tested)
02 [f37994ad] (00/95) No match (V2 was not tested)
03 [b8100384] (00/93) No match (V2 was not tested)
04 [0fffd740] (00/96) No match (V2 was not tested)
05 [95a67904] (00/97) No match (V2 was not tested)
06 [10f59aa8] (00/97) No match (V2 was not tested)
07 [5182b2a6] (00/94) No match (V2 was not tested)
08 [141ea41b] (00/96) No match (V2 was not tested)
09 [4a37d12a] (00/96) No match (V2 was not tested)
10 [6fd892c8] (00/97) No match (V2 was not tested)
11 [fa1b7cb5] (00/97) No match (V2 was not tested)
12 [1be8f29d] (00/96) No match (V2 was not tested)
13 [67f6b135] (00/97) No match (V2 was not tested)
14 [a7676742] (00/95) No match (V2 was not tested)
15 [4037ab52] (00/87) No match (V2 was not tested)

Track Peak [ CRC32 ] [W/O NULL] [ LOG ]
– 100,0 [EC6BA34D] [B85D0BC0]
01 100,0 [B812EC15] [60F6856E] CRC32
02 100,0 [920F6589] [D7CC8562] CRC32
03 100,0 [602F8A0B] [0444B4CA] CRC32
04 100,0 [68F7502F] [D2902C68] CRC32
05 100,0 [69EB7C0F] [BC5643AE] CRC32
06 99,8 [A5063D9E] [9945A1BF] CRC32
07 100,0 [04CFC99A] [161746F2] CRC32
08 100,0 [A8E10B90] [27957C47] CRC32
09 100,0 [665F27B8] [D2F902BE] CRC32
10 100,0 [7A296BC8] [A71BEE29] CRC32
11 100,0 [72BD6C9C] [8094BA61] CRC32
12 100,0 [08BF28BF] [08712CD3] CRC32
13 100,0 [B7BD1A04] [C9268F87] CRC32
14 100,0 [0465F333] [8688A4E7] CRC32
15 100,0 [FB7073ED] [6292A23D] CRC32


U2 - The Best Of 1980-1990 & B-sides (1998) [Island UICY-9242~3, Japan]

Tracklist CD2:

01.The Three Sunrises (3:55)
02.Spanish Eyes (3:17)
03.Sweetest Thing (3:05)
04.Love Comes Tumbling (4:43)
05.Bass Trap (3:33)
06.Dancing Barefoot (4:48)
07.Everlasting Love (3:23)
08.Unchained Melody (4:54)
09.Walk To The Water (4:49)
10.Luminous Times (Hold On To Love) (4:38)
11.Hallelujah Here She Comes (4:02)
12.Silver And Gold (4:40)
13.Endless Deep (3:00)
14.A Room At The Heartbreak Hotel (4:34)
15.Trash, Trampoline And The Party Girl (2:34)

Exact Audio Copy V1.0 beta 2 from 29. April 2011

EAC extraction logfile from 29. October 2011, 14:38

U2 / B-SIDES

Used drive : ASUS DRW-1814BLT Adapter: 0 ID: 1

Read mode : Secure
Utilize accurate stream : Yes
Defeat audio cache : Yes
Make use of C2 pointers : No

Read offset correction : 6
Overread into Lead-In and Lead-Out : No
Fill up missing offset samples with silence : Yes
Delete leading and trailing silent blocks : No
Null samples used in CRC calculations : Yes
Used interface : Native Win32 interface for Win NT & 2000
Gap handling : Appended to previous track

Used output format : User Defined Encoder
Selected bitrate : 128 kBit/s
Quality : High
Add ID3 tag : No
Command line compressor : C:\Program Files (x86)\Exact Audio Copy\Flac\flac.exe
Additional command line options : -V -8 -T "Genre=%genre%" -T "Artist=%artist%" -T "Title=%title%" -T "Album=%albumtitle%" -T "Date=%year%" -T "Tracknumber=%tracknr%" -T "Comment=%comment%" %source%


TOC of the extracted CD

Track | Start | Length | Start sector | End sector
––––––––––––––––––––––––––––-
1 | 0:00.00 | 3:54.52 | 0 | 17601
2 | 3:54.52 | 3:16.45 | 17602 | 32346
3 | 7:11.22 | 3:05.00 | 32347 | 46221
4 | 10:16.22 | 4:42.43 | 46222 | 67414
5 | 14:58.65 | 3:33.15 | 67415 | 83404
6 | 18:32.05 | 4:47.60 | 83405 | 104989
7 | 23:19.65 | 3:22.40 | 104990 | 120179
8 | 26:42.30 | 4:54.05 | 120180 | 142234
9 | 31:36.35 | 4:49.12 | 142235 | 163921
10 | 36:25.47 | 4:37.50 | 163922 | 184746
11 | 41:03.22 | 4:02.20 | 184747 | 202916
12 | 45:05.42 | 4:39.58 | 202917 | 223899
13 | 49:45.25 | 2:59.60 | 223900 | 237384
14 | 52:45.10 | 4:34.35 | 237385 | 257969
15 | 57:19.45 | 2:33.65 | 257970 | 269509


Track 1

Filename F:\=MUSIC=\U2 Discography\U2 - 1998 - THE BEST OF 1980-1990 + B-SIDES [2CD Japan]\Disc 2 of 2 (THE B-SIDES)\01. The Three Sunrises.wav

Pre-gap length 0:00:02.00

Peak level 100.0 %
Extraction speed 4.4 X
Track quality 99.9 %
Test CRC 07C3F3D5
Copy CRC 07C3F3D5
Accurately ripped (confidence 2) [C534F87C] (AR v1)
Copy OK

Track 2

Filename F:\=MUSIC=\U2 Discography\U2 - 1998 - THE BEST OF 1980-1990 + B-SIDES [2CD Japan]\Disc 2 of 2 (THE B-SIDES)\02. Spanish Eyes.wav

Pre-gap length 0:00:02.47

Peak level 100.0 %
Extraction speed 5.4 X
Track quality 100.0 %
Test CRC A59FD35A
Copy CRC A59FD35A
Accurately ripped (confidence 2) [7C1862AB] (AR v1)
Copy OK

Track 3

Filename F:\=MUSIC=\U2 Discography\U2 - 1998 - THE BEST OF 1980-1990 + B-SIDES [2CD Japan]\Disc 2 of 2 (THE B-SIDES)\03. Sweetest Thing.wav

Pre-gap length 0:00:01.57

Peak level 100.0 %
Extraction speed 5.7 X
Track quality 100.0 %
Test CRC EC5686FE
Copy CRC EC5686FE
Accurately ripped (confidence 2) [D47C3BC6] (AR v1)
Copy OK

Track 4

Filename F:\=MUSIC=\U2 Discography\U2 - 1998 - THE BEST OF 1980-1990 + B-SIDES [2CD Japan]\Disc 2 of 2 (THE B-SIDES)\04. Love Comes Tumbling.wav

Pre-gap length 0:00:02.25

Peak level 99.8 %
Extraction speed 6.5 X
Track quality 100.0 %
Test CRC C8DD0269
Copy CRC C8DD0269
Accurately ripped (confidence 2) [9E8DE4EE] (AR v1)
Copy OK

Track 5

Filename F:\=MUSIC=\U2 Discography\U2 - 1998 - THE BEST OF 1980-1990 + B-SIDES [2CD Japan]\Disc 2 of 2 (THE B-SIDES)\05. Bass Trap.wav

Pre-gap length 0:00:01.48

Peak level 84.7 %
Extraction speed 6.7 X
Track quality 100.0 %
Test CRC F238CBCC
Copy CRC F238CBCC
Accurately ripped (confidence 2) [901AEA20] (AR v1)
Copy OK

Track 6

Filename F:\=MUSIC=\U2 Discography\U2 - 1998 - THE BEST OF 1980-1990 + B-SIDES [2CD Japan]\Disc 2 of 2 (THE B-SIDES)\06. Dancing Barefoot.wav

Pre-gap length 0:00:02.20

Peak level 100.0 %
Extraction speed 6.6 X
Track quality 99.9 %
Test CRC FCA0893D
Copy CRC FCA0893D
Accurately ripped (confidence 2) [F7355041] (AR v1)
Copy OK

Track 7

Filename F:\=MUSIC=\U2 Discography\U2 - 1998 - THE BEST OF 1980-1990 + B-SIDES [2CD Japan]\Disc 2 of 2 (THE B-SIDES)\07. Everlasting Love.wav

Pre-gap length 0:00:02.35

Peak level 100.0 %
Extraction speed 6.3 X
Track quality 99.9 %
Test CRC 91E53FC0
Copy CRC 91E53FC0
Accurately ripped (confidence 2) [C412C968] (AR v1)
Copy OK

Track 8

Filename F:\=MUSIC=\U2 Discography\U2 - 1998 - THE BEST OF 1980-1990 + B-SIDES [2CD Japan]\Disc 2 of 2 (THE B-SIDES)\08. Unchained Melody.wav

Pre-gap length 0:00:03.15

Peak level 100.0 %
Extraction speed 8.1 X
Track quality 100.0 %
Test CRC 0EEA2DC4
Copy CRC 0EEA2DC4
Accurately ripped (confidence 2) [2281C579] (AR v1)
Copy OK

Track 9

Filename F:\=MUSIC=\U2 Discography\U2 - 1998 - THE BEST OF 1980-1990 + B-SIDES [2CD Japan]\Disc 2 of 2 (THE B-SIDES)\09. Walk To The Water.wav

Pre-gap length 0:00:02.08

Peak level 100.0 %
Extraction speed 7.6 X
Track quality 99.9 %
Test CRC D07A9201
Copy CRC D07A9201
Accurately ripped (confidence 2) [3A2B3A8E] (AR v1)
Copy OK

Track 10

Filename F:\=MUSIC=\U2 Discography\U2 - 1998 - THE BEST OF 1980-1990 + B-SIDES [2CD Japan]\Disc 2 of 2 (THE B-SIDES)\10. Luminous Times (Hold On To Love).wav

Pre-gap length 0:00:00.62

Peak level 100.0 %
Extraction speed 8.8 X
Track quality 100.0 %
Test CRC 37970A6E
Copy CRC 37970A6E
Accurately ripped (confidence 2) [5AAA81D2] (AR v1)
Copy OK

Track 11

Filename F:\=MUSIC=\U2 Discography\U2 - 1998 - THE BEST OF 1980-1990 + B-SIDES [2CD Japan]\Disc 2 of 2 (THE B-SIDES)\11. Hallelujah Here She Comes.wav

Pre-gap length 0:00:03.02

Peak level 99.8 %
Extraction speed 8.8 X
Track quality 100.0 %
Test CRC E8D8F820
Copy CRC E8D8F820
Accurately ripped (confidence 2) [316C5504] (AR v1)
Copy OK

Track 12

Filename F:\=MUSIC=\U2 Discography\U2 - 1998 - THE BEST OF 1980-1990 + B-SIDES [2CD Japan]\Disc 2 of 2 (THE B-SIDES)\12. Silver And Gold.wav

Pre-gap length 0:00:03.00

Peak level 100.0 %
Extraction speed 9.3 X
Track quality 100.0 %
Test CRC C2B36247
Copy CRC C2B36247
Accurately ripped (confidence 2) [639DAB17] (AR v1)
Copy OK

Track 13

Filename F:\=MUSIC=\U2 Discography\U2 - 1998 - THE BEST OF 1980-1990 + B-SIDES [2CD Japan]\Disc 2 of 2 (THE B-SIDES)\13. Endless Deep.wav

Pre-gap length 0:00:02.50

Peak level 100.0 %
Extraction speed 9.0 X
Track quality 100.0 %
Test CRC 08C630BC
Copy CRC 08C630BC
Accurately ripped (confidence 2) [B0B8F774] (AR v1)
Copy OK

Track 14

Filename F:\=MUSIC=\U2 Discography\U2 - 1998 - THE BEST OF 1980-1990 + B-SIDES [2CD Japan]\Disc 2 of 2 (THE B-SIDES)\14. A Room At The Heartbreak Hotel.wav

Pre-gap length 0:00:02.15

Peak level 100.0 %
Extraction speed 9.8 X
Track quality 100.0 %
Test CRC FE519D2B
Copy CRC FE519D2B
Accurately ripped (confidence 2) [F06F38A8] (AR v1)
Copy OK

Track 15

Filename F:\=MUSIC=\U2 Discography\U2 - 1998 - THE BEST OF 1980-1990 + B-SIDES [2CD Japan]\Disc 2 of 2 (THE B-SIDES)\15. Trash, Trampoline And The Party Girl.wav

Pre-gap length 0:00:00.70

Peak level 100.0 %
Extraction speed 9.0 X
Track quality 100.0 %
Test CRC 46E94570
Copy CRC 46E94570
Cannot be verified as accurate (confidence 200) [34BDE7B3], AccurateRip returned [C91D0757] (AR v2)
Copy OK


14 трек(и) скопированы точно
1 трек(и) не удалось проверить на точность

Some tracks could not be verified as accurate

No errors occurred

End of status report

==== Log checksum 562BA4F1FF839FCE5C15FDA3B8528AD54F1EAD48291FD90191ADD42FB2C90E97 ====


[CUETools log; Date: 20.12.2018 21:21:20; Version: 2.1.4]
[AccurateRip ID: 0020e0fb-01782e35-cb0e090f] found.
Track [ CRC | V2 ] Status
01 [c534f87c|7e14da6e] (002+004/1646) Accurately ripped
02 [7c1862ab|4b539fc7] (002+004/1654) Accurately ripped
03 [d47c3bc6|24562b99] (002+004/1655) Accurately ripped
04 [9e8de4ee|ad8927d2] (002+004/1654) Accurately ripped
05 [901aea20|3396097e] (002+004/1648) Accurately ripped
06 [f7355041|ce097669] (002+004/1653) Accurately ripped
07 [c412c968|32534486] (002+004/1649) Accurately ripped
08 [2281c579|b2bb7518] (002+004/1647) Accurately ripped
09 [3a2b3a8e|ac799dbb] (002+004/1650) Accurately ripped
10 [5aaa81d2|05d45ce6] (002+004/1646) Accurately ripped
11 [316c5504|4709a619] (002+004/1651) Accurately ripped
12 [639dab17|eb82ae8d] (002+004/1637) Accurately ripped
13 [b0b8f774|f2da131c] (002+004/1633) Accurately ripped
14 [f06f38a8|b7a4222f] (002+004/1632) Accurately ripped
15 [55001733|34bde7b3] (000+004/1621) Accurately ripped
Offsetted by -2487:
01 [9e65ba43] (004/1646) Accurately ripped
02 [e117c42c] (004/1654) Accurately ripped
03 [0343dfa7] (004/1655) Accurately ripped
04 [13b67920] (004/1654) Accurately ripped
05 [a54b77b2] (004/1648) Accurately ripped
06 [a9435614] (004/1653) Accurately ripped
07 [11b1b393] (004/1649) Accurately ripped
08 [8e52b26e] (004/1647) Accurately ripped
09 [eff9c650] (004/1650) Accurately ripped
10 [fdd1a380] (004/1646) Accurately ripped
11 [fa657eec] (004/1651) Accurately ripped
12 [4f24c405] (004/1637) Accurately ripped
13 [a47b7ac7] (004/1633) Accurately ripped
14 [d5c5e14f] (004/1632) Accurately ripped
15 [d5196a9c] (004/1621) Accurately ripped
Offsetted by -1818:
01 [a7aaf151] (136/1646) Accurately ripped
02 [efb57526] (138/1654) Accurately ripped
03 [60676189] (136/1655) Accurately ripped
04 [ae7f21cc] (135/1654) Accurately ripped
05 [eb10a56d] (134/1648) Accurately ripped
06 [86e5eec6] (132/1653) Accurately ripped
07 [4257e304] (135/1649) Accurately ripped
08 [cced0e80] (136/1647) Accurately ripped
09 [d6f6bc8a] (136/1650) Accurately ripped
10 [338e0440] (135/1646) Accurately ripped
11 [22db47b7] (135/1651) Accurately ripped
12 [78071e90] (135/1637) Accurately ripped
13 [9a406164] (135/1633) Accurately ripped
14 [91fb5b78] (135/1632) Accurately ripped
15 [2200e25b] (136/1621) Accurately ripped
Offsetted by -1175:
01 [cde99bcb] (027/1646) Accurately ripped
02 [2820e7f6] (027/1654) Accurately ripped
03 [1adcf3b8] (027/1655) Accurately ripped
04 [ae19d57a] (027/1654) Accurately ripped
05 [3ca85dd3] (027/1648) Accurately ripped
06 [16cacd7f] (029/1653) Accurately ripped
07 [c3e5bbec] (027/1649) Accurately ripped
08 [c7ea49e4] (027/1647) Accurately ripped
09 [a13ce43b] (027/1650) Accurately ripped
10 [2b75b473] (027/1646) Accurately ripped
11 [963680af] (027/1651) Accurately ripped
12 [5a4d3910] (026/1637) Accurately ripped
13 [8ad5aee1] (026/1633) Accurately ripped
14 [616b80e8] (026/1632) Accurately ripped
15 [043f2472] (026/1621) Accurately ripped
Offsetted by -1174:
01 [d352f05f] (067/1646) Accurately ripped
02 [e32d4d39] (066/1654) Accurately ripped
03 [3ed27ae1] (066/1655) Accurately ripped
04 [1e5bfbb2] (068/1654) Accurately ripped
05 [9c9cf3ce] (066/1648) Accurately ripped
06 [c167e2f2] (065/1653) Accurately ripped
07 [ab644848] (065/1649) Accurately ripped
08 [07c4d823] (065/1647) Accurately ripped
09 [b6a93385] (065/1650) Accurately ripped
10 [32c338bf] (065/1646) Accurately ripped
11 [df8e549a] (066/1651) Accurately ripped
12 [5e21a3bb] (065/1637) Accurately ripped
13 [5da44b95] (065/1633) Accurately ripped
14 [282aa6d1] (063/1632) Accurately ripped
15 [35dd98b3] (063/1621) Accurately ripped
Offsetted by -1173:
01 [6facd687] (007/1646) Accurately ripped
02 [9c2e84c7] (007/1654) Accurately ripped
03 [d28b0d79] (007/1655) Accurately ripped
04 [9251de4a] (007/1654) Accurately ripped
05 [2f90369d] (007/1648) Accurately ripped
06 [bd71fc1c] (007/1653) Accurately ripped
07 [4d13d762] (008/1649) Accurately ripped
08 [67992989] (008/1647) Accurately ripped
09 [3a093fcb] (007/1650) Accurately ripped
10 [61a2bd0c] (007/1646) Accurately ripped
11 [2844224a] (008/1651) Accurately ripped
12 [86f8bdc0] (007/1637) Accurately ripped
13 [22cceaef] (007/1633) Accurately ripped
14 [c4f9080a] (008/1632) Accurately ripped
15 [e79306c7] (008/1621) Accurately ripped
Offsetted by -1172:
01 [881e18b5] (011/1646) Accurately ripped
02 [a32f3576] (011/1654) Accurately ripped
03 [f049177c] (011/1655) Accurately ripped
04 [26c2b929] (011/1654) Accurately ripped
05 [8f82cc9a] (011/1648) Accurately ripped
06 [1098bd76] (011/1653) Accurately ripped
07 [eb0863bd] (011/1649) Accurately ripped
08 [89d1995f] (011/1647) Accurately ripped
09 [781d8f14] (011/1650) Accurately ripped
10 [913b19c9] (011/1646) Accurately ripped
11 [719cf630] (011/1651) Accurately ripped
12 [48346bbf] (011/1637) Accurately ripped
13 [f3eb825b] (011/1633) Accurately ripped
14 [3d9bdf22] (011/1632) Accurately ripped
15 [980ff97a] (011/1621) Accurately ripped
Offsetted by -1138:
01 [2d17ecb8] (017/1646) Accurately ripped
02 [6884836d] (017/1654) Accurately ripped
03 [f9c600e6] (017/1655) Accurately ripped
04 [428fa08c] (017/1654) Accurately ripped
05 [fd1d6488] (017/1648) Accurately ripped
06 [71fe873d] (017/1653) Accurately ripped
07 [68ae55d7] (017/1649) Accurately ripped
08 [b749085b] (017/1647) Accurately ripped
09 [3a2eda04] (016/1650) Accurately ripped
10 [8b6410b0] (017/1646) Accurately ripped
11 [25d9bec3] (017/1651) Accurately ripped
12 [cc18cd2e] (017/1637) Accurately ripped
13 [f7995d5f] (017/1633) Accurately ripped
14 [5ccc3dcc] (017/1632) Accurately ripped
15 [aec06dfa] (017/1621) Accurately ripped
Offsetted by -1137:
01 [a2eb0a2c] (049/1646) Accurately ripped
02 [037c6f8a] (049/1654) Accurately ripped
03 [0a729382] (049/1655) Accurately ripped
04 [23c4c6be] (049/1654) Accurately ripped
05 [e4b50c53] (049/1648) Accurately ripped
06 [c1ecf49c] (049/1653) Accurately ripped
07 [be1c7537] (049/1649) Accurately ripped
08 [fa6f1d08] (049/1647) Accurately ripped
09 [261f94ec] (049/1650) Accurately ripped
10 [699de476] (049/1646) Accurately ripped
11 [6e778c28] (047/1651) Accurately ripped
12 [03002a70] (048/1637) Accurately ripped
13 [cb63f4d8] (046/1633) Accurately ripped
14 [ac520192] (046/1632) Accurately ripped
15 [e527dbee] (045/1621) Accurately ripped
Offsetted by -1124:
01 [b1c11ad0] (041/1646) Accurately ripped
02 [d9299152] (041/1654) Accurately ripped
03 [e873c66e] (041/1655) Accurately ripped
04 [e8093f63] (041/1654) Accurately ripped
05 [749b8a9f] (041/1648) Accurately ripped
06 [abde7977] (041/1653) Accurately ripped
07 [21a61291] (041/1649) Accurately ripped
08 [826ccc7d] (041/1647) Accurately ripped
09 [0ae882c0] (041/1650) Accurately ripped
10 [62729eb0] (041/1646) Accurately ripped
11 [213718bc] (041/1651) Accurately ripped
12 [edecbd1b] (041/1637) Accurately ripped
13 [2201e7ed] (041/1633) Accurately ripped
14 [e0b37a7e] (041/1632) Accurately ripped
15 [688e120d] (039/1621) Accurately ripped
Offsetted by -1058:
01 [ce915c46] (200/1646) Accurately ripped
02 [679ee7a1] (200/1654) Accurately ripped
03 [ad48a5a9] (200/1655) Accurately ripped
04 [f936bad4] (200/1654) Accurately ripped
05 [a013993d] (200/1648) Accurately ripped
06 [d5708ae6] (200/1653) Accurately ripped
07 [7f76634c] (200/1649) Accurately ripped
08 [be7e4484] (200/1647) Accurately ripped
09 [961298ab] (200/1650) Accurately ripped
10 [3d2874cd] (200/1646) Accurately ripped
11 [d2a4dfb0] (200/1651) Accurately ripped
12 [63865099] (200/1637) Accurately ripped
13 [989c0479] (200/1633) Accurately ripped
14 [4901bf50] (200/1632) Accurately ripped
15 [c91d0757] (200/1621) Accurately ripped
Offsetted by -429:
01 [1344f7de] (011/1646) Accurately ripped
02 [a400098c] (011/1654) Accurately ripped
03 [cf00aa5d] (012/1655) Accurately ripped
04 [493de066] (012/1654) Accurately ripped
05 [5a9bc072] (012/1648) Accurately ripped
06 [019755d6] (012/1653) Accurately ripped
07 [ddb0ba5b] (012/1649) Accurately ripped
08 [8ee57908] (011/1647) Accurately ripped
09 [23712af8] (012/1650) Accurately ripped
10 [f388b785] (012/1646) Accurately ripped
11 [7a41cefd] (012/1651) Accurately ripped
12 [f8591b76] (012/1637) Accurately ripped
13 [11d6ad6e] (011/1633) Accurately ripped
14 [21926a04] (012/1632) Accurately ripped
15 [cfb9e11a] (012/1621) Accurately ripped
Offsetted by -238:
01 [9a4edcfe] (019/1646) Accurately ripped
02 [564a72e5] (019/1654) Accurately ripped
03 [2686dfcb] (019/1655) Accurately ripped
04 [f78ecc90] (019/1654) Accurately ripped
05 [8bf26f2e] (019/1648) Accurately ripped
06 [43ee947e] (018/1653) Accurately ripped
07 [e6f72a36] (019/1649) Accurately ripped
08 [ec4979cd] (019/1647) Accurately ripped
09 [9890d50d] (019/1650) Accurately ripped
10 [018f565b] (019/1646) Accurately ripped
11 [1e011282] (019/1651) Accurately ripped
12 [a0b13896] (019/1637) Accurately ripped
13 [3549922a] (019/1633) Accurately ripped
14 [f2f11742] (019/1632) Accurately ripped
15 [900c6719] (018/1621) Accurately ripped
Offsetted by -76:
01 [29887a4f] (008/1646) Accurately ripped
02 [78b6a9bc] (008/1654) Accurately ripped
03 [0321ad7f] (008/1655) Accurately ripped
04 [de0a35c6] (008/1654) Accurately ripped
05 [4f8b6d69] (008/1648) Accurately ripped
06 [956b0ec1] (008/1653) Accurately ripped
07 [d3d46ea3] (007/1649) Accurately ripped
08 [9918386d] (007/1647) Accurately ripped
09 [c7f82625] (007/1650) Accurately ripped
10 [dacd648e] (007/1646) Accurately ripped
11 [9ae6207f] (007/1651) Accurately ripped
12 [4fdc794c] (007/1637) Accurately ripped
13 [f16dbe3a] (007/1633) Accurately ripped
14 [f4adea22] (007/1632) Accurately ripped
15 [e2ce3ad7] (007/1621) Accurately ripped
Offsetted by 7:
01 [caaa6770] (006/1646) Accurately ripped
02 [f01ac053] (006/1654) Accurately ripped
03 [5ef71b25] (006/1655) Accurately ripped
04 [bc39fac6] (006/1654) Accurately ripped
05 [db64b423] (006/1648) Accurately ripped
06 [82859f23] (006/1653) Accurately ripped
07 [83933660] (006/1649) Accurately ripped
08 [28c6eaa3] (006/1647) Accurately ripped
09 [eee7c3d2] (006/1650) Accurately ripped
10 [6bc8b560] (006/1646) Accurately ripped
11 [17bf0c3e] (006/1651) Accurately ripped
12 [d68dcf34] (006/1637) Accurately ripped
13 [29a63fca] (006/1633) Accurately ripped
14 [adc4ef8a] (006/1632) Accurately ripped
15 [3693bd7a] (006/1621) Accurately ripped
Offsetted by 359:
01 [c4ba9fbf] (012/1646) Accurately ripped
02 [d9495719] (012/1654) Accurately ripped
03 [bc33af2b] (012/1655) Accurately ripped
04 [d69a1c10] (011/1654) Accurately ripped
05 [f6fd3559] (012/1648) Accurately ripped
06 [370426cb] (012/1653) Accurately ripped
07 [c3174db8] (011/1649) Accurately ripped
08 [a16276e8] (012/1647) Accurately ripped
09 [674d6a78] (012/1650) Accurately ripped
10 [8ae52b3d] (012/1646) Accurately ripped
11 [95317203] (012/1651) Accurately ripped
12 [657f83d2] (011/1637) Accurately ripped
13 [e47990db] (012/1633) Accurately ripped
14 [17b04bbd] (011/1632) Accurately ripped
15 [e6810e98] (012/1621) Accurately ripped
Offsetted by 524:
01 [f455ada8] (030/1646) Accurately ripped
02 [47655571] (031/1654) Accurately ripped
03 [92eecc29] (031/1655) Accurately ripped
04 [fcf597ec] (031/1654) Accurately ripped
05 [4cef25e8] (030/1648) Accurately ripped
06 [7311e103] (031/1653) Accurately ripped
07 [30d98407] (030/1649) Accurately ripped
08 [94d0dcdc] (030/1647) Accurately ripped
09 [10f63fe0] (031/1650) Accurately ripped
10 [ae63497e] (031/1646) Accurately ripped
11 [f742786d] (031/1651) Accurately ripped
12 [92e89892] (031/1637) Accurately ripped
13 [c61f6214] (030/1633) Accurately ripped
14 [74f0f2de] (031/1632) Accurately ripped
15 [1385bc10] (031/1621) Accurately ripped
Offsetted by 831:
01 [a522f99c] (064/1646) Accurately ripped
02 [e4df7c54] (066/1654) Accurately ripped
03 [5160aaae] (067/1655) Accurately ripped
04 [a9541ee4] (067/1654) Accurately ripped
05 [4b007a5b] (067/1648) Accurately ripped
06 [92fbc23e] (067/1653) Accurately ripped
07 [51066b54] (067/1649) Accurately ripped
08 [f30d4fbc] (066/1647) Accurately ripped
09 [14503b32] (067/1650) Accurately ripped
10 [0ea82418] (067/1646) Accurately ripped
11 [dc3465c6] (066/1651) Accurately ripped
12 [32a59025] (067/1637) Accurately ripped
13 [c0e24118] (067/1633) Accurately ripped
14 [659add49] (066/1632) Accurately ripped
15 [f6e519ce] (061/1621) Accurately ripped
More than 16 offsets match!
Offsetted by -2756:
01 [4a2bfa7e] (002/1646) Accurately ripped
02 [b61a182d] (002/1654) Accurately ripped
03 [8183ea15] (002/1655) Accurately ripped
04 [a4164211] (002/1654) Accurately ripped
05 [c54f7b1f] (000/1648) No match (V2 was not tested)
06 [7e962474] (002/1653) Accurately ripped
07 [bfe8ab4d] (002/1649) Accurately ripped
08 [26cc86fe] (002/1647) Accurately ripped
09 [3b8edeaa] (002/1650) Accurately ripped
10 [5fcf3b79] (002/1646) Accurately ripped
11 [10359519] (002/1651) Accurately ripped
12 [af2bba53] (002/1637) Accurately ripped
13 [d17f107f] (002/1633) Accurately ripped
14 [ba2fe32e] (002/1632) Accurately ripped
15 [50f629fa] (000/1621) No match (V2 was not tested)
Offsetted by -2529:
01 [7339da67] (000/1646) No match (V2 was not tested)
02 [6f2ee36a] (002/1654) Accurately ripped
03 [20278897] (002/1655) Accurately ripped
04 [5dbc75a5] (002/1654) Accurately ripped
05 [48dda4cc] (002/1648) Accurately ripped
06 [ba021cf6] (002/1653) Accurately ripped
07 [33ab8e6d] (002/1649) Accurately ripped
08 [076fa71a] (002/1647) Accurately ripped
09 [bdf05408] (002/1650) Accurately ripped
10 [5a68c52a] (002/1646) Accurately ripped
11 [ab6d5de2] (002/1651) Accurately ripped
12 [7591188e] (002/1637) Accurately ripped
13 [2508d5d1] (002/1633) Accurately ripped
14 [5ddd5a38] (000/1632) No match (V2 was not tested)
15 [27934a1d] (000/1621) No match (V2 was not tested)
Offsetted by -2510:
01 [ff129d72] (000/1646) No match (V2 was not tested)
02 [8684c82f] (000/1654) No match (V2 was not tested)
03 [8ff8a129] (000/1655) No match (V2 was not tested)
04 [7858a598] (000/1654) No match (V2 was not tested)
05 [e5c22aef] (000/1648) No match (V2 was not tested)
06 [da2788ae] (000/1653) No match (V2 was not tested)
07 [75bb3b9c] (000/1649) No match (V2 was not tested)
08 [6eae1ca1] (000/1647) No match (V2 was not tested)
09 [5b9e10a6] (000/1650) No match (V2 was not tested)
10 [b614bc53] (000/1646) No match (V2 was not tested)
11 [3bd4cd79] (000/1651) No match (V2 was not tested)
12 [5b236cb8] (000/1637) No match (V2 was not tested)
13 [53887181] (000/1633) No match (V2 was not tested)
14 [433cd61e] (000/1632) No match (V2 was not tested)
15 [a3407e3d] (000/1621) No match (V2 was not tested)
Offsetted by -2477:
01 [e0bf7c4b] (000/1646) No match
02 [2f106057] (000/1654) No match (V2 was not tested)
03 [c68cedd9] (000/1655) No match
04 [ebf7e875] (000/1654) No match
05 [13aa98b2] (000/1648) No match
06 [6503efd2] (000/1653) No match
07 [70c6f792] (000/1649) No match
08 [26646759] (000/1647) No match
09 [90a1fa8d] (000/1650) No match
10 [541676a8] (000/1646) No match
11 [eaf4a948] (000/1651) No match
12 [58992b07] (000/1637) No match
13 [96ed9fbf] (000/1633) No match
14 [1f8bd0fe] (000/1632) No match
15 [a53f40c2] (000/1621) No match
Offsetted by -2212:
01 [470bcc1f] (000/1646) No match (V2 was not tested)
02 [2146457d] (000/1654) No match (V2 was not tested)
03 [2dd3439b] (000/1655) No match (V2 was not tested)
04 [3cb4c11b] (000/1654) No match (V2 was not tested)
05 [8d74a679] (000/1648) No match (V2 was not tested)
06 [8e83bd1b] (000/1653) No match (V2 was not tested)
07 [fcdc978e] (000/1649) No match (V2 was not tested)
08 [76ce7bd9] (000/1647) No match (V2 was not tested)
09 [d71ac6a4] (000/1650) No match (V2 was not tested)
10 [0f6dbe25] (000/1646) No match (V2 was not tested)
11 [bfa38d44] (000/1651) No match (V2 was not tested)
12 [a078e75e] (000/1637) No match (V2 was not tested)
13 [121c20b9] (000/1633) No match (V2 was not tested)
14 [4b3b06dc] (000/1632) No match (V2 was not tested)
15 [bbdcc65d] (000/1621) No match (V2 was not tested)
Offsetted by -1889:
01 [4b3eb326] (002/1646) Accurately ripped
02 [7af36e4a] (002/1654) Accurately ripped
03 [7f4e69d1] (002/1655) Accurately ripped
04 [61e8a035] (002/1654) Accurately ripped
05 [509e7f6c] (002/1648) Accurately ripped
06 [5a3a0e9e] (002/1653) Accurately ripped
07 [f6f8fbbc] (002/1649) Accurately ripped
08 [8352b32f] (002/1647) Accurately ripped
09 [04279831] (002/1650) Accurately ripped
10 [c19e9712] (002/1646) Accurately ripped
11 [9b9b708e] (002/1651) Accurately ripped
12 [bdef0def] (000/1637) No match (V2 was not tested)
13 [0679e570] (000/1633) No match (V2 was not tested)
14 [77dabe33] (000/1632) No match
15 [2bbc76c5] (000/1621) No match (V2 was not tested)
Offsetted by -1875:
01 [9031b89f] (000/1646) No match (V2 was not tested)
02 [1533c211] (000/1654) No match (V2 was not tested)
03 [a7cd3d14] (000/1655) No match (V2 was not tested)
04 [04774317] (000/1654) No match (V2 was not tested)
05 [3c53fb08] (000/1648) No match (V2 was not tested)
06 [fbc00692] (000/1653) No match (V2 was not tested)
07 [8d4bbde0] (000/1649) No match (V2 was not tested)
08 [471b0d6c] (000/1647) No match (V2 was not tested)
09 [81e5d67d] (000/1650) No match (V2 was not tested)
10 [a2b523cc] (000/1646) No match (V2 was not tested)
11 [a717e1da] (000/1651) No match (V2 was not tested)
12 [dbcd5da4] (000/1637) No match (V2 was not tested)
13 [2cf87d2b] (000/1633) No match (V2 was not tested)
14 [d3f60d60] (000/1632) No match (V2 was not tested)
15 [d3921141] (000/1621) No match (V2 was not tested)
Offsetted by -1860:
01 [0f7c3688] (000/1646) No match
02 [4a2dc5e9] (000/1654) No match
03 [f2459265] (000/1655) No match
04 [f3297d50] (000/1654) No match
05 [533084a4] (000/1648) No match
06 [478bbd39] (000/1653) No match
07 [a055e921] (000/1649) No match
08 [47743271] (000/1647) No match
09 [d4c78c4d] (000/1650) No match
10 [dd35e831] (000/1646) No match (V2 was not tested)
11 [fc801864] (000/1651) No match
12 [a8bec7d3] (000/1637) No match
13 [2bd3b4e2] (000/1633) No match
14 [46d0e457] (000/1632) No match
15 [31a51bd2] (000/1621) No match
Offsetted by -1409:
01 [45c1d8c2] (000/1646) No match (V2 was not tested)
02 [e2607343] (000/1654) No match (V2 was not tested)
03 [4aeedb06] (000/1655) No match (V2 was not tested)
04 [a693865b] (000/1654) No match (V2 was not tested)
05 [efb42f6f] (000/1648) No match (V2 was not tested)
06 [8d8acf55] (000/1653) No match (V2 was not tested)
07 [2cf9299b] (000/1649) No match (V2 was not tested)
08 [1cce24a5] (000/1647) No match (V2 was not tested)
09 [4bcbc891] (000/1650) No match (V2 was not tested)
10 [14726ab0] (000/1646) No match (V2 was not tested)
11 [71211c60] (000/1651) No match (V2 was not tested)
12 [a3062bbf] (000/1637) No match (V2 was not tested)
13 [e1624529] (000/1633) No match (V2 was not tested)
14 [2349fc1b] (000/1632) No match (V2 was not tested)
15 [083e50ac] (000/1621) No match (V2 was not tested)
Offsetted by -1404:
01 [7efaf9d2] (000/1646) No match (V2 was not tested)
02 [a8f1e412] (000/1654) No match (V2 was not tested)
03 [dbed24a2] (000/1655) No match (V2 was not tested)
04 [4ccbde83] (000/1654) No match (V2 was not tested)
05 [e0a0fec7] (000/1648) No match (V2 was not tested)
06 [8557f0d6] (000/1653) No match (V2 was not tested)
07 [4b7ca442] (000/1649) No match (V2 was not tested)
08 [e0606eb6] (000/1647) No match (V2 was not tested)
09 [9600f7ff] (000/1650) No match (V2 was not tested)
10 [63a23598] (000/1646) No match (V2 was not tested)
11 [d653304e] (000/1651) No match (V2 was not tested)
12 [2647d856] (000/1637) No match (V2 was not tested)
13 [cc9b5692] (000/1633) No match (V2 was not tested)
14 [c8d96970] (000/1632) No match (V2 was not tested)
15 [f8a9876a] (000/1621) No match (V2 was not tested)
Offsetted by -1131:
01 [77e9961f] (000/1646) No match
02 [90d2738a] (000/1654) No match
03 [b227e68a] (000/1655) No match
04 [5c124a4a] (000/1654) No match
05 [2758b33c] (000/1648) No match
06 [b8b1812e] (000/1653) No match
07 [c4a3eaac] (000/1649) No match
08 [9d24db20] (000/1647) No match
09 [fff1cff1] (000/1650) No match
10 [12cc12df] (000/1646) No match
11 [24016f04] (000/1651) No match
12 [80254bdd] (000/1637) No match
13 [8e3da93d] (002/1633) Accurately ripped
14 [1cfc48ad] (000/1632) No match
15 [8c0f03c4] (000/1621) No match
Offsetted by -1104:
01 [e8b9c33c] (000/1646) No match (V2 was not tested)
02 [8f84d096] (000/1654) No match (V2 was not tested)
03 [7f31d370] (000/1655) No match (V2 was not tested)
04 [9c09a592] (000/1654) No match (V2 was not tested)
05 [c111c168] (000/1648) No match (V2 was not tested)
06 [dfb5f981] (000/1653) No match (V2 was not tested)
07 [0568b1c3] (000/1649) No match (V2 was not tested)
08 [10604ff9] (000/1647) No match (V2 was not tested)
09 [9be38e42] (000/1650) No match (V2 was not tested)
10 [fe75e6e6] (000/1646) No match (V2 was not tested)
11 [d3027893] (000/1651) No match (V2 was not tested)
12 [59d9db14] (000/1637) No match (V2 was not tested)
13 [106b142d] (000/1633) No match (V2 was not tested)
14 [2d022353] (000/1632) No match (V2 was not tested)
15 [d25a5886] (000/1621) No match (V2 was not tested)
Offsetted by -1052:
01 [93ecc4b0] (000/1646) No match (V2 was not tested)
02 [d89a540f] (000/1654) No match (V2 was not tested)
03 [cb7ff29f] (000/1655) No match (V2 was not tested)
04 [7c101906] (000/1654) No match (V2 was not tested)
05 [261d6b0c] (000/1648) No match (V2 was not tested)
06 [1bf1c28a] (000/1653) No match (V2 was not tested)
07 [cceffc48] (000/1649) No match (V2 was not tested)
08 [c06cc701] (000/1647) No match (V2 was not tested)
09 [45473e24] (000/1650) No match (V2 was not tested)
10 [dd712fad] (000/1646) No match (V2 was not tested)
11 [823dbfe6] (000/1651) No match (V2 was not tested)
12 [ebc0a70f] (000/1637) No match (V2 was not tested)
13 [5f12a5c3] (000/1633) No match (V2 was not tested)
14 [63447d85] (000/1632) No match (V2 was not tested)
15 [f124a878] (000/1621) No match (V2 was not tested)
Offsetted by 146:
01 [cfca82ae] (000/1646) No match (V2 was not tested)
02 [8211bbf4] (000/1654) No match
03 [aa1b6146] (000/1655) No match
04 [0aa1a819] (000/1654) No match
05 [aa99194f] (000/1648) No match
06 [75d84666] (000/1653) No match
07 [c2deea84] (000/1649) No match
08 [0d1a38d5] (000/1647) No match
09 [06ef95a1] (000/1650) No match
10 [58918707] (000/1646) No match
11 [d7dad11c] (000/1651) No match
12 [d6b9f0c6] (000/1637) No match
13 [c5b3eb57] (000/1633) No match
14 [9196e8ec] (000/1632) No match (V2 was not tested)
15 [de2389d3] (000/1621) No match (V2 was not tested)
Offsetted by 185:
01 [a7aea6c2] (000/1646) No match (V2 was not tested)
02 [0ec97dac] (000/1654) No match (V2 was not tested)
03 [b26febed] (000/1655) No match (V2 was not tested)
04 [42f06ca4] (000/1654) No match (V2 was not tested)
05 [44e5e78a] (000/1648) No match (V2 was not tested)
06 [7bfccb8a] (000/1653) No match (V2 was not tested)
07 [0c519d7d] (000/1649) No match (V2 was not tested)
08 [d7244cd2] (000/1647) No match (V2 was not tested)
09 [2856eef5] (000/1650) No match (V2 was not tested)
10 [f2b90c70] (000/1646) No match (V2 was not tested)
11 [5d5fabe0] (000/1651) No match (V2 was not tested)
12 [57376420] (000/1637) No match (V2 was not tested)
13 [9dd99d42] (000/1633) No match (V2 was not tested)
14 [c65ef2cf] (000/1632) No match (V2 was not tested)
15 [bcd60560] (000/1621) No match (V2 was not tested)
Offsetted by 2631:
01 [7659fcd9] (000/1646) No match (V2 was not tested)
02 [a90567ce] (000/1654) No match (V2 was not tested)
03 [9cefbd8f] (000/1655) No match (V2 was not tested)
04 [9fb20366] (000/1654) No match (V2 was not tested)
05 [4a137489] (000/1648) No match (V2 was not tested)
06 [d852939a] (000/1653) No match (V2 was not tested)
07 [56139a59] (000/1649) No match (V2 was not tested)
08 [46ab9a05] (000/1647) No match (V2 was not tested)
09 [5f027620] (000/1650) No match (V2 was not tested)
10 [5c979974] (000/1646) No match (V2 was not tested)
11 [5c50368a] (000/1651) No match (V2 was not tested)
12 [7a0eb812] (000/1637) No match (V2 was not tested)
13 [428ce209] (000/1633) No match (V2 was not tested)
14 [3d2909b3] (000/1632) No match (V2 was not tested)
15 [978ddb58] (000/1621) No match (V2 was not tested)

Track Peak [ CRC32 ] [W/O NULL] [ LOG ]
– 100,0 [7D06F2B8] [4719D80F]
01 100,0 [07C3F3D5] [56FFEFF7] CRC32
02 100,0 [A59FD35A] [BF45FAB4] CRC32
03 100,0 [EC5686FE] [770AE5E9] CRC32
04 99,8 [C8DD0269] [B86514EA] CRC32
05 84,7 [F238CBCC] [411F7D5D] CRC32
06 100,0 [FCA0893D] [ED18D479] CRC32
07 100,0 [91E53FC0] [CC627865] CRC32
08 100,0 [0EEA2DC4] [5B7DBB19] CRC32
09 100,0 [D07A9201] [EFFC6785] CRC32
10 100,0 [37970A6E] [0EA12946] CRC32
11 99,8 [E8D8F820] [F1C0AC63] CRC32
12 100,0 [C2B36247] [36A7441A] CRC32
13 100,0 [08C630BC] [CF951F2C] CRC32
14 100,0 [FE519D2B] [C81B5277] CRC32
15 100,0 [46E94570] [C27586B7] CRC32


U2 - The Best Of 1980-1990 & B-sides (1998) [Island UICY-9242~3, Japan]

All thanks go to the original releaser

U2 or U2 in my Blog

Download U2 - The Best Of 1980-1990 & B-sides (1998):