Subcategories

U2: Singles Collection. Part 02 (1991 - 1995)

Posted By: v3122
U2: Singles Collection. Part 02 (1991 - 1995)

U2: Singles Collection. Part 02 (1991 - 1995)
EAC | Flac(Image) + Cue + Log & MP3 CBR 320Kbps
12CD | Label: Various | ~ 1535 or 667 Mb | Artwork(png) -> 187 Mb
Post Punk, New Wave, Rock

U2 are an Irish rock band from Dublin formed in 1976. The group consists of Bono (lead vocals and rhythm guitar), the Edge (lead guitar, keyboards, and backing vocals), Adam Clayton (bass guitar), and Larry Mullen Jr. (drums and percussion). Initially rooted in post-punk, U2's musical style has evolved throughout their career, yet has maintained an anthemic sound built on Bono's expressive vocals and the Edge's effects-based guitar textures. Their lyrics, often embellished with spiritual imagery, focus on personal and sociopolitical themes. Popular for their live performances, the group have staged several ambitious and elaborate tours over their career.

The band formed as teenagers while attending Mount Temple Comprehensive School, when they had limited musical proficiency. Within four years, they signed with Island Records and released their debut album, Boy (1980). Subsequent work such as their first UK number-one album, War (1983), and the singles "Sunday Bloody Sunday" and "Pride (In the Name of Love)" helped establish U2's reputation as a politically and socially conscious group. By the mid-1980s, they had become renowned globally for their live act, highlighted by their performance at Live Aid in 1985. The group's fifth album, The Joshua Tree (1987), made them international superstars and was their greatest critical and commercial success. Topping music charts around the world, it produced their only number-one singles in the US, "With or Without You" and "I Still Haven't Found What I'm Looking For".

Facing creative stagnation and a backlash following their documentary/double album, Rattle and Hum (1988), U2 reinvented themselves in the 1990s through a new musical direction and public image. Beginning with their acclaimed seventh album, Achtung Baby (1991), and the multimedia-intensive Zoo TV Tour, the band integrated influences from alternative rock, electronic dance music, and industrial music into their sound, and embraced a more ironic, flippant image. This experimentation continued through their ninth album, Pop (1997), and the PopMart Tour, which were mixed successes. U2 regained critical and commercial favour with the records All That You Can't Leave Behind (2000) and How to Dismantle an Atomic Bomb (2004), which established a more conventional, mainstream sound for the group. Their U2 360° Tour of 2009–2011 is the highest-attended and highest-grossing concert tour in history. The group most recently released the companion albums Songs of Innocence (2014) and Songs of Experience (2017), the former of which received criticism for its pervasive, no-cost release through the iTunes Store.

U2 have released 14 studio albums and are one of the world's best-selling music artists in history, having sold more than 170 million records worldwide. They have won 22 Grammy Awards, more than any other band, and in 2005, they were inducted into the Rock and Roll Hall of Fame in their first year of eligibility. Rolling Stone ranked U2 at number 22 on its list of the "100 Greatest Artists of All Time". Throughout their career, as a band and as individuals, they have campaigned for human rights and social justice causes, including Amnesty International, Jubilee 2000, the ONE/DATA campaigns, Product Red, War Child, and Music Rising…

~ wiki
U2: Singles Collection. Part 02 (1991 - 1995)

U2: Singles Collection. Part 02 (1991 - 1995):

U2: Singles Collection. Part 02 (1991 - 1995)

Tracklist CD01 - 1991 - Mysterious Ways [Germany, Island 664 930]:

01.Mysterious Ways (4:04)
02.Mysterious Ways (Solar Plexus Extended Club Mix) (7:02)
03.Mysterious Ways (Apollo 440 Magic Hour Remix) (4:26)
04.Mysterious Ways (Tabla Motown Remix) (4:29)
05.Mysterious Ways (Solar Plexus Club Mix) (4:10)

Exact Audio Copy V1.3 from 2. September 2016

EAC extraction logfile from 16. February 2018, 13:46

U2 / Mysterious Ways

Used drive : PLEXTOR DVDR PX-760A Adapter: 1 ID: 0

Read mode : Secure
Utilize accurate stream : Yes
Defeat audio cache : Yes
Make use of C2 pointers : No

Read offset correction : 30
Overread into Lead-In and Lead-Out : No
Fill up missing offset samples with silence : Yes
Delete leading and trailing silent blocks : No
Null samples used in CRC calculations : Yes
Used interface : Native Win32 interface for Win NT & 2000
Gap handling : Appended to previous track

Used output format : User Defined Encoder
Selected bitrate : 896 kBit/s
Quality : High
Add ID3 tag : No
Command line compressor : C:\Program Files (x86)\Exact Audio Copy\Flac\flac.exe
Additional command line options : -V -8 -T "Genre=%genre%" -T "Artist=%artist%" -T "Title=%title%" -T "Album=%albumtitle%" -T "Date=%year%" -T "Tracknumber=%tracknr%" -T "Comment=%comment%" %source%


TOC of the extracted CD

Track | Start | Length | Start sector | End sector
––––––––––––––––––––––––––––-
1 | 0:00.33 | 4:03.67 | 33 | 18324
2 | 4:04.25 | 7:01.43 | 18325 | 49942
3 | 11:05.68 | 4:26.07 | 49943 | 69899
4 | 15:32.00 | 4:28.38 | 69900 | 90037
5 | 20:00.38 | 4:09.67 | 90038 | 108779


Track 1

Filename D:\EAC_rips\01 - Mysterious Ways.wav

Pre-gap length 0:00:02.33

Peak level 100.0 %
Extraction speed 4.1 X
Track quality 100.0 %
Test CRC 9667ACC9
Copy CRC 9667ACC9
Accurately ripped (confidence 17) [B272D432] (AR v2)
Copy OK

Track 2

Filename D:\EAC_rips\02 - Mysterious Ways (Solar Plexus Extended Club Mix).wav

Pre-gap length 0:00:00.60

Peak level 92.6 %
Extraction speed 4.9 X
Track quality 100.0 %
Test CRC 059ECE9E
Copy CRC 059ECE9E
Accurately ripped (confidence 17) [65CB7898] (AR v2)
Copy OK

Track 3

Filename D:\EAC_rips\03 - Mysterious Ways (Apollo 440 Magic Hour Remix).wav

Peak level 98.8 %
Extraction speed 5.1 X
Track quality 100.0 %
Test CRC 550D798E
Copy CRC 550D798E
Accurately ripped (confidence 17) [A6F07396] (AR v2)
Copy OK

Track 4

Filename D:\EAC_rips\04 - Mysterious Ways (Tabla Motown Remix).wav

Peak level 100.0 %
Extraction speed 5.5 X
Track quality 100.0 %
Test CRC DE28822F
Copy CRC DE28822F
Accurately ripped (confidence 17) [166DDDE2] (AR v2)
Copy OK

Track 5

Filename D:\EAC_rips\05 - Mysterious Ways (Solar Plexus Club Mix).wav

Pre-gap length 0:00:00.10

Peak level 98.0 %
Extraction speed 5.7 X
Track quality 100.0 %
Test CRC A70A0B7D
Copy CRC A70A0B7D
Accurately ripped (confidence 16) [E1CB6127] (AR v2)
Copy OK


All tracks accurately ripped

No errors occurred

End of status report

–– CUETools DB Plugin V2.1.6

[CTDB TOCID: lmArqp5L7sn7EHPZj3mjJQfazOI-] found
Submit result: lmArqp5L7sn7EHPZj3mjJQfazOI- has been confirmed
Track | CTDB Status
1 | (14/14) Accurately ripped
2 | (14/14) Accurately ripped
3 | (14/14) Accurately ripped
4 | (14/14) Accurately ripped
5 | (14/14) Accurately ripped


==== Log checksum ACFD74036FB839702CB24914DF57C2BB7F306BCF400DDC0F81C32BC9064142AD ====


U2: Singles Collection. Part 02 (1991 - 1995)

Tracklist CD02 - 1991 - Mysterious Ways [Japan, Polystar Island PSDD-3001]:

01.Mysterious Ways (4:06)
02.Mysterious Ways (Solar Plexus Magic Hour Remix) (8:14)

X Lossless Decoder version 20151214 (149.1)

XLD extraction logfile from 2016-02-07 09:58:25 -0600

U2 / Mysterious Ways [JP, PSDD-3001]

Used drive : TSSTcorp BDDVDW SE-506CB (revision TS02)
Media type : Pressed CD

Ripper mode : XLD Secure Ripper
Disable audio cache : OK for the drive with a cache less than 1375KiB
Make use of C2 pointers : NO
Read offset correction : 6
Max retry count : 100
Gap status : Analyzed, Appended (except HTOA)

TOC of the extracted CD
Track | Start | Length | Start sector | End sector
––––––––––––––––––––––––––––-
1 | 00:00:00 | 04:05:52 | 0 | 18426
2 | 04:05:52 | 08:14:00 | 18427 | 55476

AccurateRip Summary (DiscID: 000120b0-00031a16-0f02e302)
Track 01 : OK (v1, confidence 1/1)
Track 02 : OK (v1, confidence 1/1)
->All tracks accurately ripped.

All Tracks
Album gain : -3.99 dB
Peak : 0.978668
Statistics
Read error : 0
Jitter error (maybe fixed) : 2
Retry sector count : 365
Damaged sector count : 0

Track 01
Filename : /Users/surlypants/Music/ripping/xld/U2/1991 Mysterious Ways [JP, PSDD-3001]/01 - Mysterious Ways.flac
Pre-gap length : 00:02:00

Track gain : -5.09 dB
Peak : 0.929199
CRC32 hash (test run) : 75615B7C
CRC32 hash : 75615B7C
CRC32 hash (skip zero) : FF9EFFDC
AccurateRip v1 signature : BC3A0693
AccurateRip v2 signature : E3D3A138
->Accurately ripped (v1, confidence 1/1)
Statistics
Read error : 0
Jitter error (maybe fixed) : 0
Retry sector count : 0
Damaged sector count : 0

Track 02
Filename : /Users/surlypants/Music/ripping/xld/U2/1991 Mysterious Ways [JP, PSDD-3001]/02 - Mysterious Ways (Solar Plexus Magic Hour Remix).flac
Pre-gap length : 00:01:45

Track gain : -2.23 dB
Peak : 0.978668
CRC32 hash (test run) : 80D1955A
CRC32 hash : 80D1955A
CRC32 hash (skip zero) : FF4DE7A6
AccurateRip v1 signature : BC374AEB
AccurateRip v2 signature : 22CA8180
->Accurately ripped (v1, confidence 1/1)
Statistics
Read error : 0
Jitter error (maybe fixed) : 2
Retry sector count : 365
Damaged sector count : 0

No errors occurred

End of status report

––-BEGIN XLD SIGNATURE––-
qyqg1LogiMlKyGFJC.TpOiFbpTd2cieWZuXzwAgNscLY1oCRdvwHjgzTYjBsvVvmcSPxGmMXLzN1Hw8uvkWzJkOmjpH3Wt7ac0sUIcK
––-END XLD SIGNATURE––-


U2: Singles Collection. Part 02 (1991 - 1995)

Tracklist CD03 - 1991 - The Fly [Germany, Island 664 728]:

01.The Fly (4:29)
02.Alex Descends Into Hell For A Bottle Of Milk - Korova 1 (3:38)
03.The Fly (The Lounge Fly Mix) (6:28)

Exact Audio Copy V1.0 beta 2 from 29. April 2011

EAC extraction logfile from 15. May 2013, 14:52

U2 / The Fly (CDS)

Used drive : Optiarc DVD RW AD-7561S Adapter: 1 ID: 0

Read mode : Secure
Utilize accurate stream : Yes
Defeat audio cache : Yes
Make use of C2 pointers : No

Read offset correction : 6
Overread into Lead-In and Lead-Out : No
Fill up missing offset samples with silence : Yes
Delete leading and trailing silent blocks : No
Null samples used in CRC calculations : Yes
Used interface : Native Win32 interface for Win NT & 2000
Gap handling : Appended to previous track

Used output format : User Defined Encoder
Selected bitrate : 256 kBit/s
Quality : High
Add ID3 tag : No
Command line compressor : C:\Program Files\Exact Audio Copy\Flac\flac.exe
Additional command line options : -8 -V -T "ARTIST=%artist%" -T "TITLE=%title%" -T "ALBUM=%albumtitle%" -T "DATE=%year%" -T "TRACKNUMBER=%tracknr%" -T "TOTALTRACKS=%numtracks%" -T "GENRE=%genre%" -T "ALBUMARTIST=%albumartist%" -T "ALBUM ARTIST=%albumartist%


TOC of the extracted CD

Track | Start | Length | Start sector | End sector
––––––––––––––––––––––––––––-
1 | 0:00.33 | 4:29.12 | 33 | 20219
2 | 4:29.45 | 3:37.63 | 20220 | 36557
3 | 8:07.33 | 6:27.70 | 36558 | 65652


Track 1

Filename C:\torrent\U2 - The Fly (1991) [FLAC] {Single CD}\01 - The Fly.wav

Pre-gap length 0:00:02.33

Peak level 100.0 %
Extraction speed 1.7 X
Track quality 100.0 %
Test CRC 6272509C
Copy CRC 6272509C
Accurately ripped (confidence 26) [C30CCB16] (AR v1)
Copy OK

Track 2

Filename C:\torrent\U2 - The Fly (1991) [FLAC] {Single CD}\02 - Alex Descends Into Hell For A Bottle Of Milk - Korova 1.wav

Pre-gap length 0:00:00.10

Peak level 100.0 %
Extraction speed 1.9 X
Track quality 100.0 %
Test CRC 55A396A3
Copy CRC 55A396A3
Accurately ripped (confidence 27) [D9A7E717] (AR v1)
Copy OK

Track 3

Filename C:\torrent\U2 - The Fly (1991) [FLAC] {Single CD}\03 - The Fly (The Lounge Fly Mix).wav

Pre-gap length 0:00:00.33

Peak level 99.9 %
Extraction speed 2.2 X
Track quality 100.0 %
Test CRC EF90E840
Copy CRC EF90E840
Accurately ripped (confidence 27) [ED676780] (AR v1)
Copy OK


All tracks accurately ripped

No errors occurred

End of status report

==== Log checksum 7C965E0D91DE04C9132C845EC381D373174606E1FE822107D4A282DE8E36CDCF ====


U2: Singles Collection. Part 02 (1991 - 1995)

Tracklist CD04 - 1992 - Even Better Than The Real Thing (Remixes) [Germany, Island C REAL 2, 74321 10885 2]:

01.Even Better Than The Real Thing (The Perfecto Mix) (6:40)
02.Even Better Than The Real Thing (Sexy Dub Mix) (7:19)
03.Even Better Than The Real Thing (Apollo 440 Stealth Sonic Remix) (6:43)
04.Even Better Than The Real Thing (V16 Exit Wound Remix) (3:20)
05.Even Better Than The Real Thing (A440 VS U2 Instrumental Remix) (6:29)

X Lossless Decoder version 20080926 (93.3)

XLD extraction logfile from 2008-11-14 19:14:10 +0100

U2 / Even Better Than The Real Thing (Remixes)

Used drive : PIONEER DVD-RW DVR-115D (revision 1.06)

Use cdparanoia mode : YES (CDParanoia III 10.2 engine)
Disable audio cache : OK for the drive with cache less than 2750KB
Make use of C2 pointers : NO
Read offset correction : 48
Max retry count : 100

TOC of the extracted CD
Track | Start | Length | Start sector | End sector
––––––––––––––––––––––––––––-
1 | 00:00:32 | 06:39:18 | 32 | 29974
2 | 06:39:50 | 07:18:47 | 29975 | 62871
3 | 13:58:22 | 06:42:65 | 62872 | 93086
4 | 20:41:12 | 03:19:45 | 93087 | 108056
5 | 24:00:57 | 06:28:50 | 108057 | 137206


All Tracks
Album gain : -2.82 dB
Peak : 0.999756
Track 01
Filename : /Volumes/Nebucadnezzar/00 Music rip and upload/U2 - even better than the REAL THING REMIXES (1992) [SPECIAL] (XLD Rip)/01 - Even Better Than The Real Thing (The Perfecto Mix).flac

Track gain : -3.52 dB
Peak : 0.999756
CRC32 hash (test run) : CEEEBCE9
CRC32 hash : CEEEBCE9
CRC32 hash (skip zero) : 292A0B45
AccurateRip signature : C7E7EA76
->Accurately ripped! (confidence 5)
Statistics
Read error : 0
Skipped (treated as error) : 0
Edge jitter error (maybe fixed) : 0
Atom jitter error (maybe fixed) : 0
Drift error (maybe fixed) : 0
Dropped bytes error (maybe fixed) : 0
Duplicated bytes error (maybe fixed) : 0
Inconsistency in error sectors : 0

Track 02
Filename : /Volumes/Nebucadnezzar/00 Music rip and upload/U2 - even better than the REAL THING REMIXES (1992) [SPECIAL] (XLD Rip)/02 - Even Better Than The Real Thing (Sexy Dub Mix).flac

Track gain : -2.82 dB
Peak : 0.955078
CRC32 hash (test run) : 47429E43
CRC32 hash : 47429E43
CRC32 hash (skip zero) : A1950767
AccurateRip signature : 4BB9B21C
->Accurately ripped! (confidence 6)
Statistics
Read error : 0
Skipped (treated as error) : 0
Edge jitter error (maybe fixed) : 1
Atom jitter error (maybe fixed) : 0
Drift error (maybe fixed) : 0
Dropped bytes error (maybe fixed) : 1
Duplicated bytes error (maybe fixed) : 1
Inconsistency in error sectors : 0

Track 03
Filename : /Volumes/Nebucadnezzar/00 Music rip and upload/U2 - even better than the REAL THING REMIXES (1992) [SPECIAL] (XLD Rip)/03 - Even Better Than The Real Thing (Apollo 440 Stealth Sonic Remix).flac

Track gain : -1.76 dB
Peak : 0.930786
CRC32 hash (test run) : 8CD81A92
CRC32 hash : 8CD81A92
CRC32 hash (skip zero) : D602C2F3
AccurateRip signature : 515CCB82
->Accurately ripped! (confidence 6)
Statistics
Read error : 0
Skipped (treated as error) : 0
Edge jitter error (maybe fixed) : 0
Atom jitter error (maybe fixed) : 0
Drift error (maybe fixed) : 0
Dropped bytes error (maybe fixed) : 0
Duplicated bytes error (maybe fixed) : 0
Inconsistency in error sectors : 0

Track 04
Filename : /Volumes/Nebucadnezzar/00 Music rip and upload/U2 - even better than the REAL THING REMIXES (1992) [SPECIAL] (XLD Rip)/04 - Even Better Than The Real Thing (V16 Exit Wound Remix).flac

Track gain : -3.71 dB
Peak : 0.906281
CRC32 hash (test run) : 877EBBAB
CRC32 hash : 877EBBAB
CRC32 hash (skip zero) : EF925917
AccurateRip signature : A67134F9
->Accurately ripped! (confidence 6)
Statistics
Read error : 0
Skipped (treated as error) : 0
Edge jitter error (maybe fixed) : 0
Atom jitter error (maybe fixed) : 0
Drift error (maybe fixed) : 0
Dropped bytes error (maybe fixed) : 0
Duplicated bytes error (maybe fixed) : 0
Inconsistency in error sectors : 0

Track 05
Filename : /Volumes/Nebucadnezzar/00 Music rip and upload/U2 - even better than the REAL THING REMIXES (1992) [SPECIAL] (XLD Rip)/05 - Even Better Than The Real Thing (A440 VS U2 Instrumental Remix).flac

Track gain : -1.63 dB
Peak : 0.921082
CRC32 hash (test run) : A039CC60
CRC32 hash : A039CC60
CRC32 hash (skip zero) : 6EF5CDEE
AccurateRip signature : D26F367D
->Accurately ripped! (confidence 6)
Statistics
Read error : 0
Skipped (treated as error) : 0
Edge jitter error (maybe fixed) : 0
Atom jitter error (maybe fixed) : 0
Drift error (maybe fixed) : 0
Dropped bytes error (maybe fixed) : 0
Duplicated bytes error (maybe fixed) : 0
Inconsistency in error sectors : 0

No errors occurred

End of status report


U2: Singles Collection. Part 02 (1991 - 1995)

Tracklist CD05 - 1992 - Even Better Than The Real Thing [Germany, Island 74321101882]:

01.Even Better Than The Real Thing (3:43)
02.Salomé (4:34)
03.Where Did It All Go Wrong? (3:59)
04.Lady With The Spinning Head (Extended Dance Mix) (6:09)

Exact Audio Copy V1.3 from 2. September 2016

EAC extraction logfile from 17. February 2018, 13:03

U2 / Even Better Than The Real Thing

Used drive : PLEXTOR DVDR PX-760A Adapter: 1 ID: 0

Read mode : Secure
Utilize accurate stream : Yes
Defeat audio cache : Yes
Make use of C2 pointers : No

Read offset correction : 30
Overread into Lead-In and Lead-Out : No
Fill up missing offset samples with silence : Yes
Delete leading and trailing silent blocks : No
Null samples used in CRC calculations : Yes
Used interface : Native Win32 interface for Win NT & 2000
Gap handling : Appended to previous track

Used output format : User Defined Encoder
Selected bitrate : 896 kBit/s
Quality : High
Add ID3 tag : No
Command line compressor : C:\Program Files (x86)\Exact Audio Copy\Flac\flac.exe
Additional command line options : -V -8 -T "Genre=%genre%" -T "Artist=%artist%" -T "Title=%title%" -T "Album=%albumtitle%" -T "Date=%year%" -T "Tracknumber=%tracknr%" -T "Comment=%comment%" %source%


TOC of the extracted CD

Track | Start | Length | Start sector | End sector
––––––––––––––––––––––––––––-
1 | 0:00.33 | 3:43.00 | 33 | 16757
2 | 3:43.33 | 4:33.65 | 16758 | 37297
3 | 8:17.23 | 3:58.50 | 37298 | 55197
4 | 12:15.73 | 6:08.60 | 55198 | 82857


Track 1

Filename D:\EAC_rips\01 - Even Better Than The Real Thing.wav

Pre-gap length 0:00:02.33

Peak level 100.0 %
Extraction speed 4.0 X
Track quality 100.0 %
Test CRC 7287C729
Copy CRC 7287C729
Accurately ripped (confidence 16) [8BE08664] (AR v2)
Copy OK

Track 2

Filename D:\EAC_rips\02 - Salomé.wav

Pre-gap length 0:00:01.13

Peak level 100.0 %
Extraction speed 4.1 X
Track quality 99.9 %
Test CRC AF98CAC9
Copy CRC AF98CAC9
Accurately ripped (confidence 17) [9D930FD5] (AR v2)
Copy OK

Track 3

Filename D:\EAC_rips\03 - Where Did It All Go Wrong.wav

Pre-gap length 0:00:01.38

Peak level 78.9 %
Extraction speed 4.8 X
Track quality 100.0 %
Test CRC 97EB5367
Copy CRC 97EB5367
Accurately ripped (confidence 17) [34CB7D34] (AR v2)
Copy OK

Track 4

Filename D:\EAC_rips\04 - Lady With The Spinning Head (Extended Dance Mix).wav

Pre-gap length 0:00:01.60

Peak level 97.5 %
Extraction speed 5.5 X
Track quality 100.0 %
Test CRC 9A23D704
Copy CRC 9A23D704
Accurately ripped (confidence 16) [C31DCCAD] (AR v2)
Copy OK


All tracks accurately ripped

No errors occurred

End of status report

–– CUETools DB Plugin V2.1.6

[CTDB TOCID: wIb86GkS_gZF4c_WXCqbsigKdKM-] found
Submit result: wIb86GkS_gZF4c_WXCqbsigKdKM- has been confirmed
Track | CTDB Status
1 | (25/25) Accurately ripped
2 | (25/25) Accurately ripped
3 | (25/25) Accurately ripped
4 | (25/25) Accurately ripped


==== Log checksum 5DE01DEC7455EB67A299B45B0A0DE30C35B582D6D206D53CEFFBD50E32E98ABD ====


U2: Singles Collection. Part 02 (1991 - 1995)

Tracklist CD06 - 1992 - One [Germany, Island 665 164]:

01.One (4:35)
02.Lady With The Spinning Head (UV1) (3:55)
03.Satellite Of Love (4:01)
04.Night And Day (Steel String Remix) (6:57)

Exact Audio Copy V1.3 from 2. September 2016

EAC extraction logfile from 18. February 2018, 10:38

U2 / One

Used drive : PLEXTOR DVDR PX-760A Adapter: 1 ID: 0

Read mode : Secure
Utilize accurate stream : Yes
Defeat audio cache : Yes
Make use of C2 pointers : No

Read offset correction : 30
Overread into Lead-In and Lead-Out : No
Fill up missing offset samples with silence : Yes
Delete leading and trailing silent blocks : No
Null samples used in CRC calculations : Yes
Used interface : Native Win32 interface for Win NT & 2000
Gap handling : Appended to previous track

Used output format : User Defined Encoder
Selected bitrate : 896 kBit/s
Quality : High
Add ID3 tag : No
Command line compressor : C:\Program Files (x86)\Exact Audio Copy\Flac\flac.exe
Additional command line options : -V -8 -T "Genre=%genre%" -T "Artist=%artist%" -T "Title=%title%" -T "Album=%albumtitle%" -T "Date=%year%" -T "Tracknumber=%tracknr%" -T "Comment=%comment%" %source%


TOC of the extracted CD

Track | Start | Length | Start sector | End sector
––––––––––––––––––––––––––––-
1 | 0:00.33 | 4:34.67 | 33 | 20649
2 | 4:35.25 | 3:54.43 | 20650 | 38242
3 | 8:29.68 | 4:00.45 | 38243 | 56287
4 | 12:30.38 | 6:57.27 | 56288 | 87589


Track 1

Filename D:\EAC_rips\01 - One.wav

Pre-gap length 0:00:02.33

Peak level 99.9 %
Extraction speed 3.8 X
Track quality 99.9 %
Test CRC A32A4297
Copy CRC A32A4297
Accurately ripped (confidence 22) [8560A88F] (AR v2)
Copy OK

Track 2

Filename D:\EAC_rips\02 - Lady With The Spinning Head (UV1).wav

Peak level 100.0 %
Extraction speed 4.5 X
Track quality 100.0 %
Test CRC BBF1E19D
Copy CRC BBF1E19D
Accurately ripped (confidence 22) [334328F6] (AR v2)
Copy OK

Track 3

Filename D:\EAC_rips\03 - Satellite Of Love.wav

Pre-gap length 0:00:00.10

Peak level 94.1 %
Extraction speed 4.8 X
Track quality 100.0 %
Test CRC E0E1E011
Copy CRC E0E1E011
Accurately ripped (confidence 23) [F4958F85] (AR v2)
Copy OK

Track 4

Filename D:\EAC_rips\04 - Night And Day (Steel String Remix).wav

Peak level 100.0 %
Extraction speed 5.2 X
Track quality 99.9 %
Test CRC E3A00121
Copy CRC E3A00121
Accurately ripped (confidence 21) [53403CA6] (AR v2)
Copy OK


All tracks accurately ripped

No errors occurred

End of status report

–– CUETools DB Plugin V2.1.6

[CTDB TOCID: lMZxQSt7RZdoMmCg5kqhY8S0TIk-] found
Submit result: lMZxQSt7RZdoMmCg5kqhY8S0TIk- has been confirmed
Track | CTDB Status
1 | (27/27) Accurately ripped
2 | (27/27) Accurately ripped
3 | (27/27) Accurately ripped
4 | (27/27) Accurately ripped


==== Log checksum 36C7426311C44DB2476F9DCF2E2033598C36D51B5DA59E6F4DD489A6C8DCDD95 ====


U2: Singles Collection. Part 02 (1991 - 1995)

Tracklist CD07 - 1992 - Who's Gonna Ride Your Wild Horses [Germany, Island 74321 12047 2]:

01.Who's Gonna Ride Your Wild Horses (3:58)
02.Paint It Black (3:23)
03.Fortunate Son (2:41)
04.Who's Gonna Ride Your Wild Horses (Temple Bar Remix) (4:50)

X Lossless Decoder version 20080926 (93.3)

XLD extraction logfile from 2008-11-19 10:19:50 +0100

U2 / Who's Gonna Ride Your Wild Horses

Used drive : PIONEER DVD-RW DVR-115D (revision 1.06)

Use cdparanoia mode : YES (CDParanoia III 10.2 engine)
Disable audio cache : OK for the drive with cache less than 2750KB
Make use of C2 pointers : NO
Read offset correction : 48
Max retry count : 100

TOC of the extracted CD
Track | Start | Length | Start sector | End sector
––––––––––––––––––––––––––––-
1 | 00:00:33 | 03:57:40 | 33 | 17847
2 | 03:57:73 | 03:23:02 | 17848 | 33074
3 | 07:21:00 | 02:41:25 | 33075 | 45174
4 | 10:02:25 | 04:50:08 | 45175 | 66932


All Tracks
Album gain : -2.42 dB
Peak : 1.000000
Track 01
Filename : /Volumes/Nebucadnezzar/00 Music rip and upload/U2 - WHO's gonna ride your WILD HORSES (1992) [SPECIAL] (XLD Rip)/01 - Who's Gonna Ride Your Wild Horses .flac

Track gain : -2.13 dB
Peak : 1.000000
CRC32 hash (test run) : F9AFEBAD
CRC32 hash : F9AFEBAD
CRC32 hash (skip zero) : 976297B1
AccurateRip signature : 2A53D4C0
->Accurately ripped! (confidence 4)
Statistics
Read error : 0
Skipped (treated as error) : 0
Edge jitter error (maybe fixed) : 0
Atom jitter error (maybe fixed) : 0
Drift error (maybe fixed) : 0
Dropped bytes error (maybe fixed) : 0
Duplicated bytes error (maybe fixed) : 0
Inconsistency in error sectors : 0

Track 02
Filename : /Volumes/Nebucadnezzar/00 Music rip and upload/U2 - WHO's gonna ride your WILD HORSES (1992) [SPECIAL] (XLD Rip)/02 - Paint It Black.flac

Track gain : -3.24 dB
Peak : 0.770355
CRC32 hash (test run) : 122B4958
CRC32 hash : 122B4958
CRC32 hash (skip zero) : E143F287
AccurateRip signature : 08788B12
->Accurately ripped! (confidence 4)
Statistics
Read error : 0
Skipped (treated as error) : 0
Edge jitter error (maybe fixed) : 0
Atom jitter error (maybe fixed) : 0
Drift error (maybe fixed) : 0
Dropped bytes error (maybe fixed) : 0
Duplicated bytes error (maybe fixed) : 0
Inconsistency in error sectors : 0

Track 03
Filename : /Volumes/Nebucadnezzar/00 Music rip and upload/U2 - WHO's gonna ride your WILD HORSES (1992) [SPECIAL] (XLD Rip)/03 - Fortunate Son.flac

Track gain : -1.64 dB
Peak : 0.854248
CRC32 hash (test run) : 8961373F
CRC32 hash : 8961373F
CRC32 hash (skip zero) : 318D9593
AccurateRip signature : 899D2B22
->Accurately ripped! (confidence 4)
Statistics
Read error : 0
Skipped (treated as error) : 0
Edge jitter error (maybe fixed) : 0
Atom jitter error (maybe fixed) : 0
Drift error (maybe fixed) : 0
Dropped bytes error (maybe fixed) : 0
Duplicated bytes error (maybe fixed) : 0
Inconsistency in error sectors : 0

Track 04
Filename : /Volumes/Nebucadnezzar/00 Music rip and upload/U2 - WHO's gonna ride your WILD HORSES (1992) [SPECIAL] (XLD Rip)/04 - Who's Gonna Ride Your Wild Horses (Temple Bar Remix).flac

Track gain : -2.16 dB
Peak : 1.000000
CRC32 hash (test run) : 6ADE4564
CRC32 hash : 6ADE4564
CRC32 hash (skip zero) : 15A55882
AccurateRip signature : 34240A37
->Accurately ripped! (confidence 4)
Statistics
Read error : 0
Skipped (treated as error) : 0
Edge jitter error (maybe fixed) : 0
Atom jitter error (maybe fixed) : 0
Drift error (maybe fixed) : 0
Dropped bytes error (maybe fixed) : 0
Duplicated bytes error (maybe fixed) : 0
Inconsistency in error sectors : 0

No errors occurred

End of status report


U2: Singles Collection. Part 02 (1991 - 1995)

Tracklist CD08 - 1992 - Who's Gonna Ride Your Wild Horses [Germany, Island 74321 12451 2]:

01.U2 - Who’s Gonna Ride Your Wild Horses (The Temple Bar Edit) (3:55)
02.U2 - Paint It Black (3:23)
03.U2 - Salomé (Zooromancer Remix) (8:03)
04.Bono - Can’t Help Falling In Love (Triple Peaks Remix) (4:35)

Exact Audio Copy V1.3 from 2. September 2016

EAC extraction logfile from 18. February 2018, 14:07

U2 / Who’s Gonna Ride Your Wild Horses

Used drive : PLEXTOR DVDR PX-760A Adapter: 1 ID: 0

Read mode : Secure
Utilize accurate stream : Yes
Defeat audio cache : Yes
Make use of C2 pointers : No

Read offset correction : 30
Overread into Lead-In and Lead-Out : No
Fill up missing offset samples with silence : Yes
Delete leading and trailing silent blocks : No
Null samples used in CRC calculations : Yes
Used interface : Native Win32 interface for Win NT & 2000
Gap handling : Appended to previous track

Used output format : User Defined Encoder
Selected bitrate : 896 kBit/s
Quality : High
Add ID3 tag : No
Command line compressor : C:\Program Files (x86)\Exact Audio Copy\Flac\flac.exe
Additional command line options : -V -8 -T "Genre=%genre%" -T "Artist=%artist%" -T "Title=%title%" -T "Album=%albumtitle%" -T "Date=%year%" -T "Tracknumber=%tracknr%" -T "Comment=%comment%" %source%


TOC of the extracted CD

Track | Start | Length | Start sector | End sector
––––––––––––––––––––––––––––-
1 | 0:00.33 | 3:55.12 | 33 | 17669
2 | 3:55.45 | 3:23.00 | 17670 | 32894
3 | 7:18.45 | 8:02.63 | 32895 | 69107
4 | 15:21.33 | 4:35.00 | 69108 | 89732


Track 1

Filename D:\EAC_rips\01 - U2 - Who’s Gonna Ride Your Wild Horses (The Temple Bar Edit).wav

Pre-gap length 0:00:02.33

Peak level 94.0 %
Extraction speed 4.1 X
Track quality 100.0 %
Test CRC 17F21907
Copy CRC 17F21907
Accurately ripped (confidence 16) [FDE3E5D1] (AR v2)
Copy OK

Track 2

Filename D:\EAC_rips\02 - U2 - Paint It Black.wav

Peak level 94.9 %
Extraction speed 4.4 X
Track quality 100.0 %
Test CRC 1FD48362
Copy CRC 1FD48362
Accurately ripped (confidence 16) [4645D28B] (AR v2)
Copy OK

Track 3

Filename D:\EAC_rips\03 - U2 - Salomé (Zooromancer Remix).wav

Peak level 100.0 %
Extraction speed 5.3 X
Track quality 100.0 %
Test CRC 5F691AFF
Copy CRC 5F691AFF
Accurately ripped (confidence 16) [280FDF8E] (AR v2)
Copy OK

Track 4

Filename D:\EAC_rips\04 - Bono - Can’t Help Falling In Love (Triple Peaks Remix).wav

Peak level 99.7 %
Extraction speed 5.5 X
Track quality 100.0 %
Test CRC 0A6A17A5
Copy CRC 0A6A17A5
Accurately ripped (confidence 16) [FE27E285] (AR v2)
Copy OK


All tracks accurately ripped

No errors occurred

End of status report

–– CUETools DB Plugin V2.1.6

[CTDB TOCID: Wm1NlI7y.QV5YOwPP7aL.2V_7Qk-] found
Submit result: Wm1NlI7y.QV5YOwPP7aL.2V_7Qk- has been confirmed
Track | CTDB Status
1 | (18/18) Accurately ripped
2 | (18/18) Accurately ripped
3 | (18/18) Accurately ripped
4 | (18/18) Accurately ripped


==== Log checksum 19C9D642907B5F3DE64512CD4DF942847EC2C30B0482106996378C2A1866A93C ====


U2: Singles Collection. Part 02 (1991 - 1995)

Tracklist CD09 - 1993 - Lemon [Australia, Island 858 115-2]:

01.Lemon (Edit) (4:42)
02.Lemon (Oakenfold Jeep Mix) (5:33)
03.Lemon (Album Version) (6:59)
04.Lemon (Morales BYC Version DUB) (6:36)

X Lossless Decoder version 20080926 (93.3)

XLD extraction logfile from 2008-11-14 02:14:49 +0100

U2 / Lemon

Used drive : PIONEER DVD-RW DVR-115D (revision 1.06)

Use cdparanoia mode : YES (CDParanoia III 10.2 engine)
Disable audio cache : OK for the drive with cache less than 2750KB
Make use of C2 pointers : NO
Read offset correction : 48
Max retry count : 100

TOC of the extracted CD
Track | Start | Length | Start sector | End sector
––––––––––––––––––––––––––––-
1 | 00:00:00 | 04:42:22 | 0 | 21171
2 | 04:42:22 | 05:32:73 | 21172 | 46144
3 | 10:15:20 | 06:58:40 | 46145 | 77534
4 | 17:13:60 | 06:36:12 | 77535 | 107246


All Tracks
Album gain : -0.11 dB
Peak : 0.999969
Track 01
Filename : /Volumes/Nebucadnezzar/00 Music rip and upload/U2 - Lemon (1993) [SPECIAL] (XLD Rip)/01 U2 - Lemon (Edit).flac

Track gain : -0.12 dB
Peak : 0.999969
CRC32 hash (test run) : 084E3162
CRC32 hash : 084E3162
CRC32 hash (skip zero) : 1C5C5E04
AccurateRip signature : B148018A
->Accurately ripped! (confidence 2)
Statistics
Read error : 0
Skipped (treated as error) : 0
Edge jitter error (maybe fixed) : 0
Atom jitter error (maybe fixed) : 0
Drift error (maybe fixed) : 0
Dropped bytes error (maybe fixed) : 0
Duplicated bytes error (maybe fixed) : 0
Inconsistency in error sectors : 0

Track 02
Filename : /Volumes/Nebucadnezzar/00 Music rip and upload/U2 - Lemon (1993) [SPECIAL] (XLD Rip)/02 U2 - Lemon (Oakenfold Jeep Mix).flac

Track gain : 0.60 dB
Peak : 0.663300
CRC32 hash (test run) : D05E0507
CRC32 hash : D05E0507
CRC32 hash (skip zero) : 18889A91
AccurateRip signature : 5F7CE4DD
->Accurately ripped! (confidence 2)
Statistics
Read error : 0
Skipped (treated as error) : 0
Edge jitter error (maybe fixed) : 0
Atom jitter error (maybe fixed) : 0
Drift error (maybe fixed) : 0
Dropped bytes error (maybe fixed) : 0
Duplicated bytes error (maybe fixed) : 0
Inconsistency in error sectors : 0

Track 03
Filename : /Volumes/Nebucadnezzar/00 Music rip and upload/U2 - Lemon (1993) [SPECIAL] (XLD Rip)/03 U2 - Lemon (Album Version).flac

Track gain : -0.27 dB
Peak : 0.999969
CRC32 hash (test run) : C0FF0455
CRC32 hash : C0FF0455
CRC32 hash (skip zero) : BC2C160F
AccurateRip signature : 3E2D3BA1
->Accurately ripped! (confidence 2)
Statistics
Read error : 0
Skipped (treated as error) : 0
Edge jitter error (maybe fixed) : 0
Atom jitter error (maybe fixed) : 0
Drift error (maybe fixed) : 0
Dropped bytes error (maybe fixed) : 0
Duplicated bytes error (maybe fixed) : 0
Inconsistency in error sectors : 0

Track 04
Filename : /Volumes/Nebucadnezzar/00 Music rip and upload/U2 - Lemon (1993) [SPECIAL] (XLD Rip)/04 U2 - Lemon (Morales BYC Version DUB).flac

Track gain : -0.55 dB
Peak : 0.932770
CRC32 hash (test run) : C385739B
CRC32 hash : C385739B
CRC32 hash (skip zero) : A3305FA2
AccurateRip signature : 7A834D20
->Accurately ripped! (confidence 2)
Statistics
Read error : 0
Skipped (treated as error) : 0
Edge jitter error (maybe fixed) : 0
Atom jitter error (maybe fixed) : 0
Drift error (maybe fixed) : 0
Dropped bytes error (maybe fixed) : 0
Duplicated bytes error (maybe fixed) : 0
Inconsistency in error sectors : 0

No errors occurred

End of status report


U2: Singles Collection. Part 02 (1991 - 1995)

Tracklist CD10 - 1993 - Stay (Faraway, So Close!) [EU, Island CIDX 578, 858 079-2] {The Live Format}:

01.Stay (Faraway, So Close!) (4:59)
02.Slow Dancing (3:21)
03.Bullet The Blue Sky (Live) (5:36)
04.Love Is Blindness (Live) (5:58)

X Lossless Decoder version 20080926 (93.3)

XLD extraction logfile from 2008-11-26 23:41:26 +0100

U2 / Stay (Faraway, So Close!) - The Live Format

Used drive : PIONEER DVD-RW DVR-115D (revision 1.06)

Use cdparanoia mode : YES (CDParanoia III 10.2 engine)
Disable audio cache : OK for the drive with cache less than 2750KB
Make use of C2 pointers : NO
Read offset correction : 48
Max retry count : 100

TOC of the extracted CD
Track | Start | Length | Start sector | End sector
––––––––––––––––––––––––––––-
1 | 00:00:00 | 04:59:25 | 0 | 22449
2 | 04:59:25 | 03:21:27 | 22450 | 37551
3 | 08:20:52 | 05:36:28 | 37552 | 62779
4 | 13:57:05 | 05:57:65 | 62780 | 89619


All Tracks
Album gain : -3.80 dB
Peak : 0.999969
Track 01
Filename : /Volumes/Nebucadnezzar/00 Music rip and upload/U2 - Stay (Faraway, so close!) - the live format (1993) [FLAC]/01 - Stay (Faraway, So Close!).flac

Track gain : -3.51 dB
Peak : 0.999969
CRC32 hash (test run) : F6387471
CRC32 hash : F6387471
CRC32 hash (skip zero) : 825DBDF0
AccurateRip signature : 6BC474AB
->Accurately ripped! (confidence 11)
Statistics
Read error : 0
Skipped (treated as error) : 0
Edge jitter error (maybe fixed) : 0
Atom jitter error (maybe fixed) : 0
Drift error (maybe fixed) : 0
Dropped bytes error (maybe fixed) : 0
Duplicated bytes error (maybe fixed) : 0
Inconsistency in error sectors : 0

Track 02
Filename : /Volumes/Nebucadnezzar/00 Music rip and upload/U2 - Stay (Faraway, so close!) - the live format (1993) [FLAC]/02 - Slow Dancing.flac

Track gain : -0.43 dB
Peak : 0.999969
CRC32 hash (test run) : 186C177D
CRC32 hash : 186C177D
CRC32 hash (skip zero) : 891DECE4
AccurateRip signature : 7FCCC5A6
->Accurately ripped! (confidence 11)
Statistics
Read error : 0
Skipped (treated as error) : 0
Edge jitter error (maybe fixed) : 1
Atom jitter error (maybe fixed) : 0
Drift error (maybe fixed) : 0
Dropped bytes error (maybe fixed) : 0
Duplicated bytes error (maybe fixed) : 0
Inconsistency in error sectors : 0

Track 03
Filename : /Volumes/Nebucadnezzar/00 Music rip and upload/U2 - Stay (Faraway, so close!) - the live format (1993) [FLAC]/03 - Bullet The Blue Sky (Live).flac

Track gain : -4.69 dB
Peak : 0.999969
CRC32 hash (test run) : 45467C49
CRC32 hash : 45467C49
CRC32 hash (skip zero) : 195BB0A5
AccurateRip signature : 93E3A6FB
->Accurately ripped! (confidence 10)
Statistics
Read error : 0
Skipped (treated as error) : 0
Edge jitter error (maybe fixed) : 0
Atom jitter error (maybe fixed) : 0
Drift error (maybe fixed) : 0
Dropped bytes error (maybe fixed) : 0
Duplicated bytes error (maybe fixed) : 0
Inconsistency in error sectors : 0

Track 04
Filename : /Volumes/Nebucadnezzar/00 Music rip and upload/U2 - Stay (Faraway, so close!) - the live format (1993) [FLAC]/04 - Love Is Blindness (Live).flac

Track gain : -2.58 dB
Peak : 0.999969
CRC32 hash (test run) : 69E5A61B
CRC32 hash : 69E5A61B
CRC32 hash (skip zero) : 35F2B0BC
AccurateRip signature : 5053CA1B
->Accurately ripped! (confidence 12)
Statistics
Read error : 0
Skipped (treated as error) : 0
Edge jitter error (maybe fixed) : 0
Atom jitter error (maybe fixed) : 0
Drift error (maybe fixed) : 0
Dropped bytes error (maybe fixed) : 0
Duplicated bytes error (maybe fixed) : 0
Inconsistency in error sectors : 0

No errors occurred

End of status report


U2: Singles Collection. Part 02 (1991 - 1995)

Tracklist CD11 - 1993 - Stay (Faraway, So Close!) [Germany, Island 74321 17441 2] {The Swing Format}:

01.U2 - Stay (Faraway, So Close!) (5:01)
02.Frank Sinatra with Bono - I've Got You Under My Skin (3:33)
03.U2 - Lemon (Bad Yard Club Edit) (5:21)
04.U2 - Lemon (Perfecto Mix) (8:57)

Exact Audio Copy V1.3 from 2. September 2016

EAC extraction logfile from 18. February 2018, 12:01

U2 / Stay (Faraway, So Close!) - The Swing Format

Used drive : PLEXTOR DVDR PX-760A Adapter: 1 ID: 0

Read mode : Secure
Utilize accurate stream : Yes
Defeat audio cache : Yes
Make use of C2 pointers : No

Read offset correction : 30
Overread into Lead-In and Lead-Out : No
Fill up missing offset samples with silence : Yes
Delete leading and trailing silent blocks : No
Null samples used in CRC calculations : Yes
Used interface : Native Win32 interface for Win NT & 2000
Gap handling : Appended to previous track

Used output format : User Defined Encoder
Selected bitrate : 896 kBit/s
Quality : High
Add ID3 tag : No
Command line compressor : C:\Program Files (x86)\Exact Audio Copy\Flac\flac.exe
Additional command line options : -V -8 -T "Genre=%genre%" -T "Artist=%artist%" -T "Title=%title%" -T "Album=%albumtitle%" -T "Date=%year%" -T "Tracknumber=%tracknr%" -T "Comment=%comment%" %source%


TOC of the extracted CD

Track | Start | Length | Start sector | End sector
––––––––––––––––––––––––––––-
1 | 0:00.33 | 5:00.42 | 33 | 22574
2 | 5:01.00 | 3:32.63 | 22575 | 38537
3 | 8:33.63 | 5:21.12 | 38538 | 62624
4 | 13:55.00 | 8:57.18 | 62625 | 102917


Track 1

Filename D:\EAC_rips\01 - U2 - Stay (Faraway, So Close!).wav

Pre-gap length 0:00:02.33

Peak level 100.0 %
Extraction speed 4.3 X
Track quality 100.0 %
Test CRC 1A387EDE
Copy CRC 1A387EDE
Accurately ripped (confidence 14) [CE5425DA] (AR v2)
Copy OK

Track 2

Filename D:\EAC_rips\02 - Frank Sinatra with Bono - I've Got You Under My Skin.wav

Pre-gap length 0:00:01.57

Peak level 99.7 %
Extraction speed 3.9 X
Track quality 99.9 %
Test CRC A2527C92
Copy CRC A2527C92
Accurately ripped (confidence 15) [ED3CCA99] (AR v2)
Copy OK

Track 3

Filename D:\EAC_rips\03 - U2 - Lemon (Bad Yard Club Edit).wav

Pre-gap length 0:00:01.63

Peak level 100.0 %
Extraction speed 5.1 X
Track quality 100.0 %
Test CRC E5953F74
Copy CRC E5953F74
Accurately ripped (confidence 14) [162C41E0] (AR v2)
Copy OK

Track 4

Filename D:\EAC_rips\04 - U2 - Lemon (Perfecto Mix).wav

Pre-gap length 0:00:01.45

Peak level 94.8 %
Extraction speed 5.9 X
Track quality 100.0 %
Test CRC 6E6EC0BE
Copy CRC 6E6EC0BE
Accurately ripped (confidence 14) [2F76699D] (AR v2)
Copy OK


All tracks accurately ripped

No errors occurred

End of status report

–– CUETools DB Plugin V2.1.6

[CTDB TOCID: Ekdl8MkuCSERNguxLQIeBGe2TWw-] found
Submit result: Ekdl8MkuCSERNguxLQIeBGe2TWw- has been confirmed
Track | CTDB Status
1 | (29/29) Accurately ripped
2 | (29/29) Accurately ripped
3 | (29/29) Accurately ripped
4 | (28/29) Accurately ripped


==== Log checksum E97E5D55A65054DA8255549783672CF6508F7D186299BD4B65D3CCEB990913E9 ====


U2: Singles Collection. Part 02 (1991 - 1995)

Tracklist CD12 - 1995 - Hold Me, Thrill Me, Kiss Me, Kill Me [Germany, Atlantic A7131CD, 7567-85567-2]:

01.U2 - Hold Me, Thrill Me, Kiss Me, Kill Me (4:49)
02.Elliot Goldenthal - Themes From Batman Forever (3:41)
03.Mazzy Star - Tell Me Now (4:18)

Exact Audio Copy V0.99 prebeta 4 from 23. January 2008

EAC extraction logfile from 10. March 2008, 23:43

Various / Hold Me, Thrill Me, Kiss Me, Kill Me

Used drive : CD-RW CDR-7S52 Adapter: 2 ID: 0

Read mode : Secure
Utilize accurate stream : Yes
Defeat audio cache : Yes
Make use of C2 pointers : No

Read offset correction : 6
Overread into Lead-In and Lead-Out : No
Fill up missing offset samples with silence : Yes
Delete leading and trailing silent blocks : No
Null samples used in CRC calculations : Yes
Used interface : Native Win32 interface for Win NT & 2000
Gap handling : Appended to previous track

Used output format : User Defined Encoder
Selected bitrate : 768 kBit/s
Quality : High
Add ID3 tag : No
Command line compressor : E:\Program Files\Exact Audio Copy 2\FLAC\FLAC.EXE
Additional command line options : -8 -V -T "ARTIST=%a" -T "TITLE=%t" -T "ALBUM=%g" -T "DATE=%y" -T "TRACKNUMBER=%n" -T "GENRE=%m" -T "COMMENT=%e" %s -o %d


TOC of the extracted CD

Track | Start | Length | Start sector | End sector
––––––––––––––––––––––––––––-
1 | 0:00.00 | 4:49.17 | 0 | 21691
2 | 4:49.17 | 3:40.73 | 21692 | 38264
3 | 8:30.15 | 4:17.67 | 38265 | 57606


Track 1

Filename D:\EAC\01 - U2 - Hold Me, Thrill Me, Kiss Me, Kill Me.wav

Pre-gap length 0:00:02.00

Peak level 98.4 %
Track quality 99.9 %
Test CRC 16C67429
Copy CRC 16C67429
Accurately ripped (confidence 9) [48FB944B]
Copy OK

Track 2

Filename D:\EAC\02 - Elliot Goldenthal - Themes From Batman Forever.wav

Pre-gap length 0:00:02.42

Peak level 98.4 %
Track quality 100.0 %
Test CRC 0A50DC28
Copy CRC 0A50DC28
Accurately ripped (confidence 8) [9B008E04]
Copy OK

Track 3

Filename D:\EAC\03 - Mazzy Star - Tell Me Now.wav

Pre-gap length 0:00:02.44

Peak level 97.7 %
Track quality 100.0 %
Test CRC 5A44D88E
Copy CRC 5A44D88E
Accurately ripped (confidence 7) [BC76251E]
Copy OK


All tracks accurately ripped

No errors occurred

End of status report


All thanks go to the original releaser

U2 or U2 in my Blog

Download U2: Singles Collection. Part 02 (1991 - 1995):