Subcategories

U.D.O. - Timebomb (1991) [1st Japan press]

Posted By: Shar'EmAll
U.D.O. - Timebomb (1991) [1st Japan press]

U.D.O. - Timebomb (1991) [1st Japan press]
EAC | FLAC-Image+CUE+LOG > 279 MB | Full Scans | MP3 CBR 320 Kbps > 87 MB
Heavy Metal | 38:20 mins | Label: BMG Victor Inc., Tokyo, Japan | Catalogue Number: BVCP-122

Timebomb is U.D.O.'s fourth album. It was recorded and mixed at Dierks Studios, Cologne from November 1990 to February 1991. This album is the band's most brutal, following a light approach on Faceless World. This is U.D.O.'s last release before Udo Dirkschneider took part in the Accept reunion which resulted in three albums.

The band were aided by Deaffy on lyrics. Deaffy has also appeared as author of the English lyrics on the Accept albums, and has been revealed to be a pseudonym for Gaby Hoffmann (maiden name Hauke), manager for Accept and later married to guitarist Wolf Hoffmann.

U.D.O. - Timebomb (1991) [1st Japan press]

Tracklist:

01. The Gutter (instrumental)
02. Metal Eater
03. Thunderforce
04. Overloaded (instrumental)
05. Burning Heat
06. Back In Pain
07. Timebomb
08. Powersquad
09. Kick In The Face
10. Soldiers Of Darkness
11. Metal Maniac Master Mind

Arranged and Produced by Stefan Kaufmann.
Recorded & Mixed at Dierks Studios, Cologne from November 1990 to February 1991.
Engineered and Mixed by Uli Baronowsky. Mastered at Sonopress.

- Udo Dirkschneider: Vocals
- Mathias Dieth: Guitars
- Thomas Smuszynski: Bass Guitar
- Stefan Schwarzmann: Drums

Thanks to Джонни!

Exact Audio Copy V0.99 prebeta 5 from 4. May 2009

Отчёт EAC об извлечении, выполненном 31. мая 2011, 12:57

U.D.O. / Timebomb [BVCP-122]

Дисковод: Optiarc DVD RW AD-7200A Adapter: 1 ID: 0

Режим чтения : Достоверность
Использование точного потока : Да
Отключение кэша аудио : Да
Использование указателей C2 : Нет

Коррекция смещения при чтении : 48
Способность читать области Lead-in и Lead-out : Нет
Заполнение пропущенных сэмплов тишиной : Да
Удаление блоков с тишиной в начале и конце : Нет
При вычислениях CRC использовались нулевые сэмплы : Да
Интерфейс : Встроенный Win32-интерфейс для Win NT/2000

Выходной формат : Пользовательский кодировщик
Выбранный битрейт : 128 kBit/s
Качество : Высокий
Добавление ID3-тэга : Нет
Утилита сжатия : C:\Program Files\Exact Audio Copy\Flac\flac.exe
Дополнительные параметры : -8 -V -T "artist=%a" -T "title=%t" -T "album=%g" -T "date=%y" -T "tracknumber=%n" -T "genre=%m" -T "comment=EAC


TOC извлечённого CD

Трек | Старт | Длительность | Начальный сектор | Конечный сектор
––––––––––––––––––––––––––––––––––-
1 | 0:00.37 | 1:04.00 | 37 | 4836
2 | 1:04.37 | 3:42.07 | 4837 | 21493
3 | 4:46.44 | 3:39.40 | 21494 | 37958
4 | 8:26.09 | 1:03.23 | 37959 | 42706
5 | 9:29.32 | 3:15.20 | 42707 | 57351
6 | 12:44.52 | 3:46.22 | 57352 | 74323
7 | 16:30.74 | 3:57.55 | 74324 | 92153
8 | 20:28.54 | 4:12.68 | 92154 | 111121
9 | 24:41.47 | 3:46.57 | 111122 | 128128
10 | 28:28.29 | 4:11.68 | 128129 | 147021
11 | 32:40.22 | 5:40.30 | 147022 | 172551


Характеристики диапазона извлечения и сообщения об ошибках

Выбранный диапазон

Имя файла Y:\Музыка\U.D.O\1991 Timebomb\U.D.O. - Timebomb [BVCP-122].wav

Пиковый уровень 90.1 %
Качество диапазона 100.0 %
CRC теста 505DF9FD
CRC копии 505DF9FD
Копирование… OK

Ошибок не произошло


AccurateRip: сводка

Трек 1 нет в базе данных
Трек 2 нет в базе данных
Трек 3 нет в базе данных
Трек 4 нет в базе данных
Трек 5 нет в базе данных
Трек 6 нет в базе данных
Трек 7 нет в базе данных
Трек 8 нет в базе данных
Трек 9 нет в базе данных
Трек 10 нет в базе данных
Трек 11 нет в базе данных

Ни одного трека нет в базе AccurateRip

Конец отчёта

…………………………………………..

[CUETools log; Date: 08.08.2011 6:53:56; Version: 2.1.1]
Pregap length 00:00:37.
[AccurateRip ID: 000d9359-007a3abe-9208fc0b] found.
Track [ CRC ] Status
01 [86ad7b8a] (1/1) Accurately ripped
02 [ee74db43] (1/1) Accurately ripped
03 [f64f694f] (1/1) Accurately ripped
04 [89419f5f] (1/1) Accurately ripped
05 [0a7c589d] (1/1) Accurately ripped
06 [130190d8] (1/1) Accurately ripped
07 [29f815c9] (1/1) Accurately ripped
08 [947874bf] (1/1) Accurately ripped
09 [f5394dee] (1/1) Accurately ripped
10 [21c89868] (1/1) Accurately ripped
11 [6fae3c51] (1/1) Accurately ripped

Track Peak [ CRC32 ] [W/O NULL] [ LOG ]
– 90,1 [505DF9FD] [0284E286] CRC32
01 38,7 [4E084A1F] [826966C2]
02 72,9 [05416AF0] [7E157969]
03 72,7 [11CEC9CE] [D2ADCDEC]
04 23,0 [97716FF6] [2A50F2CB]
05 72,5 [C682105C] [6C33711A]
06 81,6 [F4DEF0D7] [488027D8]
07 73,0 [AA361C41] [9C0B1A98]
08 73,1 [5E9E26E7] [FC472762]
09 90,1 [D59546B0] [0FEE17F9]
10 65,5 [3A3A81D8] [B691B52B]
11 67,9 [728ED69C] [8E8ACA90]



DOWNLOAD: U.D.O. - Timebomb [1st Japan press]

FileSonic

lossless
http://www.filesonic.com/file/1623145441/UDO1991JL.part1.rar
http://www.filesonic.com/file/1623150191/UDO1991JL.part2.rar
http://www.filesonic.com/file/1623150031/UDO1991JL.part3.rar

Covers
http://www.filesonic.com/file/1623145461/UDO1991JC.rar

MP3 CBR 320
http://www.filesonic.com/file/1623154801/UDO1991JM.rar


WUpload
lossless
http://www.wupload.com/file/83519635/UDO1991JL.part1.rar
http://www.wupload.com/file/83520314/UDO1991JL.part2.rar
http://www.wupload.com/file/83520304/UDO1991JL.part3.rar

Covers
http://www.wupload.com/file/83519626/UDO1991JC.rar

MP3 CBR 320
http://www.wupload.com/file/83520772/UDO1991JM.rar


Filepost
lossless
http://filepost.com/files/cm685c21/UDO1991JL.part1.rar
http://filepost.com/files/d22f6421/UDO1991JL.part2.rar
http://filepost.com/files/ac96m677/UDO1991JL.part3.rar

Covers
http://filepost.com/files/m1ec3355/UDO1991JC.rar

MP3 CBR 320
http://filepost.com/files/556c3dme/UDO1991JM.rar


The files are interchangeable. Recovery info has included.