Subcategories

Ulf & Eric Wakenius - Father And Son (2017) {ACT}

Posted By: tiburon
Ulf & Eric Wakenius - Father And Son (2017) {ACT}

Ulf & Eric Wakenius - Father And Son (2017) {ACT}
EAC 1.0b3 | FLAC tracks level 8 | Cue+Log+M3u | Full Scans 600dpi | 292MB + 5% Recovery
Genre: Acoustic Guitar Jazz

The two guitarists take the opportunity on “Father And Son” to explore and to exploit these multiple possibilities to the full: “Irish Vagabond” combines full-on Irish folk music with Arabic elements. “Mistral” is rhythmically punchy, almost like a rock tune, and also has echoes of Al Di Meola. In this tune Ulf Wakenius recounts an experience he had while on tour with Youn Sun Nah. At the Avignon Festival, a powerful wind from the South “almost blew me off the stage, so I decided to write a song about it.” Their “Eleanor Rigby” is captivating; as they honour the Beatles, they achieve a sonority remarkably close to a string quartet. “Paco’s Delight” pays tribute to the unforgettable Paco de Lucía, but their Spanish flamenco technique is also imbued with the buoyancy and verve of Django Reinhardt’s Hot Club swing. With their arrangement of the jazz-fusion classic “Birdland”, Ulf and Eric Wakenius remember another of the pantheon of musical immortals, Joe Zawinul. And finally, Eric Wakenius takes the listener by surprise as a highly persuasive singer in the album's title track by Cat Stevens, which deals with a tricky father-son relationship. “Eric and I are luckier - we don't have those problems,” says Ulf Wakenius. The song also justifies its place in the selection because Cat Stevens has a Swedish mother and a close connection to Sweden.
Track List
01. Intro: Birdland [excerpt] (Joe Zawinul) 1:09
02. Irish Vagabond (Ulf Wakenius) 6:10
03. Meine schöne Heimat / Vem kan segla förutan vind
(traditional) 2:55
04. Mistral (Ulf Wakenius) 5:24
05. Once Upon A Time In America (Ennio Morricone) 3:08
06. Paco's Delight (Ulf Wakenius) 3:37
07. Scarborough Fair (traditional) 2:06
08. Dodge The Dodo / When God Created The Coffee Break
(Esbjörn Svensson, Dan Berglund & Magnus Öström) 3:53
09. Eleanor Rigby (John Lennon & Paul McCartney) 4:55
10. Father And Son (Cat Stevens: Yusuf Islam) 4:23
11. Birdland (Joe Zawinul) 6:44
12. Help The Poor (Charles Singleton) 5:44

musicians
Ulf Wakenius - acoustic guitar
Eric Wakenius - acoustic guitar & vocals

Produced by Ulf Wakenius


Exact Audio Copy V1.0 beta 3 from 29. August 2011

EAC extraction logfile from 13. May 2017, 13:17

Ulf & Eric Wakenius / Father And Son

Used drive : ASUS DRW-24F1ST a Adapter: 0 ID: 0

Read mode : Secure
Utilize accurate stream : Yes
Defeat audio cache : Yes
Make use of C2 pointers : No

Read offset correction : 6
Overread into Lead-In and Lead-Out : No
Fill up missing offset samples with silence : Yes
Delete leading and trailing silent blocks : No
Null samples used in CRC calculations : Yes
Used interface : Native Win32 interface for Win NT & 2000
Gap handling : Appended to previous track

Used output format : User Defined Encoder
Selected bitrate : 128 kBit/s
Quality : High
Add ID3 tag : No
Command line compressor : C:\Program Files (x86)\Exact Audio Copy\FLAC\FLAC.EXE
Additional command line options : -8 -V -T "ARTIST=%artist%" -T "TITLE=%title%" -T "ALBUM=%albumtitle%" -T "DATE=%year%" -T "TRACKNUMBER=%tracknr%" -T "TOTALTRACKS=%numtracks%" -T "GENRE=%genre%" -T "ALBUMARTIST=%albumartist%" -T "ALBUM ARTIST=%albumartist%" -T "COMMENT=EAC Secure Mode, Test & Copy, AccurateRip, FLAC -8" %source%


TOC of the extracted CD

Track | Start | Length | Start sector | End sector
––––––––––––––––––––––––––––-
1 | 0:00.00 | 1:09.13 | 0 | 5187
2 | 1:09.13 | 6:10.73 | 5188 | 33010
3 | 7:20.11 | 2:55.63 | 33011 | 46198
4 | 10:15.74 | 5:24.72 | 46199 | 70570
5 | 15:40.71 | 3:08.61 | 70571 | 84731
6 | 18:49.57 | 3:37.59 | 84732 | 101065
7 | 22:27.41 | 2:06.29 | 101066 | 110544
8 | 24:33.70 | 3:53.47 | 110545 | 128066
9 | 28:27.42 | 4:55.74 | 128067 | 150265
10 | 33:23.41 | 4:23.20 | 150266 | 170010
11 | 37:46.61 | 6:44.57 | 170011 | 200367
12 | 44:31.43 | 5:44.33 | 200368 | 226200


Track 1

Filename K:\EAC\01 - Intro Birdland (excerpt).wav

Pre-gap length 0:00:02.00

Peak level 92.8 %
Extraction speed 3.0 X
Track quality 100.0 %
Test CRC BB608519
Copy CRC BB608519
Track not present in AccurateRip database
Copy OK

Track 2

Filename K:\EAC\02 - Irish Vagabond.wav

Peak level 91.3 %
Extraction speed 4.9 X
Track quality 100.0 %
Test CRC B5CF0204
Copy CRC B5CF0204
Track not present in AccurateRip database
Copy OK

Track 3

Filename K:\EAC\03 - Meine Schone Heimat -Vem kan segla forutan vind.wav

Peak level 89.9 %
Extraction speed 4.9 X
Track quality 100.0 %
Test CRC B96A149C
Copy CRC B96A149C
Track not present in AccurateRip database
Copy OK

Track 4

Filename K:\EAC\04 - Mistral.wav

Peak level 90.6 %
Extraction speed 5.8 X
Track quality 100.0 %
Test CRC 5AC07D82
Copy CRC 5AC07D82
Track not present in AccurateRip database
Copy OK

Track 5

Filename K:\EAC\05 - Once upon a time in America.wav

Peak level 75.9 %
Extraction speed 5.6 X
Track quality 100.0 %
Test CRC 9952BE99
Copy CRC 9952BE99
Track not present in AccurateRip database
Copy OK

Track 6

Filename K:\EAC\06 - Paco's Delight.wav

Peak level 91.0 %
Extraction speed 5.4 X
Track quality 99.9 %
Test CRC 10DD2AA2
Copy CRC 10DD2AA2
Track not present in AccurateRip database
Copy OK

Track 7

Filename K:\EAC\07 - Scarborough Fair.wav

Peak level 84.0 %
Extraction speed 5.7 X
Track quality 100.0 %
Test CRC 8F307E01
Copy CRC 8F307E01
Track not present in AccurateRip database
Copy OK

Track 8

Filename K:\EAC\08 - Dodge The Dodo - When God Created The Coffebreak.wav

Peak level 91.2 %
Extraction speed 6.6 X
Track quality 100.0 %
Test CRC D55E387A
Copy CRC D55E387A
Track not present in AccurateRip database
Copy OK

Track 9

Filename K:\EAC\09 - Eleanor Rigby.wav

Peak level 90.6 %
Extraction speed 7.2 X
Track quality 100.0 %
Test CRC 2A0EE2A5
Copy CRC 2A0EE2A5
Track not present in AccurateRip database
Copy OK

Track 10

Filename K:\EAC\10 - Father and Son.wav

Peak level 90.8 %
Extraction speed 6.5 X
Track quality 99.9 %
Test CRC DF533E5F
Copy CRC DF533E5F
Track not present in AccurateRip database
Copy OK

Track 11

Filename K:\EAC\11 - Birdland.wav

Peak level 90.7 %
Extraction speed 8.1 X
Track quality 100.0 %
Test CRC D30E62F9
Copy CRC D30E62F9
Track not present in AccurateRip database
Copy OK

Track 12

Filename K:\EAC\12 - Help The Poor.wav

Peak level 91.3 %
Extraction speed 8.3 X
Track quality 100.0 %
Test CRC 1BC2DC0E
Copy CRC 1BC2DC0E
Track not present in AccurateRip database
Copy OK


None of the tracks are present in the AccurateRip database

No errors occurred

End of status report

==== Log checksum EE694B194DDE8D0938887E9B482F6714FCFB832CB781041C78FC7037869C1C05 ====


––––––––––––––––––––––––––––––––––––––––
Analyzed: Ulf & Eric Wakenius / Father And Son
––––––––––––––––––––––––––––––––––––––––

DR Peak RMS Duration Track
––––––––––––––––––––––––––––––––––––––––
DR9 -0.65 dB -12.56 dB 1:09 01-Intro Birdland (excerpt)
DR8 -0.79 dB -11.68 dB 6:11 02-Irish Vagabond
DR10 -0.92 dB -15.59 dB 2:56 03-Meine Schone Heimat -Vem kan segla forutan vind
DR7 -0.86 dB -10.21 dB 5:25 04-Mistral
DR14 -2.39 dB -21.24 dB 3:09 05-Once upon a time in America
DR9 -0.82 dB -12.48 dB 3:38 06-Paco's Delight
DR13 -1.51 dB -18.72 dB 2:06 07-Scarborough Fair
DR9 -0.80 dB -13.04 dB 3:54 08-Dodge The Dodo / When God Created The Coffebreak
DR11 -0.85 dB -16.04 dB 4:56 09-Eleanor Rigby
DR8 -0.83 dB -12.31 dB 4:23 10-Father and Son
DR8 -0.84 dB -11.84 dB 6:45 11-Birdland
DR8 -0.79 dB -10.96 dB 5:44 12-Help The Poor
––––––––––––––––––––––––––––––––––––––––

Number of tracks: 12
Official DR value: DR9

Samplerate: 44100 Hz
Channels: 2
Bits per sample: 16
Bitrate: 782 kbps
Codec: FLAC
================================================================================

Ulf & Eric Wakenius - Father And Son (2017) {ACT}
Ulf & Eric Wakenius - Father And Son (2017) {ACT}
Ulf & Eric Wakenius - Father And Son (2017) {ACT}


Thanks to the original ripper