Tags
Language
Tags

Uncle Acid & The Deadbeats - Vol. 1 (2010) [Reissue 2017]

Posted By: gribovar
Uncle Acid & The Deadbeats - Vol. 1 (2010) [Reissue 2017]

Uncle Acid & The Deadbeats - Vol. 1 (2010) [Reissue 2017]
EAC Rip | FLAC (tracks+.cue+log) - 291 MB | MP3 CBR 320 kbps (LAME 3.93) - 105 MB | Covers - 99 MB
Genre: Psychedelic/Stoner Rock | RAR 3% Rec. | Label: Rise Above Records (RISECD210)

Uncle Acid and the Deadbeats' first album, Vol. 1, may not have cost much money to make, but the ideas behind it are solid gold. Working cheaply on clapped-out gear, guitarist/vocalist Kevin Starrs, bassist Kat, and drummer Red take all the dusty tropes of heavy metal, acid rock, biker rock, and doomy psych rock, knock them around mercilessly, then breath life back into them until they shine like new. It's defiantly lo-fi and unadorned by studio gloss, but it works. It doesn't matter that Starrs' grinding guitars sound ready to fizzle out half the time, the bass and drums are barely audible, and the vocals are murky when the songs are so hooky and the performances are so on point. Starrs has a way with reshaping old riffs into something that takes up residence somewhere in the far corner of the brain and won't be shaken free. Check the opening of "Crystal Spiders" or the "Lucifer Sam"-quoting "Vampire Circus" for some strong examples. He can also stick listeners with a chorus as jagged and sharp as a homemade knife, like on the surf metal "Dead Eyes of London" or on the overloaded boogie jam "Do What Your Love Tells You to Do," rip speakers to shreds with long, flamethrower-hot guitar solos, and provide the soundtrack to a night of devil worship, like on the evil "Wind Up Toys." The album is overflowing with brilliant ideas and whiplash-inducing sonic shifts, all sure to leave people shaking their heads and wondering how a band can steal from everyone in sight and still come out sounding original. There are Deep Purple organs, biker movie soundtrack grooves, trippy Santana-esque jams, freaky late-'60s acid visions, and loads of Black Sabbath (both in the pummeling guitars and in Starrs' creepy, whining vocals that come off like he's Ozzy's kid brother); all funneled through the laser-sharp magpie vision of Starrs. He's obviously listened to a ton of music and he's not shy about letting it all come out in his sound. His worship of the past seems to free him to just let loose and bulldoze through the songs like there's nothing holding him back. Vol. 1 has all the promise of a great band straining to break free, and Starrs seems positioned to be a metal hero for the modern post-everything age.
Tracklist:
01. Crystal Spiders
02. Witches Garden
03. Dead Eyes Of London
04. Lonely And Strange
05. Vampire Circus
06. Do What Your Love Tells You
07. I Don't Know
08. Wind Up Toys

Total time: 44:49

Exact Audio Copy V1.1 from 23. June 2015

EAC extraction logfile from 17. March 2018, 13:04

Uncle Acid & The Deadbeats / Vol. 1 [2017, RISECD210]

Used drive : HL-DT-STDVDRAM GH24NSD0 Adapter: 1 ID: 0

Read mode : Secure
Utilize accurate stream : Yes
Defeat audio cache : Yes
Make use of C2 pointers : No

Read offset correction : 6
Overread into Lead-In and Lead-Out : No
Fill up missing offset samples with silence : Yes
Delete leading and trailing silent blocks : No
Null samples used in CRC calculations : Yes
Used interface : Native Win32 interface for Win NT & 2000
Gap handling : Appended to previous track

Used output format : User Defined Encoder
Selected bitrate : 768 kBit/s
Quality : High
Add ID3 tag : No
Command line compressor : C:\Program Files (x86)\Exact Audio Copy\FLAC\FLAC.EXE
Additional command line options : -V -8 -T "Genre=%genre%" -T "Artist=%artist%" -T "Title=%title%" -T "Album=%albumtitle%" -T "Date=%year%" -T "Tracknumber=%tracknr%" -T "Comment=%comment%" %source%


TOC of the extracted CD

Track | Start | Length | Start sector | End sector
––––––––––––––––––––––––––––-
1 | 0:00.00 | 3:33.00 | 0 | 15974
2 | 3:33.00 | 5:18.22 | 15975 | 39846
3 | 8:51.22 | 4:03.54 | 39847 | 58125
4 | 12:55.01 | 8:00.49 | 58126 | 94174
5 | 20:55.50 | 5:32.40 | 94175 | 119114
6 | 26:28.15 | 6:31.55 | 119115 | 148494
7 | 32:59.70 | 3:54.19 | 148495 | 166063
8 | 36:54.14 | 7:53.72 | 166064 | 201610


Track 1

Filename D:\g.y.m\Uncle Acid\2010. Vol. 1 [2017, RISECD210]\01. Crystal Spiders.wav

Pre-gap length 0:00:02.00

Peak level 98.5 %
Extraction speed 1.0 X
Track quality 100.0 %
Test CRC 045FB624
Copy CRC 045FB624
Accurately ripped (confidence 7) [BD1CC311] (AR v2)
Copy OK

Track 2

Filename D:\g.y.m\Uncle Acid\2010. Vol. 1 [2017, RISECD210]\02. Witches Garden.wav

Peak level 98.4 %
Extraction speed 1.2 X
Track quality 100.0 %
Test CRC B35AE19A
Copy CRC B35AE19A
Accurately ripped (confidence 7) [8042A1FB] (AR v2)
Copy OK

Track 3

Filename D:\g.y.m\Uncle Acid\2010. Vol. 1 [2017, RISECD210]\03. Dead Eyes Of London.wav

Peak level 98.5 %
Extraction speed 1.3 X
Track quality 100.0 %
Test CRC 41B19681
Copy CRC 41B19681
Accurately ripped (confidence 7) [9E3844EE] (AR v2)
Copy OK

Track 4

Filename D:\g.y.m\Uncle Acid\2010. Vol. 1 [2017, RISECD210]\04. Lonely And Strange.wav

Peak level 98.4 %
Extraction speed 0.5 X
Track quality 100.0 %
Test CRC F64EC50F
Copy CRC F64EC50F
Accurately ripped (confidence 7) [EBB5F322] (AR v2)
Copy OK

Track 5

Filename D:\g.y.m\Uncle Acid\2010. Vol. 1 [2017, RISECD210]\05. Vampire Circus.wav

Peak level 98.5 %
Extraction speed 1.6 X
Track quality 100.0 %
Test CRC 5800B705
Copy CRC 5800B705
Accurately ripped (confidence 7) [99B94FC0] (AR v2)
Copy OK

Track 6

Filename D:\g.y.m\Uncle Acid\2010. Vol. 1 [2017, RISECD210]\06. Do What Your Love Tells You.wav

Peak level 98.5 %
Extraction speed 1.6 X
Track quality 99.9 %
Test CRC 32891E74
Copy CRC 32891E74
Accurately ripped (confidence 7) [DE9EC3E2] (AR v2)
Copy OK

Track 7

Filename D:\g.y.m\Uncle Acid\2010. Vol. 1 [2017, RISECD210]\07. I Don't Know.wav

Peak level 98.5 %
Extraction speed 1.8 X
Track quality 100.0 %
Test CRC CE26DBAD
Copy CRC CE26DBAD
Accurately ripped (confidence 7) [0EB65C44] (AR v2)
Copy OK

Track 8

Filename D:\g.y.m\Uncle Acid\2010. Vol. 1 [2017, RISECD210]\08. Wind Up Toys.wav

Peak level 98.5 %
Extraction speed 0.5 X
Track quality 100.0 %
Test CRC 4D93732A
Copy CRC 4D93732A
Accurately ripped (confidence 7) [1BBFFDA8] (AR v2)
Copy OK


All tracks accurately ripped

No errors occurred

End of status report

==== Log checksum F2B4029942BB729BB5DB676B0C234B54CF391F4FBCAF31FB267D965E2376824C ====

[CUETools log; Date: 19.10.2018 15:32:11; Version: 2.1.4]
[CTDB TOCID: 3nq6VthQzjethuxFk6VQikv8tg0-] found.
Track | CTDB Status
1 | (34/34) Accurately ripped
2 | (34/34) Accurately ripped
3 | (34/34) Accurately ripped
4 | (34/34) Accurately ripped
5 | (34/34) Accurately ripped
6 | (34/34) Accurately ripped
7 | (34/34) Accurately ripped
8 | (33/34) Accurately ripped
[AccurateRip ID: 000cde90-0057c4e5-660a8008] found.
Track [ CRC | V2 ] Status
01 [6501b692|bd1cc311] (00+10/10) Accurately ripped
02 [f39b8d34|8042a1fb] (00+10/10) Accurately ripped
03 [ccb48f9d|9e3844ee] (00+10/10) Accurately ripped
04 [bdf8239a|ebb5f322] (00+10/10) Accurately ripped
05 [ee7cdbc6|99b94fc0] (00+10/10) Accurately ripped
06 [a64f434e|de9ec3e2] (00+10/10) Accurately ripped
07 [08ff25a0|0eb65c44] (00+10/10) Accurately ripped
08 [49bd56d3|1bbffda8] (00+10/10) Accurately ripped

Track Peak [ CRC32 ] [W/O NULL] [ LOG ]
– 98,5 [C27A43F6] [DF97E4CE]
01 98,5 [045FB624] [EA7E7231] CRC32
02 98,4 [B35AE19A] [B99259A0] CRC32
03 98,5 [41B19681] [13A950C7] CRC32
04 98,4 [F64EC50F] [08A0C602] CRC32
05 98,5 [5800B705] [BC134795] CRC32
06 98,5 [32891E74] [4DF69F34] CRC32
07 98,5 [CE26DBAD] [546386F1] CRC32
08 98,5 [4D93732A] [B9A8FD02] CRC32

Thanks to g.y.m.

See also:
Uncle Acid & The Deadbeats - Blood Lust (2011)
Uncle Acid & The Deadbeats...trol (2013) [Japanese Edition]
Uncle Acid & The Deadbeats...eper (2015) [Japanese Edition]
Uncle Acid & The Deadbeats - Wasteland (2018)