Tags
Language
Tags

Unreal City - Frammenti Notturni (2017)

Posted By: popsakov
Unreal City - Frammenti Notturni (2017)

Unreal City - Frammenti Notturni (2017)
EAC Rip | FLAC (Img) + Cue + Log ~ 310 Mb | MP3 CBR320 ~ 115 Mb
Full Scans ~ 220 Mb | 00:47:42 | RAR 5% Recovery
Progressive Rock, RPI | AMS Records #AMS283CD

Unreal City was founded in 2008 by pianist/keyboardist Emanuele Tarasconi and guitarist Francesca Zanetta. Consequently to the release of the first self titled EP in 2012, the band began an insense live activity in Northern Italy music venues, thus drawing attention from both critics and music industry operators. In January 2013 the band signed with AMS Records and joined Hilary Studios in Genoa to start the recording sessions for “La Crudeltà Di Aprile”, Unreal City debut album, that was released on 24th April 2013 amd immediately followed by the airing of a videoclip for “Dove La Luce E’ Più Intensa”, single extracted from the album.

“La Crudeltà Di Aprile” gained unexpected astonishing attention from both Italian and International critics and Unreal City decided to embark in an international promotion tour during 2014, playing on stages like the Terra Incognita Progressif Festival in Québec City (Canada), MetaRock festival with Banco Del Mutuo Socorso in Pisa, the Cre.Sta Festival and the FIM Festival in Genoa and the Il Giardino Club in Verona, Italy.

On 15th December 2014 the band preaired a videoclip for “Lo Schermo Di Pietra”, first single to be extracted from “Il Paese Del Tramonto”, second album by Unreal City, which has been released on 15th January 2015 for AMS Records. Unreal City spent most of 2015 and 2016 touring across continental Europe and America, leading stages in The Netherlands, Austria, Germany, Belgium, France, Switerland, Italy, Croatia, Bosnia and Canada.

At the beginning of 2017 the band renewed its contract with AMS Records and joined Studio2 in Padua to record tracks for a new album, which will be published on 10th September 2017. The band is now planning an international promotional tour starting from September 2017.
Unreal City - Frammenti Notturni (2017)


***************

Unreal City - Frammenti Notturni (2017)

Unreal City - Frammenti Notturni (2017)

Track List:

01. La Grande Festa in Maschera (a. Désir; b. Exitacion; c. Plateau; d. Orgasme; e. Résolution) [13:14]
02. Le Luci delle Case (Spente) [11:00]
03. Barricate [5:47]
04. Il Nido delle Succubi [9:48]
05. Arrivi all’Aurora [7:53]

Personnel:
Emanuele Tarasconi — vocals, piano, synthesizers, mellotron, clavinet
Francesca Zanetta — electric/acoustic guitars, mellotron
Dario Pessina — bass, bass pedals, backing vocals
Federico Bedostri — drums, percussion

Guests:
Matteo Bertani — violin
Camilla Pozzi — backing vocals

Exact Audio Copy V1.3 from 2. September 2016

Отчёт EAC об извлечении, выполненном 3. октября 2017, 9:47

UNREAL CITY / Frammenti Notturni

Дисковод: TSSTcorpCDDVDW SH-224DB Adapter: 1 ID: 0

Режим чтения : Достоверность
Использование точного потока : Да
Отключение кэша аудио : Да
Использование указателей C2 : Нет

Коррекция смещения при чтении : 6
Способность читать области Lead-in и Lead-out : Нет
Заполнение пропущенных сэмплов тишиной : Да
Удаление блоков с тишиной в начале и конце : Нет
При вычислениях CRC использовались нулевые сэмплы : Да
Интерфейс : Встроенный Win32-интерфейс для Win NT/2000

Выходной формат : Внутренние WAV-операции
Формат сэмплов : 44.100 Гц; 16 бит; стерео


TOC извлечённого CD

Трек | Старт | Длительность | Начальный сектор | Конечный сектор
––––––––––––––––––––––––––––––––––-
1 | 0:00.00 | 13:14.33 | 0 | 59582
2 | 13:14.33 | 11:00.07 | 59583 | 109089
3 | 24:14.40 | 5:46.59 | 109090 | 135098
4 | 30:01.24 | 9:48.16 | 135099 | 179214
5 | 39:49.40 | 7:52.57 | 179215 | 214671


Характеристики диапазона извлечения и сообщения об ошибках

Выбранный диапазон

Имя файла D:\TEMP\UNREAL CITY - 2017 - Frammenti Notturni.wav

Пиковый уровень 97.3 %
Скорость извлечения 7.0 X
Качество диапазона 100.0 %
CRC теста 119B8968
CRC копии 119B8968
Копирование… OK

Ошибок не произошло


AccurateRip: сводка

Трек 1 отсутствует в базе данных
Трек 2 отсутствует в базе данных
Трек 3 отсутствует в базе данных
Трек 4 отсутствует в базе данных
Трек 5 отсутствует в базе данных

Ни одного трека нет в базе AccurateRip

Конец отчёта

==== Контрольная сумма отчёта 47924051D66C8AE21BE5EE1A44453AD110C51BE59B0740725EEE12F0AB40870F ====

Unreal City - Frammenti Notturni (2017)


All thanks go to spAceLover

>>> My Blog <<<

DOWNLOAD: