Subcategories
Tags
Language
Tags

Unreal City - La Crudeltà di Aprile (2013)

Posted By: gribovar
Unreal City - La Crudeltà di Aprile (2013)

Unreal City - La Crudelta di Aprile (2013)
EAC Rip | FLAC (image+.cue+log) - 399 MB | MP3 CBR 320 kbps (LAME 3.93) - 139 MB | Covers - 221 MB
Genre: Progressive Rock | RAR 3% Rec. | Label: Mirror Records (MRL 1006)

The young members of Unreal City project something of a retro-modern image and their music also enjoys the best of both old and new. The tracks on ''La Crudeltà Di Aprile'' display a similar present day consciousness but they do so with reference to the traditional RPI creed. That epic tradition manifests itself through typical Italian lyricism and the unrestrained expansion of lavish arrangements adorned with Mellotron, Moog, church organ, violin and lute. The texts scrutinize dark themes of psychological conflict (the trauma of Oedipal separation, corruption, the mediation between the conscious and unconscious realms) and draw inspiration from encounters with shadow forces (Faust, primitive deities, witches' Sabbaths) although these related stories ultimately present a narrative of personal growth. The lyrical themes also seem to release the collective imagination of the band and the end result is a phantasmagoric Italian Symphonic Prog with a dark gothic bias.
Looking at Unreal City in the context of new Italian groups it might not be too much of a stretch to describe them as the archetypal modern RPI band, and ''La Crudeltà Di Aprile'' is an absolute must-have for fans of the genre.

Tracklist:
01. Dell’Innocenza Perduta
02. Atlantis (Conferendis Pecuniis)
03. Catabasi (Descensio ad Inferos)
04. Dove la Luce è Più Intensa
05. Ecate (Walpurgisnacht)
06. Horror Vacui
a) Le Radici del Mare
b) L’Assassino
c) Nel Sonno della Ragione
d) Il Baratro della Follia

Total time: 59:21

Exact Audio Copy V1.3 from 2. September 2016

Отчёт EAC об извлечении, выполненном 9. сентября 2017, 13:48

UNREAL CITY / La Crudeltà di Aprile

Дисковод: TSSTcorpCDDVDW SH-224DB Adapter: 1 ID: 0

Режим чтения : Достоверность
Использование точного потока : Да
Отключение кэша аудио : Да
Использование указателей C2 : Нет

Коррекция смещения при чтении : 6
Способность читать области Lead-in и Lead-out : Нет
Заполнение пропущенных сэмплов тишиной : Да
Удаление блоков с тишиной в начале и конце : Нет
При вычислениях CRC использовались нулевые сэмплы : Да
Интерфейс : Встроенный Win32-интерфейс для Win NT/2000

Выходной формат : Внутренние WAV-операции
Формат сэмплов : 44.100 Гц; 16 бит; стерео


TOC извлечённого CD

Трек | Старт | Длительность | Начальный сектор | Конечный сектор
––––––––––––––––––––––––––––––––––-
1 | 0:00.00 | 7:30.68 | 0 | 33817
2 | 7:30.68 | 9:51.61 | 33818 | 78203
3 | 17:22.54 | 8:00.62 | 78204 | 114265
4 | 25:23.41 | 7:03.19 | 114266 | 146009
5 | 32:26.60 | 9:00.31 | 146010 | 186540
6 | 41:27.16 | 17:54.19 | 186541 | 267109


Характеристики диапазона извлечения и сообщения об ошибках

Выбранный диапазон

Имя файла D:\TEMP\UNREAL CITY - 2013 - La Crudelta di Aprile.wav

Пиковый уровень 100.0 %
Скорость извлечения 7.4 X
Качество диапазона 100.0 %
CRC теста 75C1D2D7
CRC копии 75C1D2D7
Копирование… OK

Ошибок не произошло


AccurateRip: сводка

Трек 1 : извлечено точно (доверие 8) [584D0B5F] (AR v2)
Трек 2 : извлечено точно (доверие 8) [399D4D0A] (AR v2)
Трек 3 : извлечено точно (доверие 8) [F84D7DAC] (AR v2)
Трек 4 : извлечено точно (доверие 8) [C95EF2C1] (AR v2)
Трек 5 : извлечено точно (доверие 8) [39C5F9AC] (AR v2)
Трек 6 : извлечено точно (доверие 8) [0EE526B0] (AR v2)

Все треки извлечены точно

Конец отчёта

==== Контрольная сумма отчёта 8B70697C48B8F331E13A311E7F24655255B267EE65611E7F3927B66F970AE0DE ====

[CUETools log; Date: 17.06.2021 11:51:41; Version: 2.1.4]
[CTDB TOCID: sNOp8hcg4bj86xHFpca8.pDAHWA-] found.
Track | CTDB Status
1 | (15/15) Accurately ripped
2 | (15/15) Accurately ripped
3 | (14/15) Accurately ripped
4 | (14/15) Accurately ripped
5 | (14/15) Accurately ripped
6 | (14/15) Accurately ripped
[AccurateRip ID: 000c9a5d-004455ab-500de906] found.
Track [ CRC | V2 ] Status
01 [0ec26efc|584d0b5f] (0+9/9) Accurately ripped
02 [673feac7|399d4d0a] (0+9/9) Accurately ripped
03 [ea7b350e|f84d7dac] (0+9/9) Accurately ripped
04 [a5303ec8|c95ef2c1] (0+9/9) Accurately ripped
05 [fad7c16b|39c5f9ac] (0+9/9) Accurately ripped
06 [1f6811b4|0ee526b0] (0+9/9) Accurately ripped

Track Peak [ CRC32 ] [W/O NULL] [ LOG ]
– 100,0 [75C1D2D7] [5F84F7D1] CRC32
01 98,8 [0821296B] [D7B40EF1]
02 98,8 [8F815456] [94DF9E1C]
03 98,8 [9EB73FA7] [7593AA9A]
04 100,0 [13F81604] [FEAE9416]
05 98,8 [14262F4E] [0367304B]
06 98,8 [6EF9A172] [EDA13A0F]

Thanks to spAceLover