Subcategories

VA - 111 The Violin: Legendary Recordings (2016) (42 CD Box Set)

Posted By: murena
VA - 111 The Violin: Legendary Recordings (2016) (42 CD Box Set)

VA - 111 The Violin: Legendary Recordings (2016) (42 CD Box Set)
EAC Rip | FLAC (Tracks+.cue, log) | Covers included | 11,6 Gb
MP3 320 kbps | 42CDs | 6 Gb
Genre: Classical / Label: Deutsche Grammophon

Deutsche Grammophon proudly presents 42 of its greatest ever recordings for violin, from its matchless catalogue of the finest violinists of the last 75 years. Fritz Kreisler began it all for the company by recording a series of his own compositions and arrangements. 31 violinists grace 111 The Violin, with recordings from the early 1900s to 2012.

This 42CD collection presents a huge range of repertoire, from seventeenth-century Italian violin music, through all the great concertos and many sonatas to the masterworks of the twentieth century.

31 great violinists appear in Deutsche Grammophon s 111 THE VIOLIN limited-edition box-set, from Salvatore Accardo to Pinchas Zukerman, from Fritz Kreisler at the beginning of the twentieth century to Lisa Batiashvili at the beginning of the twenty-first. In between come names like Jascha Heifetz, David Oistrakh, Wolfgang Schneiderhan, Ruggiero Ricci, Nathan Milstein, Henryk Szeryng, Yehudi Menuhin, Itzhak Perlman, Gidon Kremer, Anne-Sophie Mutter, Shlomo Mintz, Gil Shaham, David Garrett, Hilary Hahn, and Daniel Hope; the Early Music virtuosi Eduard Melkus, Reinhard Goebel, Simjon Standage and Giuliano Carmignano are also included.

A huge range of repertoire if on offer, from seventeenth-century Italian violin music, through all the great concertos and many sonatas to the masterworks of the twentieth century

VA - 111 The Violin: Legendary Recordings (2016) (42 CD Box Set)


CDs:
CD 1 Salvatore Accardo – Paganini: Capricen Nr. 1-24 für Violine solo
CD 2 Shmuel Ashkenasi - Paganini: Vilinkonzerte Nr. 1 & 2 (Wiener Symphoniker, Heribert Esser)
CD 3 Lisa Batiashvili – „Echos of Time” – Schostakowitsch: Violinkonzert Nr. 1; Lyrischer Walzer;
Kancheli: V & V; Pärt: Spiegel im Spiegel; Rachmaninoff: Vocalise op. 34 Nr. 14 (Helene Grimaud, Symphonieorchester des Bayerischen Rundfunks, Esa-Pekka Salonen)
CD 4 Giuliano Carmignola – „Concerto Veneziano”: Vivaldi: Konzert RV 583 für Violine, Streicher "in due cori", 2 Cembali; Violinkonzert RV 278; Locatelli: Violinkonzert op. 3, 9; Tartini: Violinkonzert D. 96 (Venice Baroque Orchestra, Andrea Marcon)
CD 5 Giuliano Carmignola - Haydn: Violinkonzerte Nr. 1, 3,4 (Orchestre des Champs-Elysees, Alessandro Moccia)
CD 6 Kyung-Wha Chung- Strauss: Violinsonate op. 18; Respighi: Violinsonate h-moll (Krystian Zimerman)
CD 7 Augustin Dumay - Franck: Violinsonate A-dur; Debussy: Violinsonate g-moll; Ravel: Berceuse; Vocalise; Tzigane (Maria Joao Pires)
CD 8 Christian Ferras - Schumann: Violinsonaten Nr. 1 & 2; 3 Romanzen op. 94 (Pierre Barbizet)
CD 9 David Garrett- Bach: Partita BWV 1004; Beethoven: Violinsonate Nr. 5 “Frühlings-Sonate”; Mozart: Adagio KV 261 für Violine & Klavier (Alexander Markovich)
CD 10 Reinhard Goebel – “Early Italian Violin Music” –Werke von Gabrieli, Rossi, Fontana, Marini, Farini, Buonamente (Musica Antiqua Köln)
CD 11 Reinhard Goebel – Bach: Violinsonaten BWV 1014-1018
CD 12 Hilary Hahn - Elgar: Violinkonzert op. 61; Vaughan Williams: The Lark Ascending (London Symphony Orchestra, Colin Davis)
CD 13 Hilary Hahn - Sibelius: Violinkonzert op. 47; Schönberg: Violinkonzert op. 36 (Swedish Radio Symphony Orchestra, Salonen)
CD 14 / 15 Jascha Heifetz – “It Ain’t Necessarily So” – Werke von Gardner, Benjamin / Primrose, Debussy / Heifetz, Ravel, White, Rossini / Castelnuovo-Tedesco, Foster, Herbert, Dvorak, Godowsky, Berlin, Gershwin, Dyer, Debussy, Vale, Aguirre, Schostakowitsch, Grasse, Russell Bennett u. a.
CD 16 Daniel Hope – “Spheres” – Werke von Auerbach, Bach, Baranowski, Einaudi, Faure, Glass, Gundermann, Igudesman, Jenkins, Kats-Chernin, Nyman, Pärt, G. Prokofiev, M. Richter, von Westhoff
(Rundfunkchor Berlin, Deutsches Kammerorchester Berlin, Simon Halsey)
CD 17 Gidon Kremer - Glass: Violinkonzert; Bernstein: Serenade; Rorem: Violinkonzert (Wiener Philharmoniker, Israel Philharmonic Orchestra, New York Philharmonic, Leonard Bernstein, Christoph von Dohnanyi)
CD 18 Gidon Kremer: Beethoven: Violinsonaten Nr. 9 & 10 (Martha Argerich)
CD 19 Johanna Martzy - Dvorak: Violinkonzert op. 53 (RIAS-Symphonie-Orchester Berlin, Ferenc Fricsay)
CD 20 Eduard Melkus - Corelli: Violinsonaten op. 5
CD 21 Yehudi Menuhin – Beethoven: Violinsonaten Nr. 6-8 (Wilhelm Kempff)
CD 22 Nathan Milstein - Tschaikowsky: Violinkonzert op. 35; Zugaben von Geminiani, Milstein, Schubert, Strawinsky, Kodaly, Mussorgsky (Georges Pludermacher, Wiener Philharmoniker, Claudio Abbado)
CD 23 Shlomo Mintz - Mendelssohn: Violinkonzert op. 64; Bruch: Violinkonzert Nr. 1 (Wiener Philharmoniker, Claudio Abbado)
CD 24 Shlomo Mintz - Faure: Violinsonaten Nr. 1 & 2 (Yefim Bronfman)
CD 25 Erica Morini – Mozart: Violinsonate KV 296; Beethoven: Violinsonate Nr. 3; Vivaldi: Violinsonate D-Dur; Tartini: Violinsonate c-mol “Didone Abbandonnata” (Rudolf Firkusny, Leon Pommers)
CD 26 Anne-Sophie Mutter - Beethoven: Violinkonzert op. 61; Romanzen Nr. 1 & 2 für Violine & Orchester (New York Philoharmonic, Kurt Masur)
CD 27 Anne-Sophie Mutter - Brahms: Violinkonzert op. 77; Schumann: Fantasie op. 131 (New York Philharmonic, Kurt Masur)
CD 28 Anne-Sophie Mutter - Dutilleux: Sur le meme accord; Bartok: Violinkonzert Nr. 2; Strawinsky: Violinkonzert (Orchestra National de France, Kurt Masur; Boston Symphony Orchestsra, Seiji Ozawa; Philharmonic Orchestra, Paul Sacher)
CD 29 David Oistrach – Brahms: Violinkonzert op. 77; Tschaikowsky: Violinkonzert op. 35 (Sächsische Staatskapelle Dresden, Franz Konwitschny)
CD 30 Itzhak Perlman - Wieniawski: Violinkonzert Nr. 2; Saint-Saens: Violinkonzert Nr. 3 (Orchestre de Paris, Daniel Barenboim)
CD 31 Itzhak Perlman – Berg: Violinkonzert; Strawinsky: Violinkonzert; Ravel: Tzigane (Boston Symphony Orchestra, Seiji Ozawa)
CD 32 Vasa Prihoda - Dvorak: Sonatine G-Dur op. 100; Smetana: Aus der Heimat (Michael Raucheisen); Georg Kulenkampff - Beethoven: Violinsonate Nr. 9 “Kreutzer” (Wilhelm Kempff)
CD 33 Ruggiero Ricci – Kreisler: Liebesfreud; Liebesleid u. a. (Fritz Kreisler)
CD 34 Wolfgang Schneiderhan - Beethoven: Violinkonzert op. 61; Mozart: Violinkonzert Nr. 5 (Berliner Philharmoniker, Eugen Jochum)
CD 35 Gil Shaham - Barber: Violinkonzert op. 14; Korngold: Violinkonzert op. 35; Much Ado About Nothing -Suite op. 11 (London Symphony Orchestra, Andre Previn)
CD 36 Gil Shaham – Prokofieff: Violinkonzerte Nr. 1 & 2; Sonate für Violine solo (London Symphony Orchestra, Andre Previn)
CD 37 Simon Standage – Bach: Violinkonzerte BWV-1043 (The English Concert, Trevor Pinnock)
CD 38 Vivaldi: Concerti op. 8 Nr. 1-4 “Die vier Jahreszeiten“ (The English Concert, Trevor Pinnock)
CD 39 / 40 Henryk Szeryng – Bach: Sonaten & Partiten für Violine solo BWV 1001–1006
CD 41 Tibor Varga – Bartok: Violinsonate Nr. 1; Sonate für Violine solo (Edith Farnadi)
CD 42 Pinchas Zukerman - Brahms: Violinsonaten Nr. 1-3 (Daniel Barenboim)


Disc: 1
1. No. 1 In E - Salvatore Accardo
2. No. 2 in B minor - Salvatore Accardo
3. No. 3 In E Minor - Salvatore Accardo
4. No. 4 In C Minor - Salvatore Accardo
5. No. 5 in a minor - Salvatore Accardo
6. No. 6 in G minor - Salvatore Accardo
7. No. 7 in A minor - Salvatore Accardo
8. No. 8 in E flat - Salvatore Accardo
9. No. 9 In E - Salvatore Accardo
10. No. 10 In G Minor - Salvatore Accardo
11. No. 11 In C - Salvatore Accardo
12. No. 12 in A flat - Salvatore Accardo
13. No. 13 in B flat - Salvatore Accardo
14. No. 14 In E Flat - Salvatore Accardo
15. No. 15 in E minor - Salvatore Accardo
16. No. 16 In G Minor - Salvatore Accardo
17. No. 17 In E Flat - Salvatore Accardo
18. No. 18 in C - Salvatore Accardo
19. No. 19 in E flat - Salvatore Accardo
20. No. 20 in D - Salvatore Accardo
21. No. 21 in A - Salvatore Accardo
22. No. 22 in F - Salvatore Accardo
23. No. 23 in E - Salvatore Accardo
24. No. 24 In A Minor - Salvatore Accardo

Disc: 2
1. 1. Allegro maestoso - Shmuel Ashkenasi, Wiener Symphoniker, Heribert Esser
2. 2. Adagio - Shmuel Ashkenasi, Wiener Symphoniker, Heribert Esser
3. 3. Rondo (Allegro spirituoso) - Shmuel Ashkenasi, Wiener Symphoniker, Heribert Esser
4. 1. Allegro maestoso - Shmuel Ashkenasi, Wiener Symphoniker, Heribert Esser
5. 2. Adagio - Shmuel Ashkenasi, Wiener Symphoniker, Heribert Esser
6. 3. Rondo à la clochette, 'La campanella' - Shmuel Ashkenasi, Wiener Symphoniker, Heribert Esser

Disc: 3
1. 1. Nocturne (Moderato) - Lisa Batiashvili, Symphonieorchester des Bayerischen Rundfunks, Esa-Pekka Salonen
2. 2. Scherzo (Allegro) - Lisa Batiashvili, Symphonieorchester des Bayerischen Rundfunks, Esa-Pekka Salonen
3. 3. Passacaglia (Andante) - Lisa Batiashvili, Symphonieorchester des Bayerischen Rundfunks, Esa-Pekka Salonen
4. 4. Burlesque (Allegro con brio - Presto) - Lisa Batiashvili, Symphonieorchester des Bayerischen Rundfunks, Esa-Pekka Salonen
5. V & V - Lisa Batiashvili, Symphonieorchester des Bayerischen Rundfunks, Esa-Pekka Salonen
6. Lyric Waltz - Lisa Batiashvili, Symphonieorchester des Bayerischen Rundfunks, Esa-Pekka Salonen
7. Spiegel im Spiegel - Lisa Batiashvili, Hélène Grimaud
8. Vocalise, Op.34 No.14 - Lisa Batiashvili, Hélène Grimaud

Disc: 4
1. 1. Largo e spiccato - Allegro non molto - Giuliano Carmignola, Venice Baroque Orchestra, Andrea Marcon
2. 2. Andante - Venice Baroque Orchestra, Andrea Marcon, Giuliano Carmignola
3. 3. Allegro - Venice Baroque Orchestra, Andrea Marcon, Giuliano Carmignola
4. 1. Allegro molto - Venice Baroque Orchestra, Andrea Marcon, Giuliano Carmignola
5. 2. Largo - Venice Baroque Orchestra, Andrea Marcon, Giuliano Carmignola
6. 3. Allegro - Venice Baroque Orchestra, Andrea Marcon, Giuliano Carmignola
7. 1. Allegro - Capriccio - Cadenza - Giuliano Carmignola, Venice Baroque Orchestra, Andrea Marcon
8. 2. Largo - Giuliano Carmignola, Venice Baroque Orchestra, Andrea Marcon
9. 3. Allegro - Capriccio - Allegro - Giuliano Carmignola, Venice Baroque Orchestra, Andrea Marcon
10. 1. Allegro - Giuliano Carmignola, Venice Baroque Orchestra, Andrea Marcon
11. 2. Adagio - Venice Baroque Orchestra, Andrea Marcon, Giuliano Carmignola
12. 3. (Presto) - Giuliano Carmignola, Venice Baroque Orchestra, Andrea Marcon
13. 4. Largo andante - Giuliano Carmignola, Venice Baroque Orchestra, Andrea Marcon

Disc: 5
1. 1. Allegro moderato - Giuliano Carmignola, Orchestre des Champs-Elysées, Alessandro Moccia
2. 2. Adagio - Giuliano Carmignola, Orchestre des Champs-Elysées, Alessandro Moccia
3. 3. Finale (Presto) - Giuliano Carmignola, Orchestre des Champs-Elysées, Alessandro Moccia
4. 1. Moderato - Giuliano Carmignola, Orchestre des Champs-Elysées, Alessandro Moccia
5. 2. Adagio - Giuliano Carmignola, Orchestre des Champs-Elysées, Alessandro Moccia
6. 3. Finale (Allegro) - Giuliano Carmignola, Orchestre des Champs-Elysées, Alessandro Moccia
7. 1. Allegro moderato - Giuliano Carmignola, Orchestre des Champs-Elysées, Alessandro Moccia
8. 2. Adagio - Giuliano Carmignola, Orchestre des Champs-Elysées, Alessandro Moccia
9. 3. Allegro - Giuliano Carmignola, Orchestre des Champs-Elysées, Alessandro Moccia

Disc: 6
1. 1. Allegro ma non troppo - Kyung Wha Chung, Krystian Zimerman
2. 2. Improvisation (Andante cantabile) - Kyung Wha Chung, Krystian Zimerman
3. 3. Finale (Andante-Allegro) - Kyung Wha Chung, Krystian Zimerman
4. 1. Moderato - Kyung Wha Chung, Krystian Zimerman
5. 2. Andante espressivo - Kyung Wha Chung, Krystian Zimerman
6. 3. Passacaglia - Allegro moderato ma energico Allegro moderato, ma energico - Kyung Wha Chung, Krystian Zimerman

Disc: 7
1. 1. Allegretto ben moderato - Augustin Dumay, Maria João Pires
2. 2. Allegro- Quasi lento- Tempo 1 (Allegro) - Augustin Dumay, Maria João Pires
3. 3. Recitativo - Fantasia (Ben moderato - Largamente - Molto vivace) - Augustin Dumay, Maria João Pires
4. 4. Allegretto poco mosso - Augustin Dumay, Maria João Pires
5. 1. Allegro vivo - Augustin Dumay, Maria João Pires
6. 2. Intermède (Fantasque et léger) - Augustin Dumay, Maria João Pires
7. 3. Finale (Très animé) - Augustin Dumay, Maria João Pires
8. Berceuse sur le nom de Gabriel Fauré - Augustin Dumay, Maria João Pires
9. Vocalise-Etude (en forme de Habanera) - Augustin Dumay, Maria João Pires
10. Tzigane - Augustin Dumay, Maria João Pires

Disc: 8
1. 1. Mit leidenschaftlichem Ausdruck - Christian Ferras, Pierre Barbizet
2. 2. Allegretto - Christian Ferras, Pierre Barbizet
3. 3. Lebhaft - Christian Ferras, Pierre Barbizet
4. No.1 Nicht schnell - Christian Ferras, Pierre Barbizet
5. No.2 Einfach, innig - Christian Ferras, Pierre Barbizet
6. No.3 Nicht schnell - Christian Ferras, Pierre Barbizet
7. 1. Ziemlich langsam - Lebhaft - Christian Ferras, Pierre Barbizet
8. 2. Sehr lebhaft - Christian Ferras, Pierre Barbizet
9. 3. Leise, einfach - Christian Ferras, Pierre Barbizet
10. 4. Bewegt - Christian Ferras, Pierre Barbizet

Disc: 9
1. 1. Allegro - David Garrett, Alexander Markovich
2. 2. Adagio molto espressivo - David Garrett, Alexander Markovich
3. 3. Scherzo (Allegro molto) - David Garrett, Alexander Markovich
4. 4. Rondo (Allegro ma non troppo) - David Garrett, Alexander Markovich
5. 1. Allemande - David Garrett
6. 2. Corrente - David Garrett
7. 3. Sarabande - David Garrett
8. 4. Giga - David Garrett
9. 5. Ciaccona - David Garrett
10. Adagio - David Garrett, Alexander Markovich

Disc: 10
1. Sonata con tre violini (XXI from Canzoni et Sonate, 1615) - Musica Antiqua Köln, Reinhard Goebel
2. Sonata sopra l'aria di Ruggiero - Musica Antiqua Köln, Reinhard Goebel
3. Sonate a tre violini - Musica Antiqua Köln, Reinhard Goebel
4. Passacaglio a 4 - Musica Antiqua Köln, Reinhard Goebel
5. Sonata sopra la Monica - Musica Antiqua Köln, Reinhard Goebel
6. Ecco a tre violini - Musica Antiqua Köln, Reinhard Goebel
7. Capriccio - Musica Antiqua Köln, Reinhard Goebel
8. Sonata detta la Polaca - Musica Antiqua Köln, Reinhard Goebel
9. Sonata a tre violini - Musica Antiqua Köln, Reinhard Goebel

Disc: 11
1. 1. Adagio - Reinhard Goebel, Robert Hill (2)
2. 2. Allegro - Reinhard Goebel, Robert Hill (2)
3. 3. Andante - Reinhard Goebel, Robert Hill (2)
4. 4. Allegro - Reinhard Goebel, Robert Hill (2)
5. 1. - - Reinhard Goebel, Robert Hill (2)
6. 2. Allegro - Reinhard Goebel, Robert Hill (2)
7. 3. Andante un poco - Reinhard Goebel, Robert Hill (2)
8. 4. Presto - Reinhard Goebel, Robert Hill (2)
9. 1. Adagio - Reinhard Goebel, Robert Hill (2)
10. 2. Allegro - Reinhard Goebel, Robert Hill (2)
11. 3. Adagio ma non tanto - Reinhard Goebel, Robert Hill (2)
12. 4. Allegro - Reinhard Goebel, Robert Hill (2)
13. 1. Largo - Reinhard Goebel, Robert Hill (2)
14. 2. Allegro - Reinhard Goebel, Robert Hill (2)
15. 3. Adagio - Reinhard Goebel, Robert Hill (2)
16. 4. Allegro - Reinhard Goebel, Robert Hill (2)
17. 1. Largo - Reinhard Goebel, Robert Hill (2)
18. 2. Allegro - Reinhard Goebel, Robert Hill (2)
19. 3. Adagio - Reinhard Goebel, Robert Hill (2)
20. 4. Vivace - Reinhard Goebel, Robert Hill (2)

Disc: 12
1. 1. Allegro - Hilary Hahn, London Symphony Orchestra, Colin Davis
2. 2. Andante - Hilary Hahn, London Symphony Orchestra, Colin Davis
3. 3. Allegro molto - Hilary Hahn, London Symphony Orchestra, Colin Davis
4. The Lark Ascending - Hilary Hahn, London Symphony Orchestra, Colin Davis

Disc: 13
1. 1. Poco Allegro - Hilary Hahn, Swedish Radio Symphony Orchestra, Esa-Pekka Salonen
2. 2. Andante grazioso - Hilary Hahn, Swedish Radio Symphony Orchestra, Esa-Pekka Salonen
3. 3. Finale. Allegro - Hilary Hahn, Swedish Radio Symphony Orchestra, Esa-Pekka Salonen
4. 1. Allegro moderato - Hilary Hahn, Swedish Radio Symphony Orchestra, Esa-Pekka Salonen
5. 2. Adagio di molto - Hilary Hahn, Swedish Radio Symphony Orchestra, Esa-Pekka Salonen
6. 3. Allegro, ma non tanto - Hilary Hahn, Swedish Radio Symphony Orchestra, Esa-Pekka Salonen

Disc: 14
1. From the Canebrake - Jascha Heifetz, Milton Kaye
2. Jamaican Rumba - Arranged by William Primrose - Jascha Heifetz, Milton Kaye
3. Beau Soir - Jascha Heifetz, Milton Kaye
4. Pìece en forme de habanera - Arr. Catherine - Jascha Heifetz, Milton Kaye
5. Levee Dance, Op.27 No.2 - Jascha Heifetz, Milton Kaye
6. Paraphrase on "Largo al factotum" from G. Rossini's opera "Il barbiere di Siviglia" - Jascha Heifetz, Milton Kaye
7. Jeanie With The Light Brown Hair - Jascha Heifetz, Milton Kaye
8. A la valse - Jascha Heifetz, Milton Kaye
9. Humoresque, Op.101, No.7 - Jascha Heifetz, Milton Kaye
10. Gweedore Brae - Jascha Heifetz, Milton Kaye
11. Old Folks At Home - Arr. Jascha Heifetz - Jascha Heifetz, Milton Kaye
12. Deep River - Jascha Heifetz, Milton Kaye
13. 12. Viennese - Jascha Heifetz, Milton Kaye
14. White Christmas - Jascha Heifetz, Camarata And His Orchestra, Salvador Camarata
15. Summertime - Jascha Heifetz, Emanuel Bay
16. A Woman Is a Sometime thing - Jascha Heifetz, Emanuel Bay
17. My Man's Gone Now - Jascha Heifetz, Emanuel Bay
18. It Ain't Necessarily So - Jascha Heifetz, Emanuel Bay
19. Tempo Di Blues - Jascha Heifetz, Emanuel Bay
20. Bess, You Is My Woman Now - Jascha Heifetz, Emanuel Bay
21. 1. Allegro ben ritmato e deciso - Jascha Heifetz, Emanuel Bay
22. 2. Andante con moto e poco rubato - Jascha Heifetz, Emanuel Bay
23. 3. Allegro ben ritmato e deciso - Jascha Heifetz, Emanuel Bay

Disc: 15
1. No.2 Florida Night Song - Jascha Heifetz, Emanuel Bay
2. 6. Golliwogg's Cakewalk - Jascha Heifetz, Emanuel Bay
3. No.3 Clair de lune - Jascha Heifetz, Emanuel Bay
4. Ao pé da fogueira - Arr. Jascha Heifetz - Jascha Heifetz, Emanuel Bay
5. Huella, Op. 49 - Arranged by Jascha Heifetz - Jascha Heifetz, Emanuel Bay
6. No. 10 in C sharp minor - Jascha Heifetz, Emanuel Bay
7. No. 15 in D flat major - Jascha Heifetz, Emanuel Bay
8. Waves at play (Wellenspiel) - Jascha Heifetz, Emanuel Bay
9. March - Jascha Heifetz, Emanuel Bay
10. Masks - Jascha Heifetz, Emanuel Bay
11. Gut-Bucket Gus - Jascha Heifetz, Emanuel Bay
12. Jane Shakes Her Hair - Jascha Heifetz, Emanuel Bay
13. Betty and Harold Close Their Eyes - Jascha Heifetz, Emanuel Bay
14. Jim Jives - Jascha Heifetz, Emanuel Bay
15. … Till Dawn Sunday - Jascha Heifetz, Emanuel Bay
16. Moderato assai (Mack the Knife) - Jascha Heifetz, Emanuel Bay
17. 3. Mélodie in E flat - Jascha Heifetz, Emanuel Bay
18. Nocturne No.16 in E flat, Op.55 No.2 - Arranged by Jascha Heifetz - Jascha Heifetz, Emanuel Bay
19. Melodie from "Orfeo ed Euridice" (Dance of the Blessed Spirits) - arranged by Fritz Kreisler - Jascha Heifetz, Emanuel Bay
20. No. 7 Vogel als Prophet - Jascha Heifetz, Emanuel Bay
21. Hymn to the Sun - Jascha Heifetz, Emanuel Bay
22. Dance No.4 - Arranged by Fritz Kreisler - Jascha Heifetz, Emanuel Bay
23. Hungarian Dance No.7 in F Hungarian Dance No. 7 in A - Arranged by Joseph Joachim - Jascha Heifetz, Emanuel Bay
24. The Swan - Jascha Heifetz, Emanuel Bay
25. No.4 Giant Hills - Jascha Heifetz, Emanuel Bay
26. No.4 Moto perpetuo - Jascha Heifetz, Emanuel Bay
27. Berceuse de Jocelyn - Jascha Heifetz, Bing Crosby, Victor Young Orchestra, Victor Young
28. Where My Caravan Has Rested - Jascha Heifetz, Bing Crosby, Victor Young Orchestra, Victor Young
29. When you Make Love to Me (Don't Make Believe) - Jascha Heifetz

Disc: 16
1. Imitazione delle Campane - Daniel Hope, Deutsches Kammerorchester Berlin
2. Andante - Daniel Hope, Jacques Ammon, Deutsches Kammerorchester Berlin
3. Echorus - Daniel Hope, Chie Peters, Deutsches Kammerorchester Berlin, Members of the Rundfunkchor Berlin
4. Cantique de Jean Racine, Op.11 - Daniel Hope, Deutsches Kammerorchester Berlin, Simon Halsey, Members of the Rundfunkchor Berlin
5. 15. Adagio sognando - Daniel Hope, Jacques Ammon
6. Fratres For Violin, String Orchestra And Percussion - Daniel Hope, Deutsches Kammerorchester Berlin, Simon Halsey
7. Eliza Aria - Daniel Hope, Jacques Ammon
8. Musica Universalis - Daniel Hope, Chie Peters, Jacques Ammon, Deutsches Kammerorchester Berlin
9. Spheres - Daniel Hope, Deutsches Kammerorchester Berlin, Simon Halsey
10. Berlin By Overnight - Daniel Hope, Jochen Carls
11. Biafra - Daniel Hope, Jacques Ammon, Deutsches Kammerorchester Berlin
12. Lento - Daniel Hope, Deutsches Kammerorchester Berlin, Simon Halsey, Members of the Rundfunkchor Berlin
13. Passaggio - Daniel Hope, Jacques Ammon
14. 8. Andante - Daniel Hope, Jacques Ammon
15. Benedictus - Daniel Hope, Deutsches Kammerorchester Berlin, Simon Halsey, Members of the Rundfunkchor Berlin
16. Prelude - Daniel Hope, Juan Lucas Aisemberg, Christiane Starke
17. Trysting Fields - Daniel Hope, Juan Lucas Aisemberg, Deutsches Kammerorchester Berlin, Simon Halsey
18. Nachspiel - Daniel Hope, Deutsches Kammerorchester Berlin, Simon Halsey

Disc: 17
1. = 104 - = 120 - Gidon Kremer, Wiener Philharmoniker, Christoph von Dohnanyi
2. = Ca. 108 - Gidon Kremer, Wiener Philharmoniker, Christoph von Dohnanyi
3. = Ca. 150 - Coda: Poco meno = 104 - Gidon Kremer, Wiener Philharmoniker, Christoph von Dohnanyi
4. 1. Twilight: Free and Spacious - attacca - Gidon Kremer, New York Philharmonic Orchestra, Leonard Bernstein
5. 2. Toccata-Chaconne: Very Fast - Gidon Kremer, New York Philharmonic Orchestra, Leonard Bernstein
6. 3. Romance without Words: Hardly moving - Gidon Kremer, New York Philharmonic Orchestra, Leonard Bernstein
7. 4. Midnight: Slow - Gidon Kremer, New York Philharmonic Orchestra, Leonard Bernstein
8. 5. Toccata-Rondo: Very Fast - Gidon Kremer, New York Philharmonic Orchestra, Leonard Bernstein
9. 6. Dawn: Wistful - Gidon Kremer, New York Philharmonic Orchestra, Leonard Bernstein
10. 1. Phaedrus - Pausanias: Lento - Allegro marcato - Gidon Kremer, Israel Philharmonic Orchestra, Leonard Bernstein
11. 2. Aristophanes: Allegretto - Gidon Kremer, Israel Philharmonic Orchestra, Leonard Bernstein
12. 3. Erixymachus: Presto - Gidon Kremer, Israel Philharmonic Orchestra, Leonard Bernstein
13. 4. Agathon: Adagio - Gidon Kremer, Israel Philharmonic Orchestra, Leonard Bernstein
14. 5. Socrates - Alcibiades: Molto tenuto - Allegro molto vivace - Gidon Kremer, Israel Philharmonic Orchestra, Leonard Bernstein

Disc: 18
1. 1. Adagio sostenuto - Presto - Gidon Kremer, Martha Argerich
2. 2. Andante con variazioni - Gidon Kremer, Martha Argerich
3. 3. Finale (Presto) - Gidon Kremer, Martha Argerich
4. 1. Allegro moderato - Gidon Kremer, Martha Argerich
5. 2. Adagio espressivo - Gidon Kremer, Martha Argerich
6. 3. Scherzo (Allegro) - Gidon Kremer, Martha Argerich
7. 4. Poco allegretto - Gidon Kremer, Martha Argerich

Disc: 19
1. 1. Allegro ma non troppo - Quasi moderato - Johanna Martzy, RIAS Symphony Orchestra Berlin, Ferenc Fricsay
2. 2. Adagio, ma non troppo - Johanna Martzy, RIAS Symphony Orchestra Berlin, Ferenc Fricsay
3. 3. Finale (Allegro giocoso, ma non troppo) - Johanna Martzy, RIAS Symphony Orchestra Berlin, Ferenc Fricsay
4. 1. Vorspiel (Allegro moderato) - Erica Morini, Radio-Symphonie-Orchester Berlin, Ferenc Fricsay
5. 2. Adagio - Erica Morini, Radio-Symphonie-Orchester Berlin, Ferenc Fricsay
6. 3. Finale (Allegro energico) - Erica Morini, Radio-Symphonie-Orchester Berlin, Ferenc Fricsay
7. 1. Moderato - Erica Morini, Radio-Symphonie-Orchester Berlin, Ferenc Fricsay
8. 2. Andante sostenuto - Erica Morini, Radio-Symphonie-Orchester Berlin, Ferenc Fricsay
9. Tempo I - Erica Morini, Radio-Symphonie-Orchester Berlin, Ferenc Fricsay
10. Cadenza - Erica Morini, Radio-Symphonie-Orchester Berlin, Ferenc Fricsay
11. 3. Allegro - Erica Morini, Radio-Symphonie-Orchester Berlin, Ferenc Fricsay

Disc: 20
1. 1. Grave - Allegro - Eduard Melkus, Garo Atmacayan, Huguette Dreyfus
2. 2. Allegro - Eduard Melkus, Garo Atmacayan, Huguette Dreyfus
3. 3. Adagio - Eduard Melkus, Garo Atmacayan, Huguette Dreyfus
4. 4. Allegro - Eduard Melkus, Garo Atmacayan, Huguette Dreyfus
5. 5. Allegro - Eduard Melkus, Garo Atmacayan, Huguette Dreyfus
6. 1. Grave - Allegro - Eduard Melkus, Karl Scheit, Huguette Dreyfus
7. 2. Vivace - Eduard Melkus, Karl Scheit, Huguette Dreyfus
8. 3. Adagio - Eduard Melkus, Huguette Dreyfus, Capella Academica, Wien
9. 4. Vivace - Eduard Melkus, Huguette Dreyfus, Karl Scheit
10. 5. Vivace - Eduard Melkus, Huguette Dreyfus, Capella Academica, Wien
11. 1. Adagio - Eduard Melkus, Huguette Dreyfus
12. 2. Allegro - Eduard Melkus, Huguette Dreyfus
13. 3. Adagio - Eduard Melkus, Huguette Dreyfus
14. 4. Allegro - Eduard Melkus, Huguette Dreyfus
15. 5. Giga (allegro) - Eduard Melkus, Huguette Dreyfus
16. 1. Preludio (vivace) - Eduard Melkus, Garo Atmacayan, Capella Academica, Wien
17. 2. Corrente (allegro) - Eduard Melkus, Garo Atmacayan, Capella Academica, Wien
18. 3. Sarabande (largo) - Eduard Melkus, Garo Atmacayan, Capella Academica, Wien
19. 4. Giga (allegro) - Eduard Melkus, Garo Atmacayan, Capella Academica, Wien
20. 1. Preludio (largo) - Eduard Melkus, Garo Atmacayan, Karl Scheit
21. 2. Allemanda (allegro) - Eduard Melkus, Garo Atmacayan, Karl Scheit
22. 3. Sarabande (largo) - Eduard Melkus, Garo Atmacayan, Karl Scheit
23. 4. Giga (allegro) - Eduard Melkus, Garo Atmacayan, Karl Scheit
24. 1. Preludio (largo) - Eduard Melkus, Garo Atmacayan, Huguette Dreyfus
25. 2. Giga (allegro) - Eduard Melkus, Garo Atmacayan, Huguette Dreyfus
26. 3. Adagio - Tempo di Gavotte (allegro) - Eduard Melkus, Garo Atmacayan, Huguette Dreyfus
27. 4. Tempo di Gavotta. Allegro - Eduard Melkus, Garo Atmacayan, Huguette Dreyfus
28. 1. Preludio (adagio) - Eduard Melkus, Huguette Dreyfus
29. 2. Allegro - Eduard Melkus, Huguette Dreyfus
30. 3. Adagio - Vivace - Eduard Melkus, Huguette Dreyfus
31. 4. Gavotta (allegro) - Eduard Melkus, Huguette Dreyfus
32. 5. Gavotta. Allegro - Eduard Melkus, Huguette Dreyfus
33. 1. Adagio - Allegro - Adagio - Vivace - Allegro - Andante - Allegro - Adagio - Allegro - Eduard Melkus, Garo Atmacayan, Huguette Dreyfus

Disc: 21
1. 1. Allegro - Yehudi Menuhin, Wilhelm Kempff
2. 2. Adagio - Yehudi Menuhin, Wilhelm Kempff
3. 3. Allegretto con variazioni - Yehudi Menuhin, Wilhelm Kempff
4. 1. Allegro con brio - Yehudi Menuhin, Wilhelm Kempff
5. 2. Adagio cantabile - Yehudi Menuhin, Wilhelm Kempff
6. 3. Scherzo (Allegro) - Yehudi Menuhin, Wilhelm Kempff
7. 4. Finale (Allegro) - Yehudi Menuhin, Wilhelm Kempff
8. 1. Allegro assai - Yehudi Menuhin, Wilhelm Kempff
9. 2. Tempo di minuetto, ma molto moderato e grazioso - Yehudi Menuhin, Wilhelm Kempff
10. 3. Allegro vivace - Yehudi Menuhin, Wilhelm Kempff

Disc: 22
1. 1. Allegro moderato - Nathan Milstein, Wiener Philharmoniker, Claudio Abbado
2. 2. Canzonetta (Andante) - Nathan Milstein, Wiener Philharmoniker, Claudio Abbado
3. 3. Finale (Allegro vivacissimo) - Nathan Milstein, Wiener Philharmoniker, Claudio Abbado
4. 1. Andante - Nathan Milstein, Georges Pludermacher
5. 2. Vivace - Nathan Milstein, Georges Pludermacher
6. 3. Allegro - Nathan Milstein, Georges Pludermacher
7. 1. Andante - Nathan Milstein, Georges Pludermacher
8. 2. Allegro - Nathan Milstein, Georges Pludermacher
9. Paganiniana (Variations) for Violin solo - Nathan Milstein
10. No. 3 in D flat major (Lento, placido) - Nathan Milstein, Georges Pludermacher
11. Chanson russe - Arr.Stravinsky & Samuel Dushkin from "Mavra" - Nathan Milstein, Georges Pludermacher
12. Il Pleut Dans La Ville - Nathan Milstein, Georges Pludermacher
13. Hopak - Nathan Milstein, Georges Pludermacher

Disc: 23
1. 1. Allegro molto appassionato - Shlomo Mintz, Chicago Symphony Orchestra, Claudio Abbado
2. 2. Andante - Shlomo Mintz, Chicago Symphony Orchestra, Claudio Abbado
3. 3. Allegro non troppo - Allegro molto vivace - Shlomo Mintz, Chicago Symphony Orchestra, Claudio Abbado
4. 1. Vorspiel (Allegro moderato) - Shlomo Mintz, Chicago Symphony Orchestra, Claudio Abbado
5. 2. Adagio - Shlomo Mintz, Chicago Symphony Orchestra, Claudio Abbado
6. 3. Finale (Allegro energico) - Shlomo Mintz, Chicago Symphony Orchestra, Claudio Abbado
7. Allegro molto moderato - Andante con moto - Presto - Andante con moto - più vivo - Tempo I - Shlomo Mintz, Clifford Benson
8. Tempo di Laendler - Shlomo Mintz, Clifford Benson
9. Allegro - Shlomo Mintz, Clifford Benson

Disc: 24
1. 1. Allegro molto - Shlomo Mintz, Yefim Bronfman
2. 2. Andante - Shlomo Mintz, Yefim Bronfman
3. 3. Allegro vivo - Shlomo Mintz, Yefim Bronfman
4. 4. Allegro quasi presto - Shlomo Mintz, Yefim Bronfman
5. 1. Allegro non troppo - Shlomo Mintz, Yefim Bronfman
6. 2. Andante - Shlomo Mintz, Yefim Bronfman
7. 3. Finale (Allegro non troppo) - Shlomo Mintz, Yefim Bronfman

Disc: 25
1. 1. Allegro vivace - Erica Morini, Rudolf Firkusny
2. 2. Andante sostenuto - Erica Morini, Rudolf Firkusny
3. 3. Rondo (Allegro) - Erica Morini, Rudolf Firkusny
4. 1. Allegro con spirito - Erica Morini, Rudolf Firkusny
5. 2. Adagio con molt' espressione - Erica Morini, Rudolf Firkusny
6. 3. Rondo (Allegro molto) - Erica Morini, Rudolf Firkusny
7. 1. A Fantasia - 2. Allegro - Erica Morini, Leon Pommers
8. 3. Adagio - 4. Allegro - Erica Morini, Leon Pommers
9. 1. Affettuoso - Erica Morini, Leon Pommers
10. 2. Presto - Erica Morini, Leon Pommers
11. 3. Allegro - Erica Morini, Leon Pommers

Disc: 26
1. 1. Allegro ma non troppo - Cadenza: Fritz Kreisler - Anne-Sophie Mutter, New York Philharmonic Orchestra, Kurt Masur
2. 2. Larghetto - Anne-Sophie Mutter, New York Philharmonic Orchestra, Kurt Masur
3. 3. Rondo. Allegro - Cadenza: Fritz Kreisler - Anne-Sophie Mutter, New York Philharmonic Orchestra, Kurt Masur
4. Violin Romance No.1 In G Major, Op.40 - Anne-Sophie Mutter, New York Philharmonic Orchestra, Kurt Masur
5. Violin Romance No.2 In F Major, Op.50 - Anne-Sophie Mutter, New York Philharmonic Orchestra, Kurt Masur

Disc: 27
1. 1. Allegro non troppo - Anne-Sophie Mutter, New York Philharmonic Orchestra, Kurt Masur
2. 2. Adagio - Anne-Sophie Mutter, Joseph Robinson, New York Philharmonic Orchestra, Kurt Masur
3. 3. Allegro giocoso, ma non troppo vivace - Poco più presto - Anne-Sophie Mutter, New York Philharmonic Orchestra, Kurt Masur
4. Moderato semplice ma espressivo - Anne-Sophie Mutter, New York Philharmonic Orchestra, Kurt Masur

Disc: 28
1. Sur le même accord - Anne-Sophie Mutter, Orchestre Philharmonique de Radio France, Kurt Masur
2. 1. Allegro non troppo - Anne-Sophie Mutter, Boston Symphony Orchestra, Seiji Ozawa
3. 2. Andante tranquillo - Anne-Sophie Mutter, Boston Symphony Orchestra, Seiji Ozawa
4. 3. Allegro molto - Anne-Sophie Mutter, Boston Symphony Orchestra, Seiji Ozawa
5. 1. Toccata - Anne-Sophie Mutter, Philharmonia Orchestra, Paul Sacher
6. 2. Aria I - Anne-Sophie Mutter, Philharmonia Orchestra, Paul Sacher
7. 3. Aria II - Anne-Sophie Mutter, Philharmonia Orchestra, Paul Sacher
8. 4. Capriccio - Anne-Sophie Mutter, Philharmonia Orchestra, Paul Sacher

Disc: 29
1. 1. Allegro non troppo - David Oistrakh, Staatskapelle Dresden, Franz Konwitschny
2. 2. Adagio - David Oistrakh, Staatskapelle Dresden, Franz Konwitschny
3. 3. Allegro giocoso, ma non troppo vivace - Poco più presto - David Oistrakh, Staatskapelle Dresden, Franz Konwitschny
4. 1. Allegro moderato - David Oistrakh, Staatskapelle Dresden, Franz Konwitschny
5. 2. Canzonetta (Andante) - David Oistrakh, Staatskapelle Dresden, Franz Konwitschny
6. 3. Finale (Allegro vivacissimo) - David Oistrakh, Staatskapelle Dresden, Franz Konwitschny

Disc: 30
1. 1. Allegro non troppo - Itzhak Perlman, Orchestre de Paris, Daniel Barenboim
2. 2. Andantino quasi allegretto - Itzhak Perlman, Orchestre de Paris, Daniel Barenboim
3. 3. Molto moderato e maestoso - Itzhak Perlman, Orchestre de Paris, Daniel Barenboim
4. 1. Allegro moderato - Itzhak Perlman, Orchestre de Paris, Daniel Barenboim
5. 2. Romance - Itzhak Perlman, Orchestre de Paris, Daniel Barenboim
6. 3. Allegro confuoco - Itzhak Perlman, Orchestre de Paris, Daniel Barenboim

Disc: 31
1. 1. Andante - Allegro - Itzhak Perlman, Boston Symphony Orchestra, Seiji Ozawa
2. 2. Allegro - Adagio - Itzhak Perlman, Boston Symphony Orchestra, Seiji Ozawa
3. 1. Toccata - Itzhak Perlman, Boston Symphony Orchestra, Seiji Ozawa
4. 2. Aria I - Itzhak Perlman, Boston Symphony Orchestra, Seiji Ozawa
5. 3. Aria II - Itzhak Perlman, Boston Symphony Orchestra, Seiji Ozawa
6. 4. Capriccio - Itzhak Perlman, Boston Symphony Orchestra, Seiji Ozawa
7. Tzigane - Itzhak Perlman, Myor Rosen, New York Philharmonic Orchestra, Zubin Mehta

Disc: 32
1. 1. Adagio sostenuto - Presto - Georg Kulenkampff, Wilhelm Kempff
2. 2. Andante con variazioni - Georg Kulenkampff, Wilhelm Kempff
3. 3. Finale (Presto) - Georg Kulenkampff, Wilhelm Kempff
4. 1. Allegro risoluto - Vása Prihoda, Michael Raucheisen
5. 2. Larghetto - Vása Prihoda, Michael Raucheisen
6. 3. Scherzo. Molto vivace - Vása Prihoda, Michael Raucheisen
7. 4. Finale. Allegro - Vása Prihoda, Michael Raucheisen
8. Aus Der Heimat - Vása Prihoda, Otto A. (Klavier) Graef

Disc: 33
1. Praeludium And Allegro In The Style Of Pugnani - Ruggiero Ricci, Brooks Smith
2. Siciliano And Rigaudon In The Style Of Francoeur - Ruggiero Ricci, Brooks Smith
3. Chanson Louis XIII and Pavane - Ruggiero Ricci, Brooks Smith
4. Allegretto grazioso - Ruggiero Ricci, Brooks Smith
5. Variations on a Theme by Corelli - Ruggiero Ricci, Brooks Smith
6. Recitativo and Scherzo-Caprice, Op.6 - Ruggiero Ricci, Brooks Smith
7. Caprice viennois op.2 - Ruggiero Ricci, Brooks Smith
8. Tambourin chinois - Ruggiero Ricci, Brooks Smith
9. Liebesfreud - Ruggiero Ricci, Brooks Smith
10. Liebesleid - Ruggiero Ricci, Brooks Smith
11. Schön Rosmarin - Ruggiero Ricci, Brooks Smith
12. La Gitana - Ruggiero Ricci, Brooks Smith
13. The Old Refrain - arranged by Fritz Kreisler - Ruggiero Ricci, Brooks Smith
14. La Chasse (in the style of Cartier) - Ruggiero Ricci, Brooks Smith
15. Liebesfreud - Fritz Kreisler, Haddon Squire
16. Liebesleid - Fritz Kreisler, Haddon Squire
17. Schön Rosmarin - Fritz Kreisler, George Falkenstein
18. Tambourin chinois - Fritz Kreisler, Haddon Squire
19. Andantino in the style of Padre Martini - Fritz Kreisler, George Falkenstein
20. Song without Words, Op.2,3 - arranged by Fritz Kreisler - Fritz Kreisler, George Falkenstein

Disc: 34
1. 1. Allegro ma non troppo - Wolfgang Schneiderhan, Berliner Philharmoniker, Eugen Jochum
2. 2. Larghetto - Wolfgang Schneiderhan, Berliner Philharmoniker, Eugen Jochum
3. 3. Rondo. Allegro - Wolfgang Schneiderhan, Berliner Philharmoniker, Eugen Jochum
4. 1. Allegro aperto - Berliner Philharmoniker, Wolfgang Schneiderhan
5. 2. Adagio - Berliner Philharmoniker, Wolfgang Schneiderhan
6. 3. Rondeau. Tempo di Menuetto - Berliner Philharmoniker, Wolfgang Schneiderhan

Disc: 35
1. 1. Allegro - Gil Shaham, London Symphony Orchestra, André Previn
2. 2. Andante - Gil Shaham, London Symphony Orchestra, André Previn
3. 3. Presto in moto perpetuo - Gil Shaham, London Symphony Orchestra, André Previn
4. 1. Moderato nobile - Gil Shaham, London Symphony Orchestra, André Previn
5. 2. Romance: Andante - Gil Shaham, London Symphony Orchestra, André Previn
6. 3. Finale: Allegro assai vivace - Gil Shaham, London Symphony Orchestra, André Previn
7. No. 2 The Maiden in the Bridal Chamber - Gil Shaham, André Previn
8. No. 3 Dogberry and Verges - Gil Shaham, André Previn
9. No. 4 Intermezzo - Gil Shaham, André Previn
10. No. 5 Masquerade - Gil Shaham, André Previn

Disc: 36
1. 1. Andantino - Gil Shaham, London Symphony Orchestra, André Previn
2. 2. Scherzo. Vivacissimo - Gil Shaham, London Symphony Orchestra, André Previn
3. 3. Moderato - Gil Shaham, London Symphony Orchestra, André Previn
4. 1. Allegro moderato - Gil Shaham, London Symphony Orchestra, André Previn
5. 2. Andante assai - Gil Shaham, André Previn, London Symphony Orchestra
6. 3. Allegro, ben marcato - Gil Shaham, London Symphony Orchestra, André Previn
7. 1. Moderato - Gil Shaham
8. 2. Andante dolce - Gil Shaham
9. 3. Con brio - Gil Shaham

Disc: 37
1. 1. (Allegro moderato) - Simon Standage, The English Concert, Trevor Pinnock
2. 2. Andante - Simon Standage, The English Concert, Trevor Pinnock
3. 3. Allegro assai - Simon Standage, The English Concert, Trevor Pinnock
4. 1. Allegro - Simon Standage, The English Concert, Trevor Pinnock
5. 2. Adagio - Simon Standage, The English Concert, Trevor Pinnock
6. 3. Allegro assai - Simon Standage, The English Concert, Trevor Pinnock
7. 1. Vivace - Simon Standage, Elizabeth Wilcock, The English Concert, Trevor Pinnock
8. 2. Largo ma non tanto - Elizabeth Wilcock, Simon Standage, The English Concert, Trevor Pinnock
9. 3. Allegro - Elizabeth Wilcock, Simon Standage, The English Concert, Trevor Pinnock

Disc: 38
1. 1. Allegro - Simon Standage, Trevor Pinnock, The English Concert
2. 2. Largo - Simon Standage, Trevor Pinnock, The English Concert
3. 3. Allegro (Danza pastorale) - Simon Standage, Trevor Pinnock, The English Concert
4. 1. Allegro non molto - Allegro - Simon Standage, The English Concert, Trevor Pinnock
5. 2. Adagio - Presto - Adagio - Simon Standage, The English Concert, Trevor Pinnock
6. 3. Presto (Tempo impetuoso d'estate) - Simon Standage, The English Concert, Trevor Pinnock
7. 1. Allegro (Ballo, e canto de' villanelli) - Simon Standage, The English Concert, Trevor Pinnock
8. 2. Adagio molto (Ubriachi dormienti) - Simon Standage, The English Concert, Trevor Pinnock
9. 3. Allegro (La caccia) - Simon Standage, The English Concert, Trevor Pinnock
10. 1. Allegro non molto - Simon Standage, The English Concert, Trevor Pinnock
11. 2. Largo - Simon Standage, The English Concert, Trevor Pinnock
12. 3. Allegro - Simon Standage, The English Concert, Trevor Pinnock
13. 1. (Allegro) - David Reichenberg, Simon Standage, The English Concert, Trevor Pinnock
14. 2. Largo - David Reichenberg, Simon Standage, The English Concert, Trevor Pinnock
15. 3. Allegro - David Reichenberg, Simon Standage, The English Concert, Trevor Pinnock
16. 1. Allegro molto - Simon Standage, Elizabeth Wilcock, The English Concert, Trevor Pinnock
17. 2. Andante (molto) - Simon Standage, Elizabeth Wilcock, The English Concert, Trevor Pinnock
18. 3. Allegro - Simon Standage, Elizabeth Wilcock, The English Concert, Trevor Pinnock

Disc: 39
1. 1. Adagio - Henryk Szeryng
2. 2. Fuga (Allegro) - Henryk Szeryng
3. 3. Siciliana - Henryk Szeryng
4. 4. Presto - Henryk Szeryng
5. 1a. Allemanda - Henryk Szeryng
6. 2b. Double - Henryk Szeryng
7. 2a. Corrente - Henryk Szeryng
8. 4b. Double - Henryk Szeryng
9. 5. Sarabande - Henryk Szeryng
10. 6. Double - Henryk Szeryng
11. 7. Tempo di Borea - Henryk Szeryng
12. 8. Double - Henryk Szeryng
13. 1. Grave - Henryk Szeryng
14. 2. Fuga - Henryk Szeryng
15. 3. Andante - Henryk Szeryng
16. 4. Allegro - Henryk Szeryng

Disc: 40
1. 1. Allemande - Henryk Szeryng
2. 2. Corrente - Henryk Szeryng
3. 3. Sarabande - Henryk Szeryng
4. 4. Giga - Henryk Szeryng
5. 5. Ciaccona - Henryk Szeryng
6. 1. Adagio - Henryk Szeryng
7. 2. Fuga - Henryk Szeryng
8. 3. Largo - Henryk Szeryng
9. 4. Allegro assai - Henryk Szeryng
10. 1. Preludio - Henryk Szeryng
11. 2. Loure - Henryk Szeryng
12. 3. Gavotte en Rondeau - Henryk Szeryng
13. 4. Menuet I-II - Henryk Szeryng
14. 5. Bourrée - Henryk Szeryng
15. 6. Gigue - Henryk Szeryng

Disc: 41
1. Allegro appassionato - Tibor Varga, Edith Farnadi
2. Adagio - Tibor Varga, Edith Farnadi
3. Allegro - Tibor Varga, Edith Farnadi
4. 1. Tempo di ciaccona - Tibor Varga
5. 2. Fuga (Risoluto, non troppo vivo) - Tibor Varga
6. 3. Melodia (Adagio) - Tibor Varga
7. 4. Presto - Tibor Varga

Disc: 42
1. 1. Vivace ma non troppo - Pinchas Zukerman, Daniel Barenboim
2. 2. Adagio - Pinchas Zukerman, Daniel Barenboim
3. 3. Allegro molto moderato - Pinchas Zukerman, Daniel Barenboim
4. 1. Allegro amabile - Pinchas Zukerman, Daniel Barenboim
5. 2. Andante tranquillo - Vivace - Andante - Vivace di più - Andante vivace - Pinchas Zukerman, Daniel Barenboim
6. 3. Allegretto grazioso (Quasi andante) - Pinchas Zukerman, Daniel Barenboim
7. 1. Allegro - Pinchas Zukerman, Daniel Barenboim
8. 2. Adagio - Pinchas Zukerman, Daniel Barenboim
9. 3. Un poco presto e con sentimento - Pinchas Zukerman, Daniel Barenboim
10. 4. Presto agitato - Pinchas Zukerman, Daniel Barenboim
11. Scherzo - Pinchas Zukerman, Daniel Barenboim



CD1
Exact Audio Copy V1.1 from 23. June 2015

EAC extraction logfile from 11. August 2016, 17:05

Salvatore Accardo / Accardo; Paganini - Caprices

Used drive : ATAPI BD O DH4O3S Adapter: 1 ID: 1

Read mode : Secure
Utilize accurate stream : Yes
Defeat audio cache : Yes
Make use of C2 pointers : No

Read offset correction : 696
Overread into Lead-In and Lead-Out : No
Fill up missing offset samples with silence : Yes
Delete leading and trailing silent blocks : No
Null samples used in CRC calculations : Yes
Used interface : Native Win32 interface for Win NT & 2000
Gap handling : Appended to previous track

Used output format : User Defined Encoder
Selected bitrate : 1024 kBit/s
Quality : High
Add ID3 tag : No
Command line compressor : C:\Program Files (x86)\Exact Audio Copy\Flac\flac.exe
Additional command line options : -8 -V -T "ARTIST=%artist%" -T "TITLE=%title%" -T "ALBUM=%albumtitle%" -T "DATE=%year%" -T "TRACKNUMBER=%tracknr%" -T "GENRE=%genre%" -T "PERFORMER=%albuminterpret%" -T "COMPOSER=%composer%" %haslyrics%–tag-from-file=LYRICS="%lyricsfile%"%haslyrics% -T "ALBUMARTIST=%albumartist%" -T "DISCNUMBER=%cdnumber%" -T "TOTALDISCS=%totalcds%" -T "TOTALTRACKS=%numtracks%" -T "COMMENT=%comment%" %source% -o %dest%


TOC of the extracted CD

Track | Start | Length | Start sector | End sector
––––––––––––––––––––––––––––-
1 | 0:00.32 | 1:48.00 | 32 | 8131
2 | 1:48.32 | 2:38.00 | 8132 | 19981
3 | 4:26.32 | 2:52.13 | 19982 | 32894
4 | 7:18.45 | 6:45.12 | 32895 | 63281
5 | 14:03.57 | 2:16.63 | 63282 | 73544
6 | 16:20.45 | 4:32.62 | 73545 | 94006
7 | 20:53.32 | 3:41.38 | 94007 | 110619
8 | 24:34.70 | 2:58.30 | 110620 | 123999
9 | 27:33.25 | 3:24.07 | 124000 | 139306
10 | 30:57.32 | 2:20.25 | 139307 | 149831
11 | 33:17.57 | 4:41.50 | 149832 | 170956
12 | 37:59.32 | 2:32.00 | 170957 | 182356
13 | 40:31.32 | 2:02.00 | 182357 | 191506
14 | 42:33.32 | 1:16.00 | 191507 | 197206
15 | 43:49.32 | 2:43.38 | 197207 | 209469
16 | 46:32.70 | 1:21.12 | 209470 | 215556
17 | 47:54.07 | 3:34.25 | 215557 | 231631
18 | 51:28.32 | 2:23.25 | 231632 | 242381
19 | 53:51.57 | 2:57.50 | 242382 | 255706
20 | 56:49.32 | 3:01.38 | 255707 | 269319
21 | 59:50.70 | 3:28.25 | 269320 | 284944
22 | 63:19.20 | 3:16.25 | 284945 | 299669
23 | 66:35.45 | 3:38.62 | 299670 | 316081
24 | 70:14.32 | 4:22.00 | 316082 | 335731


Track 1

Filename C:\Various Artists - 111 The Violin\01 Accardo; Paganini - Caprices\01 Caprice for Solo Violin, op. 1 no. 1 in E major.wav

Pre-gap length 0:00:02.42

Peak level 59.0 %
Extraction speed 1.0 X
Track quality 100.0 %
Test CRC 8EAA694B
Copy CRC 8EAA694B
Accurately ripped (confidence 5) [770773EA] (AR v2)
Copy OK

Track 2

Filename C:\Various Artists - 111 The Violin\01 Accardo; Paganini - Caprices\02 Caprice for Solo Violin, op. 1 no. 2 in B minor.wav

Pre-gap length 0:00:01.00

Peak level 57.7 %
Extraction speed 0.9 X
Track quality 99.9 %
Test CRC 781092E3
Copy CRC 781092E3
Accurately ripped (confidence 5) [42F33331] (AR v2)
Copy OK

Track 3

Filename C:\Various Artists - 111 The Violin\01 Accardo; Paganini - Caprices\03 Caprice for Solo Violin, op. 1 no. 3 in E minor.wav

Pre-gap length 0:00:02.82

Peak level 56.4 %
Extraction speed 1.3 X
Track quality 100.0 %
Test CRC 0461AE98
Copy CRC 0461AE98
Accurately ripped (confidence 5) [92BE85DC] (AR v2)
Copy OK

Track 4

Filename C:\Various Artists - 111 The Violin\01 Accardo; Paganini - Caprices\04 Caprice for Solo Violin, op. 1 no. 4 in C minor.wav

Pre-gap length 0:00:04.84

Peak level 83.3 %
Extraction speed 1.6 X
Track quality 100.0 %
Test CRC E5A45F87
Copy CRC E5A45F87
Accurately ripped (confidence 5) [C7457E54] (AR v2)
Copy OK

Track 5

Filename C:\Various Artists - 111 The Violin\01 Accardo; Paganini - Caprices\05 Caprice for Solo Violin, op. 1 no. 5 in A minor.wav

Pre-gap length 0:00:02.66

Peak level 86.9 %
Extraction speed 1.5 X
Track quality 100.0 %
Test CRC 199F092B
Copy CRC 199F092B
Accurately ripped (confidence 5) [2281CCA9] (AR v2)
Copy OK

Track 6

Filename C:\Various Artists - 111 The Violin\01 Accardo; Paganini - Caprices\06 Caprice for Solo Violin, op. 1 no. 6 in G minor.wav

Pre-gap length 0:00:03.17

Peak level 38.6 %
Extraction speed 1.7 X
Track quality 100.0 %
Test CRC 47DE5F6E
Copy CRC 47DE5F6E
Accurately ripped (confidence 5) [CF4E4CFC] (AR v2)
Copy OK

Track 7

Filename C:\Various Artists - 111 The Violin\01 Accardo; Paganini - Caprices\07 Caprice for Solo Violin, op. 1 no. 7 in A minor.wav

Pre-gap length 0:00:04.00

Peak level 80.6 %
Extraction speed 1.8 X
Track quality 100.0 %
Test CRC 650BBF71
Copy CRC 650BBF71
Accurately ripped (confidence 5) [3E9C77A1] (AR v2)
Copy OK

Track 8

Filename C:\Various Artists - 111 The Violin\01 Accardo; Paganini - Caprices\08 Caprice for Solo Violin, op. 1 no. 8 in E-flat major.wav

Pre-gap length 0:00:02.00

Peak level 49.2 %
Extraction speed 1.8 X
Track quality 100.0 %
Test CRC F935231A
Copy CRC F935231A
Accurately ripped (confidence 5) [6B2303E4] (AR v2)
Copy OK

Track 9

Filename C:\Various Artists - 111 The Violin\01 Accardo; Paganini - Caprices\09 Caprice for Solo Violin, op. 1 no. 9 in E major.wav

Pre-gap length 0:00:02.73

Peak level 83.3 %
Extraction speed 1.9 X
Track quality 100.0 %
Test CRC F138B69D
Copy CRC F138B69D
Accurately ripped (confidence 5) [0B0A2C42] (AR v2)
Copy OK

Track 10

Filename C:\Various Artists - 111 The Violin\01 Accardo; Paganini - Caprices\10 Caprice for Solo Violin, op. 1 no. 10 in G minor.wav

Pre-gap length 0:00:04.00

Peak level 72.5 %
Extraction speed 1.8 X
Track quality 100.0 %
Test CRC 2D249EC9
Copy CRC 2D249EC9
Accurately ripped (confidence 5) [03483DF0] (AR v2)
Copy OK

Track 11

Filename C:\Various Artists - 111 The Violin\01 Accardo; Paganini - Caprices\11 Caprice for Solo Violin, op. 1 no. 11 in C major.wav

Pre-gap length 0:00:01.66

Peak level 59.9 %
Extraction speed 2.1 X
Track quality 100.0 %
Test CRC D4622A95
Copy CRC D4622A95
Accurately ripped (confidence 5) [34A22197] (AR v2)
Copy OK

Track 12

Filename C:\Various Artists - 111 The Violin\01 Accardo; Paganini - Caprices\12 Caprice for Solo Violin, op. 1 no. 12 in A-flat major.wav

Pre-gap length 0:00:04.00

Peak level 36.2 %
Extraction speed 2.0 X
Track quality 100.0 %
Test CRC 938DD752
Copy CRC 938DD752
Accurately ripped (confidence 5) [5804DEBE] (AR v2)
Copy OK

Track 13

Filename C:\Various Artists - 111 The Violin\01 Accardo; Paganini - Caprices\13 Caprice for Solo Violin, op. 1 no. 13 in B-flat major.wav

Pre-gap length 0:00:02.82

Peak level 62.9 %
Extraction speed 1.9 X
Track quality 100.0 %
Test CRC 0EE5EFAA
Copy CRC 0EE5EFAA
Accurately ripped (confidence 5) [E2C9356E] (AR v2)
Copy OK

Track 14

Filename C:\Various Artists - 111 The Violin\01 Accardo; Paganini - Caprices\14 Caprice for Solo Violin, op. 1 no. 14 in E-flat major.wav

Pre-gap length 0:00:04.00

Peak level 71.1 %
Extraction speed 0.8 X
Track quality 99.8 %
Test CRC D49E6306
Copy CRC D49E6306
Accurately ripped (confidence 5) [CA489897] (AR v2)
Copy OK

Track 15

Filename C:\Various Artists - 111 The Violin\01 Accardo; Paganini - Caprices\15 Caprice for Solo Violin, op. 1 no. 15 in E minor.wav

Pre-gap length 0:00:01.16

Peak level 93.4 %
Extraction speed 2.1 X
Track quality 100.0 %
Test CRC 7749BF63
Copy CRC 7749BF63
Accurately ripped (confidence 5) [8E1EFE16] (AR v2)
Copy OK

Track 16

Filename C:\Various Artists - 111 The Violin\01 Accardo; Paganini - Caprices\16 Caprice for Solo Violin, op. 1 no. 16 in G minor.wav

Pre-gap length 0:00:02.00

Peak level 66.2 %
Extraction speed 1.8 X
Track quality 100.0 %
Test CRC 37E66DAE
Copy CRC 37E66DAE
Accurately ripped (confidence 5) [44C64405] (AR v2)
Copy OK

Track 17

Filename C:\Various Artists - 111 The Violin\01 Accardo; Paganini - Caprices\17 Caprice for Solo Violin, op. 1 no. 17 in E-flat major.wav

Pre-gap length 0:00:03.33

Peak level 64.2 %
Extraction speed 2.3 X
Track quality 100.0 %
Test CRC AA67287D
Copy CRC AA67287D
Accurately ripped (confidence 5) [68300A0A] (AR v2)
Copy OK

Track 18

Filename C:\Various Artists - 111 The Violin\01 Accardo; Paganini - Caprices\18 Caprice for Solo Violin, op. 1 no. 18 in C major.wav

Pre-gap length 0:00:02.33

Peak level 57.9 %
Extraction speed 2.2 X
Track quality 100.0 %
Test CRC 98223B35
Copy CRC 98223B35
Accurately ripped (confidence 5) [097BB738] (AR v2)
Copy OK

Track 19

Filename C:\Various Artists - 111 The Violin\01 Accardo; Paganini - Caprices\19 Caprice for Solo Violin, op. 1 no. 19 in E-flat major.wav

Pre-gap length 0:00:01.93

Peak level 63.8 %
Extraction speed 2.3 X
Track quality 100.0 %
Test CRC 66D31B68
Copy CRC 66D31B68
Accurately ripped (confidence 5) [4BA650F8] (AR v2)
Copy OK

Track 20

Filename C:\Various Artists - 111 The Violin\01 Accardo; Paganini - Caprices\20 Caprice for Solo Violin, op. 1 no. 20 in D major.wav

Pre-gap length 0:00:01.33

Peak level 68.5 %
Extraction speed 2.3 X
Track quality 100.0 %
Test CRC 6FFE923E
Copy CRC 6FFE923E
Accurately ripped (confidence 5) [1474B1D2] (AR v2)
Copy OK

Track 21

Filename C:\Various Artists - 111 The Violin\01 Accardo; Paganini - Caprices\21 Caprice for Solo Violin, op. 1 no. 21 in A major.wav

Pre-gap length 0:00:02.50

Peak level 90.0 %
Extraction speed 2.4 X
Track quality 100.0 %
Test CRC EF1D2A54
Copy CRC EF1D2A54
Accurately ripped (confidence 5) [35C17C81] (AR v2)
Copy OK

Track 22

Filename C:\Various Artists - 111 The Violin\01 Accardo; Paganini - Caprices\22 Caprice for Solo Violin, op. 1 no. 22 in F major.wav

Pre-gap length 0:00:02.50

Peak level 70.2 %
Extraction speed 2.5 X
Track quality 100.0 %
Test CRC 36ED2E71
Copy CRC 36ED2E71
Accurately ripped (confidence 5) [0D26A7EE] (AR v2)
Copy OK

Track 23

Filename C:\Various Artists - 111 The Violin\01 Accardo; Paganini - Caprices\23 Caprice for Solo Violin, op. 1 no. 23 in E-flat major.wav

Pre-gap length 0:00:04.04

Peak level 85.0 %
Extraction speed 2.5 X
Track quality 100.0 %
Test CRC 3E364D8E
Copy CRC 3E364D8E
Accurately ripped (confidence 5) [762379E5] (AR v2)
Copy OK

Track 24

Filename C:\Various Artists - 111 The Violin\01 Accardo; Paganini - Caprices\24 Caprice for Solo Violin, op. 1 no. 24 in A minor.wav

Pre-gap length 0:00:03.16

Peak level 86.8 %
Extraction speed 2.6 X
Track quality 100.0 %
Test CRC E680194F
Copy CRC E680194F
Accurately ripped (confidence 5) [86D8AB01] (AR v2)
Copy OK


All tracks accurately ripped

No errors occurred

End of status report

–– CUETools DB Plugin V2.1.6

[CTDB TOCID: 0c8vZgbcwUlYrniaCjPhoMybBrw-] found
Submit result: 0c8vZgbcwUlYrniaCjPhoMybBrw- has been confirmed
Track | CTDB Status
1 | (18/18) Accurately ripped
2 | (18/18) Accurately ripped
3 | (18/18) Accurately ripped
4 | (18/18) Accurately ripped
5 | (18/18) Accurately ripped
6 | (18/18) Accurately ripped
7 | (18/18) Accurately ripped
8 | (18/18) Accurately ripped
9 | (18/18) Accurately ripped
10 | (18/18) Accurately ripped
11 | (18/18) Accurately ripped
12 | (18/18) Accurately ripped
13 | (18/18) Accurately ripped
14 | (18/18) Accurately ripped
15 | (18/18) Accurately ripped
16 | (18/18) Accurately ripped
17 | (18/18) Accurately ripped
18 | (18/18) Accurately ripped
19 | (18/18) Accurately ripped
20 | (18/18) Accurately ripped
21 | (18/18) Accurately ripped
22 | (18/18) Accurately ripped
23 | (18/18) Accurately ripped
24 | (18/18) Accurately ripped


==== Log checksum 128B85F24C895E95B1CE57F868CEF19A858452C93EFB796A5EF34DAB06A8BA44 ====


CD2
Exact Audio Copy V1.1 from 23. June 2015

EAC extraction logfile from 12. August 2016, 2:33

- / Ashlemasi; Paganini - Concertos

Used drive : ATAPI BD O DH4O3S Adapter: 1 ID: 1

Read mode : Secure
Utilize accurate stream : Yes
Defeat audio cache : Yes
Make use of C2 pointers : No

Read offset correction : 696
Overread into Lead-In and Lead-Out : No
Fill up missing offset samples with silence : Yes
Delete leading and trailing silent blocks : No
Null samples used in CRC calculations : Yes
Used interface : Native Win32 interface for Win NT & 2000
Gap handling : Appended to previous track

Used output format : User Defined Encoder
Selected bitrate : 1024 kBit/s
Quality : High
Add ID3 tag : No
Command line compressor : C:\Program Files (x86)\Exact Audio Copy\Flac\flac.exe
Additional command line options : -8 -V -T "ARTIST=%artist%" -T "TITLE=%title%" -T "ALBUM=%albumtitle%" -T "DATE=%year%" -T "TRACKNUMBER=%tracknr%" -T "GENRE=%genre%" -T "PERFORMER=%albuminterpret%" -T "COMPOSER=%composer%" %haslyrics%–tag-from-file=LYRICS="%lyricsfile%"%haslyrics% -T "ALBUMARTIST=%albumartist%" -T "DISCNUMBER=%cdnumber%" -T "TOTALDISCS=%totalcds%" -T "TOTALTRACKS=%numtracks%" -T "COMMENT=%comment%" %source% -o %dest%


TOC of the extracted CD

Track | Start | Length | Start sector | End sector
––––––––––––––––––––––––––––-
1 | 0:00.00 | 18:55.03 | 0 | 85127
2 | 18:55.03 | 4:54.02 | 85128 | 107179
3 | 23:49.05 | 6:06.21 | 107180 | 134650
4 | 29:55.26 | 13:17.74 | 134651 | 194499
5 | 43:13.25 | 5:34.73 | 194500 | 219622
6 | 48:48.23 | 8:32.52 | 219623 | 258074


Track 1

Filename C:\Various Artists - 111 The Violin\02 Ashlemasi; Paganini - Concertos\01 Violin Concerto No.1 In D Major, Op.6, MS. 21 1. Allegro maestoso.wav

Pre-gap length 0:00:02.00

Peak level 98.0 %
Extraction speed 4.5 X
Track quality 100.0 %
Test CRC 3F95A519
Copy CRC 3F95A519
Track not present in AccurateRip database
Copy OK

Track 2

Filename C:\Various Artists - 111 The Violin\02 Ashlemasi; Paganini - Concertos\02 Violin Concerto No.1 In D Major, Op.6, MS. 21 2. Adagio.wav

Peak level 66.4 %
Extraction speed 4.5 X
Track quality 100.0 %
Test CRC B05A6512
Copy CRC B05A6512
Track not present in AccurateRip database
Copy OK

Track 3

Filename C:\Various Artists - 111 The Violin\02 Ashlemasi; Paganini - Concertos\03 Violin Concerto No.1 In D Major, Op.6, MS. 21 3. Rondo (Allegro spirituoso).wav

Peak level 91.3 %
Extraction speed 5.5 X
Track quality 100.0 %
Test CRC A240304A
Copy CRC A240304A
Track not present in AccurateRip database
Copy OK

Track 4

Filename C:\Various Artists - 111 The Violin\02 Ashlemasi; Paganini - Concertos\04 Violin Concerto No.2 In B Minor, Op.7, MS. 48 1. Allegro maestoso.wav

Pre-gap length 0:00:03.96

Peak level 88.3 %
Extraction speed 6.3 X
Track quality 100.0 %
Test CRC 941D669A
Copy CRC 941D669A
Track not present in AccurateRip database
Copy OK

Track 5

Filename C:\Various Artists - 111 The Violin\02 Ashlemasi; Paganini - Concertos\05 Violin Concerto No.2 In B Minor, Op.7, MS. 48 2. Adagio.wav

Peak level 76.0 %
Extraction speed 5.5 X
Track quality 99.9 %
Test CRC 6AEF359E
Copy CRC 6AEF359E
Track not present in AccurateRip database
Copy OK

Track 6

Filename C:\Various Artists - 111 The Violin\02 Ashlemasi; Paganini - Concertos\06 Violin Concerto No.2 In B Minor, Op.7, MS. 48 3. Rondo à la clochette. 'La campanella'.wav

Peak level 95.9 %
Extraction speed 6.9 X
Track quality 100.0 %
Test CRC 858053F9
Copy CRC 858053F9
Track not present in AccurateRip database
Copy OK


None of the tracks are present in the AccurateRip database

No errors occurred

End of status report

–– CUETools DB Plugin V2.1.6

[CTDB TOCID: NqXQW5UlIFZtUCFpiXF1HYxapns-] found
Submit result: NqXQW5UlIFZtUCFpiXF1HYxapns- has been confirmed
Track | CTDB Status
1 | (3/3) Accurately ripped
2 | (3/3) Accurately ripped
3 | (3/3) Accurately ripped
4 | (3/3) Accurately ripped
5 | (3/3) Accurately ripped
6 | (3/3) Accurately ripped


==== Log checksum 16DC04C4DAD9273756A78B8F036FC2349B6275E1DD864462B8271A997838E567 ====


CD3
Exact Audio Copy V1.1 from 23. June 2015

EAC extraction logfile from 12. August 2016, 3:48

- / Batiashvili; Echoes of Time

Used drive : ATAPI BD O DH4O3S Adapter: 1 ID: 1

Read mode : Secure
Utilize accurate stream : Yes
Defeat audio cache : Yes
Make use of C2 pointers : No

Read offset correction : 696
Overread into Lead-In and Lead-Out : No
Fill up missing offset samples with silence : Yes
Delete leading and trailing silent blocks : No
Null samples used in CRC calculations : Yes
Used interface : Native Win32 interface for Win NT & 2000
Gap handling : Appended to previous track

Used output format : User Defined Encoder
Selected bitrate : 1024 kBit/s
Quality : High
Add ID3 tag : No
Command line compressor : C:\Program Files (x86)\Exact Audio Copy\Flac\flac.exe
Additional command line options : -8 -V -T "ARTIST=%artist%" -T "TITLE=%title%" -T "ALBUM=%albumtitle%" -T "DATE=%year%" -T "TRACKNUMBER=%tracknr%" -T "GENRE=%genre%" -T "PERFORMER=%albuminterpret%" -T "COMPOSER=%composer%" %haslyrics%–tag-from-file=LYRICS="%lyricsfile%"%haslyrics% -T "ALBUMARTIST=%albumartist%" -T "DISCNUMBER=%cdnumber%" -T "TOTALDISCS=%totalcds%" -T "TOTALTRACKS=%numtracks%" -T "COMMENT=%comment%" %source% -o %dest%


TOC of the extracted CD

Track | Start | Length | Start sector | End sector
––––––––––––––––––––––––––––-
1 | 0:00.00 | 12:22.54 | 0 | 55703
2 | 12:22.54 | 6:17.17 | 55704 | 83995
3 | 18:39.71 | 14:10.07 | 83996 | 147752
4 | 32:50.03 | 4:50.42 | 147753 | 169544
5 | 37:40.45 | 10:58.09 | 169545 | 218903
6 | 48:38.54 | 3:34.62 | 218904 | 235015
7 | 52:13.41 | 10:26.36 | 235016 | 282001
8 | 62:40.02 | 5:39.12 | 282002 | 307438


Track 1

Filename C:\Various Artists - 111 The Violin\03 Batiashvili; Echoes of Time\01 Violin Concerto no. 1 in A minor, op. 99 (formerly op. 77)- I. Nocturne (Moderato).wav

Pre-gap length 0:00:02.00

Peak level 32.2 %
Extraction speed 1.5 X
Track quality 100.0 %
Test CRC 7DA5BBD4
Copy CRC 7DA5BBD4
Accurately ripped (confidence 92) [AC705479] (AR v2)
Copy OK

Track 2

Filename C:\Various Artists - 111 The Violin\03 Batiashvili; Echoes of Time\02 Violin Concerto no. 1 in A minor, op. 99 (formerly op. 77)- II. Scherzo (Allegro).wav

Peak level 100.0 %
Extraction speed 1.7 X
Track quality 100.0 %
Test CRC FB160341
Copy CRC FB160341
Accurately ripped (confidence 93) [5CB6DA9D] (AR v2)
Copy OK

Track 3

Filename C:\Various Artists - 111 The Violin\03 Batiashvili; Echoes of Time\03 Violin Concerto no. 1 in A minor, op. 99 (formerly op. 77)- III. Passacaglia (Andante).wav

Peak level 84.1 %
Extraction speed 2.1 X
Track quality 100.0 %
Test CRC 55D6FA31
Copy CRC 55D6FA31
Accurately ripped (confidence 93) [8A9B1E7E] (AR v2)
Copy OK

Track 4

Filename C:\Various Artists - 111 The Violin\03 Batiashvili; Echoes of Time\04 Violin Concerto no. 1 in A minor, op. 99 (formerly op. 77)- IV. Burlesque (Allegro con brio - Presto).wav

Peak level 96.3 %
Extraction speed 2.1 X
Track quality 100.0 %
Test CRC 21464332
Copy CRC 21464332
Accurately ripped (confidence 93) [2AB2A637] (AR v2)
Copy OK

Track 5

Filename C:\Various Artists - 111 The Violin\03 Batiashvili; Echoes of Time\05 V & V.wav

Pre-gap length 0:00:08.21

Peak level 36.2 %
Extraction speed 2.4 X
Track quality 100.0 %
Test CRC 6D6C93D4
Copy CRC 6D6C93D4
Accurately ripped (confidence 92) [CF855084] (AR v2)
Copy OK

Track 6

Filename C:\Various Artists - 111 The Violin\03 Batiashvili; Echoes of Time\06 Dance of the Dolls- Lyric Waltz (orchestrated by Tamas Batiashvili).wav

Pre-gap length 0:00:07.22

Peak level 23.8 %
Extraction speed 2.3 X
Track quality 100.0 %
Test CRC 67AB13D1
Copy CRC 67AB13D1
Accurately ripped (confidence 92) [BEB79CF1] (AR v2)
Copy OK

Track 7

Filename C:\Various Artists - 111 The Violin\03 Batiashvili; Echoes of Time\07 Spiegel im Spiegel.wav

Pre-gap length 0:00:09.93

Peak level 13.1 %
Extraction speed 2.2 X
Track quality 99.9 %
Test CRC E69DEF08
Copy CRC E69DEF08
Accurately ripped (confidence 90) [49C6EBBF] (AR v2)
Copy OK

Track 8

Filename C:\Various Artists - 111 The Violin\03 Batiashvili; Echoes of Time\08 Vocalise, op. 34 no. 14.wav

Pre-gap length 0:00:05.32

Peak level 31.1 %
Extraction speed 2.6 X
Track quality 100.0 %
Test CRC 979968FC
Copy CRC 979968FC
Accurately ripped (confidence 90) [4FE0CDB6] (AR v2)
Copy OK


All tracks accurately ripped

No errors occurred

End of status report

–– CUETools DB Plugin V2.1.6

[CTDB TOCID: .ab2vKG620bGqfQ4b3evhB.3QaU-] found
Submit result: .ab2vKG620bGqfQ4b3evhB.3QaU- has been confirmed
Track | CTDB Status
1 | (93/94) Accurately ripped
2 | (93/94) Accurately ripped
3 | (93/94) Accurately ripped
4 | (94/94) Accurately ripped
5 | (94/94) Accurately ripped
6 | (94/94) Accurately ripped
7 | (94/94) Accurately ripped
8 | (93/94) Accurately ripped


==== Log checksum E1E9AD0D679E5AD327A57BE34D27C97D32BB2C266B13CE9DADDAACFC2CFC751E ====


CD4
Exact Audio Copy V1.1 from 23. June 2015

EAC extraction logfile from 12. August 2016, 11:22

- / Carmignola; Concerto veneziano

Used drive : ATAPI BD O DH4O3S Adapter: 1 ID: 1

Read mode : Secure
Utilize accurate stream : Yes
Defeat audio cache : Yes
Make use of C2 pointers : No

Read offset correction : 696
Overread into Lead-In and Lead-Out : No
Fill up missing offset samples with silence : Yes
Delete leading and trailing silent blocks : No
Null samples used in CRC calculations : Yes
Used interface : Native Win32 interface for Win NT & 2000
Gap handling : Appended to previous track

Used output format : User Defined Encoder
Selected bitrate : 1024 kBit/s
Quality : High
Add ID3 tag : No
Command line compressor : C:\Program Files (x86)\Exact Audio Copy\Flac\flac.exe
Additional command line options : -8 -V -T "ARTIST=%artist%" -T "TITLE=%title%" -T "ALBUM=%albumtitle%" -T "DATE=%year%" -T "TRACKNUMBER=%tracknr%" -T "GENRE=%genre%" -T "PERFORMER=%albuminterpret%" -T "COMPOSER=%composer%" %haslyrics%–tag-from-file=LYRICS="%lyricsfile%"%haslyrics% -T "ALBUMARTIST=%albumartist%" -T "DISCNUMBER=%cdnumber%" -T "TOTALDISCS=%totalcds%" -T "TOTALTRACKS=%numtracks%" -T "COMMENT=%comment%" %source% -o %dest%


TOC of the extracted CD

Track | Start | Length | Start sector | End sector
––––––––––––––––––––––––––––-
1 | 0:00.00 | 5:20.00 | 0 | 23999
2 | 5:20.00 | 4:02.00 | 24000 | 42149
3 | 9:22.00 | 4:35.00 | 42150 | 62774
4 | 13:57.00 | 6:12.00 | 62775 | 90674
5 | 20:09.00 | 4:23.00 | 90675 | 110399
6 | 24:32.00 | 4:18.00 | 110400 | 129749
7 | 28:50.00 | 7:29.00 | 129750 | 163424
8 | 36:19.00 | 4:19.00 | 163425 | 182849
9 | 40:38.00 | 7:05.00 | 182850 | 214724
10 | 47:43.00 | 5:20.00 | 214725 | 238724
11 | 53:03.00 | 3:38.00 | 238725 | 255074
12 | 56:41.00 | 4:34.00 | 255075 | 275624
13 | 61:15.00 | 4:41.00 | 275625 | 296699


Track 1

Filename C:\Various Artists - 111 The Violin\04 Carmignola; Concerto veneziano\01 Concerto For Violin, Strings (''in due cori'') And 2 Harpsichords In B-Flat Major, RV 583 I. Largo e spiccato - Allegro non molto.wav

Pre-gap length 0:00:02.00

Peak level 99.9 %
Extraction speed 1.0 X
Track quality 99.9 %
Test CRC 74B4A31C
Copy CRC 74B4A31C
Accurately ripped (confidence 56) [4E8A2F57] (AR v2)
Copy OK

Track 2

Filename C:\Various Artists - 111 The Violin\04 Carmignola; Concerto veneziano\02 Concerto For Violin, Strings (''in due cori'') And 2 Harpsichords In B-Flat Major, RV 583 II. Andante.wav

Peak level 53.2 %
Extraction speed 1.1 X
Track quality 99.9 %
Test CRC EB9C157D
Copy CRC EB9C157D
Accurately ripped (confidence 56) [7F8B79B4] (AR v2)
Copy OK

Track 3

Filename C:\Various Artists - 111 The Violin\04 Carmignola; Concerto veneziano\03 Concerto For Violin, Strings (''in due cori'') And 2 Harpsichords In B-Flat Major, RV 583 III. Allegro.wav

Peak level 96.5 %
Extraction speed 1.4 X
Track quality 100.0 %
Test CRC 3712E7BB
Copy CRC 3712E7BB
Accurately ripped (confidence 57) [6D47AFD9] (AR v2)
Copy OK

Track 4

Filename C:\Various Artists - 111 The Violin\04 Carmignola; Concerto veneziano\04 Concerto For Violin, Strings And Harpsichord In E Minor, RV 278 I. Allegro molto - Andantino.wav

Pre-gap length 0:00:08.00

Peak level 93.5 %
Extraction speed 1.6 X
Track quality 100.0 %
Test CRC E229E082
Copy CRC E229E082
Accurately ripped (confidence 56) [72E0FF7D] (AR v2)
Copy OK

Track 5

Filename C:\Various Artists - 111 The Violin\04 Carmignola; Concerto veneziano\05 Concerto For Violin, Strings And Harpsichord In E Minor, RV 278 II. Largo.wav

Peak level 49.7 %
Extraction speed 1.7 X
Track quality 100.0 %
Test CRC 0E5FC82D
Copy CRC 0E5FC82D
Accurately ripped (confidence 57) [BBEE4BC4] (AR v2)
Copy OK

Track 6

Filename C:\Various Artists - 111 The Violin\04 Carmignola; Concerto veneziano\06 Concerto For Violin, Strings And Harpsichord In E Minor, RV 278 III. Allegro.wav

Peak level 65.8 %
Extraction speed 1.8 X
Track quality 100.0 %
Test CRC 702D5B68
Copy CRC 702D5B68
Accurately ripped (confidence 57) [90090AFD] (AR v2)
Copy OK

Track 7

Filename C:\Various Artists - 111 The Violin\04 Carmignola; Concerto veneziano\07 Violin Concerto Op.3, No.9 I. Allegro - Capriccio - Cadenza - Allegro.wav

Pre-gap length 0:00:10.00

Peak level 99.9 %
Extraction speed 2.0 X
Track quality 100.0 %
Test CRC 8E6A7552
Copy CRC 8E6A7552
Accurately ripped (confidence 57) [F9BBFB76] (AR v2)
Copy OK

Track 8

Filename C:\Various Artists - 111 The Violin\04 Carmignola; Concerto veneziano\08 Violin Concerto Op.3, No.9 II. Largo.wav

Pre-gap length 0:00:00.25

Peak level 60.8 %
Extraction speed 2.0 X
Track quality 100.0 %
Test CRC CE140467
Copy CRC CE140467
Accurately ripped (confidence 57) [0135778B] (AR v2)
Copy OK

Track 9

Filename C:\Various Artists - 111 The Violin\04 Carmignola; Concerto veneziano\09 Violin Concerto Op.3, No.9 III. Allegro - Capriccio - Allegro.wav

Peak level 73.8 %
Extraction speed 2.2 X
Track quality 100.0 %
Test CRC 7FA58F36
Copy CRC 7FA58F36
Accurately ripped (confidence 57) [63858609] (AR v2)
Copy OK

Track 10

Filename C:\Various Artists - 111 The Violin\04 Carmignola; Concerto veneziano\10 Violin Concerto in A, D.96 I. Allegro.wav

Pre-gap length 0:00:04.00

Peak level 99.9 %
Extraction speed 1.7 X
Track quality 99.9 %
Test CRC 4A033EE4
Copy CRC 4A033EE4
Accurately ripped (confidence 56) [5A1F61AB] (AR v2)
Copy OK

Track 11

Filename C:\Various Artists - 111 The Violin\04 Carmignola; Concerto veneziano\11 Violin Concerto in A, D.96 II. Adagio.wav

Peak level 51.1 %
Extraction speed 2.2 X
Track quality 100.0 %
Test CRC DA0C951A
Copy CRC DA0C951A
Accurately ripped (confidence 56) [68082113] (AR v2)
Copy OK

Track 12

Filename C:\Various Artists - 111 The Violin\04 Carmignola; Concerto veneziano\12 Violin Concerto in A, D.96 III. [Presto].wav

Peak level 83.2 %
Extraction speed 2.3 X
Track quality 100.0 %
Test CRC 4D0DEA51
Copy CRC 4D0DEA51
Accurately ripped (confidence 57) [6F0ECFE8] (AR v2)
Copy OK

Track 13

Filename C:\Various Artists - 111 The Violin\04 Carmignola; Concerto veneziano\13 Violin Concerto in A, D.96 IV. Largo andante [Alternative].wav

Peak level 36.5 %
Extraction speed 2.4 X
Track quality 100.0 %
Test CRC 7E5E1958
Copy CRC 7E5E1958
Accurately ripped (confidence 57) [CE91F69E] (AR v2)
Copy OK


All tracks accurately ripped

No errors occurred

End of status report

–– CUETools DB Plugin V2.1.6

[CTDB TOCID: sw7yhURxK8UR9GSlpF0LFYxLARk-] found
Submit result: sw7yhURxK8UR9GSlpF0LFYxLARk- has been confirmed
Track | CTDB Status
1 | (57/59) Accurately ripped
2 | (57/59) Accurately ripped
3 | (57/59) Accurately ripped
4 | (57/59) Accurately ripped
5 | (57/59) Accurately ripped
6 | (57/59) Accurately ripped
7 | (57/59) Accurately ripped
8 | (58/59) Accurately ripped
9 | (58/59) Accurately ripped
10 | (58/59) Accurately ripped
11 | (58/59) Accurately ripped
12 | (58/59) Accurately ripped
13 | (57/59) Accurately ripped


==== Log checksum EC8217F50AD18B88222F2965DC4F23B9BC70173EDBDB92F74D96A3DE4071510A ====


CD5
Exact Audio Copy V1.1 from 23. June 2015

EAC extraction logfile from 12. August 2016, 14:45

- / Carmignola; Haydn - Violin Concertos

Used drive : ATAPI BD O DH4O3S Adapter: 1 ID: 1

Read mode : Secure
Utilize accurate stream : Yes
Defeat audio cache : Yes
Make use of C2 pointers : No

Read offset correction : 696
Overread into Lead-In and Lead-Out : No
Fill up missing offset samples with silence : Yes
Delete leading and trailing silent blocks : No
Null samples used in CRC calculations : Yes
Used interface : Native Win32 interface for Win NT & 2000
Gap handling : Appended to previous track

Used output format : User Defined Encoder
Selected bitrate : 1024 kBit/s
Quality : High
Add ID3 tag : No
Command line compressor : C:\Program Files (x86)\Exact Audio Copy\Flac\flac.exe
Additional command line options : -8 -V -T "ARTIST=%artist%" -T "TITLE=%title%" -T "ALBUM=%albumtitle%" -T "DATE=%year%" -T "TRACKNUMBER=%tracknr%" -T "GENRE=%genre%" -T "PERFORMER=%albuminterpret%" -T "COMPOSER=%composer%" %haslyrics%–tag-from-file=LYRICS="%lyricsfile%"%haslyrics% -T "ALBUMARTIST=%albumartist%" -T "DISCNUMBER=%cdnumber%" -T "TOTALDISCS=%totalcds%" -T "TOTALTRACKS=%numtracks%" -T "COMMENT=%comment%" %source% -o %dest%


TOC of the extracted CD

Track | Start | Length | Start sector | End sector
––––––––––––––––––––––––––––-
1 | 0:00.00 | 9:17.71 | 0 | 41845
2 | 9:17.71 | 4:46.21 | 41846 | 63316
3 | 14:04.17 | 4:18.50 | 63317 | 82716
4 | 18:22.67 | 11:00.70 | 82717 | 132286
5 | 29:23.62 | 6:27.69 | 132287 | 161380
6 | 35:51.56 | 5:42.54 | 161381 | 187084
7 | 41:34.35 | 8:14.31 | 187085 | 224165
8 | 49:48.66 | 6:09.50 | 224166 | 251890
9 | 55:58.41 | 3:30.22 | 251891 | 267662


Track 1

Filename C:\Various Artists - 111 The Violin\05 Carmignola; Haydn - Violin Concertos\01 Violin Concerto in C major Hob. VIIa-1 (1765) - 1. Allegro moderato.wav

Pre-gap length 0:00:02.00

Peak level 86.8 %
Extraction speed 1.3 X
Track quality 100.0 %
Test CRC 62AE9B99
Copy CRC 62AE9B99
Accurately ripped (confidence 33) [342ECDEC] (AR v2)
Copy OK

Track 2

Filename C:\Various Artists - 111 The Violin\05 Carmignola; Haydn - Violin Concertos\02 Violin Concerto in C major Hob. VIIa-1 (1765) - 2. Adagio.wav

Peak level 100.0 %
Extraction speed 1.5 X
Track quality 100.0 %
Test CRC F21DB1CF
Copy CRC F21DB1CF
Accurately ripped (confidence 34) [CCDA1F5F] (AR v2)
Copy OK

Track 3

Filename C:\Various Artists - 111 The Violin\05 Carmignola; Haydn - Violin Concertos\03 Violin Concerto in C major Hob. VIIa-1 (1765) - 3. Finale. Presto.wav

Peak level 92.5 %
Extraction speed 1.6 X
Track quality 100.0 %
Test CRC A53E4FA5
Copy CRC A53E4FA5
Accurately ripped (confidence 35) [C954AD81] (AR v2)
Copy OK

Track 4

Filename C:\Various Artists - 111 The Violin\05 Carmignola; Haydn - Violin Concertos\04 Violin Concerto in A major Hob. VIIa-3 (1770) - 1. Moderato.wav

Peak level 100.0 %
Extraction speed 1.9 X
Track quality 100.0 %
Test CRC C38FC5FB
Copy CRC C38FC5FB
Accurately ripped (confidence 34) [CD87EAF7] (AR v2)
Copy OK

Track 5

Filename C:\Various Artists - 111 The Violin\05 Carmignola; Haydn - Violin Concertos\05 Violin Concerto in A major Hob. VIIa-3 (1770) - 2. Adagio moderato.wav

Peak level 71.1 %
Extraction speed 2.0 X
Track quality 100.0 %
Test CRC C244718C
Copy CRC C244718C
Accurately ripped (confidence 33) [CB23EAB0] (AR v2)
Copy OK

Track 6

Filename C:\Various Artists - 111 The Violin\05 Carmignola; Haydn - Violin Concertos\06 Violin Concerto in A major Hob. VIIa-3 (1770) - 3. Allegro.wav

Peak level 90.5 %
Extraction speed 2.1 X
Track quality 100.0 %
Test CRC 9DD3CEB6
Copy CRC 9DD3CEB6
Accurately ripped (confidence 35) [9BBA3FC9] (AR v2)
Copy OK

Track 7

Filename C:\Various Artists - 111 The Violin\05 Carmignola; Haydn - Violin Concertos\07 Violin Concerto in G major Hob. VIIa-4 (1769) - 1. Allegro moderato.wav

Peak level 92.6 %
Extraction speed 2.3 X
Track quality 100.0 %
Test CRC CB5AEB60
Copy CRC CB5AEB60
Accurately ripped (confidence 34) [4B9FD893] (AR v2)
Copy OK

Track 8

Filename C:\Various Artists - 111 The Violin\05 Carmignola; Haydn - Violin Concertos\08 Violin Concerto in G major Hob. VIIa-4 (1769) - 2. Adagio.wav

Peak level 85.1 %
Extraction speed 2.3 X
Track quality 100.0 %
Test CRC B23B7AC5
Copy CRC B23B7AC5
Accurately ripped (confidence 34) [AB66C6BD] (AR v2)
Copy OK

Track 9

Filename C:\Various Artists - 111 The Violin\05 Carmignola; Haydn - Violin Concertos\09 Violin Concerto in G major Hob. VIIa-4 (1769) - 3. Allegro.wav

Peak level 79.7 %
Extraction speed 2.3 X
Track quality 100.0 %
Test CRC 4E5E5CF3
Copy CRC 4E5E5CF3
Accurately ripped (confidence 34) [2086FE4D] (AR v2)
Copy OK


All tracks accurately ripped

No errors occurred

End of status report

–– CUETools DB Plugin V2.1.6

[CTDB TOCID: k3maNkZhJIUegKwc.mfj3H36rEI-] found
Submit result: k3maNkZhJIUegKwc.mfj3H36rEI- has been confirmed
Track | CTDB Status
1 | (40/41) Accurately ripped
2 | (41/41) Accurately ripped
3 | (41/41) Accurately ripped
4 | (40/41) Accurately ripped
5 | (40/41) Accurately ripped
6 | (41/41) Accurately ripped
7 | (41/41) Accurately ripped
8 | (41/41) Accurately ripped
9 | (41/41) Accurately ripped


==== Log checksum C51FDF989F7D2F41D759FFDF2390BDC7B27CE11DCB6C1C97C821859989DE8C48 ====


CD6
Exact Audio Copy V1.1 from 23. June 2015

EAC extraction logfile from 12. August 2016, 15:26

- / Chung; R. Strauss, Respighi - Sonatas

Used drive : ATAPI BD O DH4O3S Adapter: 1 ID: 1

Read mode : Secure
Utilize accurate stream : Yes
Defeat audio cache : Yes
Make use of C2 pointers : No

Read offset correction : 696
Overread into Lead-In and Lead-Out : No
Fill up missing offset samples with silence : Yes
Delete leading and trailing silent blocks : No
Null samples used in CRC calculations : Yes
Used interface : Native Win32 interface for Win NT & 2000
Gap handling : Appended to previous track

Used output format : User Defined Encoder
Selected bitrate : 1024 kBit/s
Quality : High
Add ID3 tag : No
Command line compressor : C:\Program Files (x86)\Exact Audio Copy\Flac\flac.exe
Additional command line options : -8 -V -T "ARTIST=%artist%" -T "TITLE=%title%" -T "ALBUM=%albumtitle%" -T "DATE=%year%" -T "TRACKNUMBER=%tracknr%" -T "GENRE=%genre%" -T "PERFORMER=%albuminterpret%" -T "COMPOSER=%composer%" %haslyrics%–tag-from-file=LYRICS="%lyricsfile%"%haslyrics% -T "ALBUMARTIST=%albumartist%" -T "DISCNUMBER=%cdnumber%" -T "TOTALDISCS=%totalcds%" -T "TOTALTRACKS=%numtracks%" -T "COMMENT=%comment%" %source% -o %dest%


TOC of the extracted CD

Track | Start | Length | Start sector | End sector
––––––––––––––––––––––––––––-
1 | 0:00.33 | 10:48.35 | 33 | 48667
2 | 10:48.68 | 8:23.07 | 48668 | 86399
3 | 19:12.00 | 8:17.28 | 86400 | 123702
4 | 27:29.28 | 8:58.12 | 123703 | 164064
5 | 36:27.40 | 7:43.60 | 164065 | 198849
6 | 44:11.25 | 7:20.20 | 198850 | 231869


Track 1

Filename C:\Various Artists - 111 The Violin\06 Chung; R. Strauss, Respighi - Sonatas\01 Sonata for Violin and Piano in E-flat, op. 18- I. Allegro, ma non troppo.wav

Pre-gap length 0:00:02.44

Peak level 99.2 %
Extraction speed 4.1 X
Track quality 100.0 %
Test CRC 4D053125
Copy CRC 4D053125
Accurately ripped (confidence 5) [9AC9DC32] (AR v2)
Copy OK

Track 2

Filename C:\Various Artists - 111 The Violin\06 Chung; R. Strauss, Respighi - Sonatas\02 Sonata for Violin and Piano in E-flat, op. 18- II. Improvisation. Andante cantabile.wav

Pre-gap length 0:00:05.30

Peak level 68.2 %
Extraction speed 4.8 X
Track quality 100.0 %
Test CRC 2822B3D5
Copy CRC 2822B3D5
Accurately ripped (confidence 5) [46476923] (AR v2)
Copy OK

Track 3

Filename C:\Various Artists - 111 The Violin\06 Chung; R. Strauss, Respighi - Sonatas\03 Sonata for Violin and Piano in E-flat, op. 18- III. Finale. Andante - Allegro.wav

Pre-gap length 0:00:02.49

Peak level 94.8 %
Extraction speed 5.4 X
Track quality 100.0 %
Test CRC AE60B17D
Copy CRC AE60B17D
Accurately ripped (confidence 5) [3570BB7F] (AR v2)
Copy OK

Track 4

Filename C:\Various Artists - 111 The Violin\06 Chung; R. Strauss, Respighi - Sonatas\04 Sonata for Violin and Piano in B minor- I. Moderato.wav

Pre-gap length 0:00:03.77

Peak level 93.5 %
Extraction speed 5.4 X
Track quality 99.9 %
Test CRC AB11EDA6
Copy CRC AB11EDA6
Accurately ripped (confidence 5) [E222FF82] (AR v2)
Copy OK

Track 5

Filename C:\Various Artists - 111 The Violin\06 Chung; R. Strauss, Respighi - Sonatas\05 Sonata for Violin and Piano in B minor- II. Andante espressivo.wav

Pre-gap length 0:00:02.93

Peak level 97.6 %
Extraction speed 5.6 X
Track quality 99.9 %
Test CRC B459B437
Copy CRC B459B437
Accurately ripped (confidence 5) [25605CE0] (AR v2)
Copy OK

Track 6

Filename C:\Various Artists - 111 The Violin\06 Chung; R. Strauss, Respighi - Sonatas\06 Sonata for Violin and Piano in B minor- III. Passacaglia..wav

Pre-gap length 0:00:04.73

Peak level 96.2 %
Extraction speed 5.8 X
Track quality 99.9 %
Test CRC ED70F7C7
Copy CRC ED70F7C7
Accurately ripped (confidence 5) [66B11474] (AR v2)
Copy OK


All tracks accurately ripped

No errors occurred

End of status report

–– CUETools DB Plugin V2.1.6

[CTDB TOCID: HbeVlYQoIEaoPXj8bgnmiIEhljY-] found
Submit result: HbeVlYQoIEaoPXj8bgnmiIEhljY- has been confirmed
Track | CTDB Status
1 | (31/31) Accurately ripped
2 | (31/31) Accurately ripped
3 | (31/31) Accurately ripped
4 | (31/31) Accurately ripped
5 | (31/31) Accurately ripped
6 | (31/31) Accurately ripped


==== Log checksum D3786AEF722E3BD2C90152B861F98530F2A63138DC8769CC4C167F3A737E7226 ====


CD7
Exact Audio Copy V1.1 from 23. June 2015

EAC extraction logfile from 12. August 2016, 23:22

- / Dumay; Frank, Debussy, Ravel - Sonatas

Used drive : ATAPI BD O DH4O3S Adapter: 1 ID: 1

Read mode : Secure
Utilize accurate stream : Yes
Defeat audio cache : Yes
Make use of C2 pointers : No

Read offset correction : 696
Overread into Lead-In and Lead-Out : No
Fill up missing offset samples with silence : Yes
Delete leading and trailing silent blocks : No
Null samples used in CRC calculations : Yes
Used interface : Native Win32 interface for Win NT & 2000
Gap handling : Appended to previous track

Used output format : User Defined Encoder
Selected bitrate : 1024 kBit/s
Quality : High
Add ID3 tag : No
Command line compressor : C:\Program Files (x86)\Exact Audio Copy\Flac\flac.exe
Additional command line options : -8 -V -T "ARTIST=%artist%" -T "TITLE=%title%" -T "ALBUM=%albumtitle%" -T "DATE=%year%" -T "TRACKNUMBER=%tracknr%" -T "GENRE=%genre%" -T "PERFORMER=%albuminterpret%" -T "COMPOSER=%composer%" %haslyrics%–tag-from-file=LYRICS="%lyricsfile%"%haslyrics% -T "ALBUMARTIST=%albumartist%" -T "DISCNUMBER=%cdnumber%" -T "TOTALDISCS=%totalcds%" -T "TOTALTRACKS=%numtracks%" -T "COMMENT=%comment%" %source% -o %dest%


TOC of the extracted CD

Track | Start | Length | Start sector | End sector
––––––––––––––––––––––––––––-
1 | 0:00.33 | 5:47.00 | 33 | 26057
2 | 5:47.33 | 7:59.00 | 26058 | 61982
3 | 13:46.33 | 7:00.00 | 61983 | 93482
4 | 20:46.33 | 6:20.00 | 93483 | 121982
5 | 27:06.33 | 4:54.00 | 121983 | 144032
6 | 32:00.33 | 4:17.00 | 144033 | 163307
7 | 36:17.33 | 4:21.00 | 163308 | 182882
8 | 40:38.33 | 2:29.00 | 182883 | 194057
9 | 43:07.33 | 3:04.00 | 194058 | 207857
10 | 46:11.33 | 9:55.00 | 207858 | 252482


Track 1

Filename C:\Various Artists - 111 The Violin\07 Dumay; Frank, Debussy, Ravel - Sonatas\01 Sonata in A Major For Violin & Piano, FWV 8 1. Allegretto ben moderato.wav

Pre-gap length 0:00:02.44

Peak level 73.8 %
Extraction speed 1.2 X
Track quality 100.0 %
Test CRC C0E135C0
Copy CRC C0E135C0
Accurately ripped (confidence 2) [B0FB0483] (AR v2)
Copy OK

Track 2

Filename C:\Various Artists - 111 The Violin\07 Dumay; Frank, Debussy, Ravel - Sonatas\02 Sonata in A Major For Violin & Piano, FWV 8 2. Allegro- Quasi lento- Tempo 1 (Allegro).wav

Peak level 99.0 %
Extraction speed 1.5 X
Track quality 100.0 %
Test CRC A39D2001
Copy CRC A39D2001
Accurately ripped (confidence 2) [7DCAC428] (AR v2)
Copy OK

Track 3

Filename C:\Various Artists - 111 The Violin\07 Dumay; Frank, Debussy, Ravel - Sonatas\03 Sonata in A Major For Violin & Piano, FWV 8 3. Recitativo.wav

Peak level 73.4 %
Extraction speed 1.7 X
Track quality 100.0 %
Test CRC 5769252A
Copy CRC 5769252A
Accurately ripped (confidence 2) [21C068E8] (AR v2)
Copy OK

Track 4

Filename C:\Various Artists - 111 The Violin\07 Dumay; Frank, Debussy, Ravel - Sonatas\04 Sonata in A Major For Violin & Piano, FWV 8 4. Allegretto poco mosso.wav

Peak level 79.4 %
Extraction speed 1.8 X
Track quality 100.0 %
Test CRC 02927777
Copy CRC 02927777
Accurately ripped (confidence 2) [E5E1883D] (AR v2)
Copy OK

Track 5

Filename C:\Various Artists - 111 The Violin\07 Dumay; Frank, Debussy, Ravel - Sonatas\05 Sonata in G Minor for Violin & Piano, L. 140 1. Allegro vivo.wav

Pre-gap length 0:00:10.00

Peak level 88.9 %
Extraction speed 1.9 X
Track quality 100.0 %
Test CRC BF24EFFA
Copy CRC BF24EFFA
Accurately ripped (confidence 2) [BA519566] (AR v2)
Copy OK

Track 6

Filename C:\Various Artists - 111 The Violin\07 Dumay; Frank, Debussy, Ravel - Sonatas\06 Sonata in G Minor for Violin & Piano, L. 140 2. Intermède (Fantasque et léger).wav

Peak level 92.3 %
Extraction speed 1.9 X
Track quality 100.0 %
Test CRC E4BED0C1
Copy CRC E4BED0C1
Accurately ripped (confidence 2) [A058CCF6] (AR v2)
Copy OK

Track 7

Filename C:\Various Artists - 111 The Violin\07 Dumay; Frank, Debussy, Ravel - Sonatas\07 Sonata in G Minor for Violin & Piano, L. 140 3. Finale (Très animé).wav

Peak level 89.5 %
Extraction speed 2.0 X
Track quality 100.0 %
Test CRC 0A5E7E53
Copy CRC 0A5E7E53
Accurately ripped (confidence 2) [AFBCD68B] (AR v2)
Copy OK

Track 8

Filename C:\Various Artists - 111 The Violin\07 Dumay; Frank, Debussy, Ravel - Sonatas\08 Berceuse sur le nom de Gabriel Fauré.wav

Pre-gap length 0:00:10.00

Peak level 18.0 %
Extraction speed 1.9 X
Track quality 100.0 %
Test CRC 66DCB89C
Copy CRC 66DCB89C
Accurately ripped (confidence 2) [44108536] (AR v2)
Copy OK

Track 9

Filename C:\Various Artists - 111 The Violin\07 Dumay; Frank, Debussy, Ravel - Sonatas\09 Vocalise-Etude (en forme de Habanera).wav

Pre-gap length 0:00:06.00

Peak level 43.5 %
Extraction speed 2.0 X
Track quality 100.0 %
Test CRC 1B550329
Copy CRC 1B550329
Accurately ripped (confidence 2) [14429861] (AR v2)
Copy OK

Track 10

Filename C:\Various Artists - 111 The Violin\07 Dumay; Frank, Debussy, Ravel - Sonatas\10 Tzigane, M.76.wav

Pre-gap length 0:00:08.00

Peak level 74.1 %
Extraction speed 2.4 X
Track quality 100.0 %
Test CRC DAF57C32
Copy CRC DAF57C32
Accurately ripped (confidence 2) [A9DDE7C0] (AR v2)
Copy OK


All tracks accurately ripped

No errors occurred

End of status report

–– CUETools DB Plugin V2.1.6

[CTDB TOCID: RSaKIEUq1DIyXRciaUCxZb1qRtA-] found
Submit result: RSaKIEUq1DIyXRciaUCxZb1qRtA- has been confirmed
Track | CTDB Status
1 | (17/17) Accurately ripped
2 | (17/17) Accurately ripped
3 | (17/17) Accurately ripped
4 | (16/17) Accurately ripped
5 | (16/17) Accurately ripped
6 | (17/17) Accurately ripped
7 | (16/17) Accurately ripped
8 | (17/17) Accurately ripped
9 | (17/17) Accurately ripped
10 | (16/17) Accurately ripped


==== Log checksum D22B93650EBEA236083A02E75FB68C48A13A2A2C210D25358FCC97AE86E9CF44 ====


CD8
Exact Audio Copy V1.1 from 23. June 2015

EAC extraction logfile from 13. August 2016, 6:52

- / Ferras; Schumann - Sonatas

Used drive : ATAPI BD O DH4O3S Adapter: 1 ID: 1

Read mode : Secure
Utilize accurate stream : Yes
Defeat audio cache : Yes
Make use of C2 pointers : No

Read offset correction : 696
Overread into Lead-In and Lead-Out : No
Fill up missing offset samples with silence : Yes
Delete leading and trailing silent blocks : No
Null samples used in CRC calculations : Yes
Used interface : Native Win32 interface for Win NT & 2000
Gap handling : Appended to previous track

Used output format : User Defined Encoder
Selected bitrate : 1024 kBit/s
Quality : High
Add ID3 tag : No
Command line compressor : C:\Program Files (x86)\Exact Audio Copy\Flac\flac.exe
Additional command line options : -8 -V -T "ARTIST=%artist%" -T "TITLE=%title%" -T "ALBUM=%albumtitle%" -T "DATE=%year%" -T "TRACKNUMBER=%tracknr%" -T "GENRE=%genre%" -T "PERFORMER=%albuminterpret%" -T "COMPOSER=%composer%" %haslyrics%–tag-from-file=LYRICS="%lyricsfile%"%haslyrics% -T "ALBUMARTIST=%albumartist%" -T "DISCNUMBER=%cdnumber%" -T "TOTALDISCS=%totalcds%" -T "TOTALTRACKS=%numtracks%" -T "COMMENT=%comment%" %source% -o %dest%


TOC of the extracted CD

Track | Start | Length | Start sector | End sector
––––––––––––––––––––––––––––-
1 | 0:00.00 | 7:15.74 | 0 | 32698
2 | 7:15.74 | 3:46.62 | 32699 | 49710
3 | 11:02.61 | 5:09.52 | 49711 | 72937
4 | 16:12.38 | 2:31.41 | 72938 | 84303
5 | 18:44.04 | 3:23.66 | 84304 | 99594
6 | 22:07.70 | 3:43.31 | 99595 | 116350
7 | 25:51.26 | 10:38.04 | 116351 | 164204
8 | 36:29.30 | 4:00.08 | 164205 | 182212
9 | 40:29.38 | 6:50.57 | 182213 | 213019
10 | 47:20.20 | 7:02.55 | 213020 | 244724


Track 1

Filename C:\Various Artists - 111 The Violin\08 Ferras; Schumann - Sonatas\01 Sonata No.1 For Violin And Piano In A Minor, Op.105 1. Mit leidenschaftlichem Ausdruck.wav

Pre-gap length 0:00:02.00

Peak level 73.6 %
Extraction speed 1.3 X
Track quality 100.0 %
Test CRC B264029A
Copy CRC B264029A
Track not present in AccurateRip database
Copy OK

Track 2

Filename C:\Various Artists - 111 The Violin\08 Ferras; Schumann - Sonatas\02 Sonata No.1 For Violin And Piano In A Minor, Op.105 2. Allegretto.wav

Peak level 58.7 %
Extraction speed 1.3 X
Track quality 100.0 %
Test CRC 578B4B34
Copy CRC 578B4B34
Track not present in AccurateRip database
Copy OK

Track 3

Filename C:\Various Artists - 111 The Violin\08 Ferras; Schumann - Sonatas\03 Sonata No.1 For Violin And Piano In A Minor, Op.105 3. Lebhaft.wav

Peak level 81.8 %
Extraction speed 1.5 X
Track quality 100.0 %
Test CRC 0DCDB96D
Copy CRC 0DCDB96D
Track not present in AccurateRip database
Copy OK

Track 4

Filename C:\Various Artists - 111 The Violin\08 Ferras; Schumann - Sonatas\04 3 Romances, Op.94 No.1 Nicht schnell.wav

Pre-gap length 0:00:03.00

Peak level 44.5 %
Extraction speed 1.5 X
Track quality 100.0 %
Test CRC 5E5B2589
Copy CRC 5E5B2589
Track not present in AccurateRip database
Copy OK

Track 5

Filename C:\Various Artists - 111 The Violin\08 Ferras; Schumann - Sonatas\05 3 Romances, Op.94 No.2 Einfach, innig.wav

Peak level 45.8 %
Extraction speed 1.6 X
Track quality 100.0 %
Test CRC 1FE9C705
Copy CRC 1FE9C705
Track not present in AccurateRip database
Copy OK

Track 6

Filename C:\Various Artists - 111 The Violin\08 Ferras; Schumann - Sonatas\06 3 Romances, Op.94 No.3 Nicht schnell.wav

Peak level 60.6 %
Extraction speed 1.3 X
Track quality 99.9 %
Test CRC B3420394
Copy CRC B3420394
Track not present in AccurateRip database
Copy OK

Track 7

Filename C:\Various Artists - 111 The Violin\08 Ferras; Schumann - Sonatas\07 Sonata No.2 For Violin And Piano In D Minor, Op.121 1. Ziemlich langsam - Lebhaft.wav

Pre-gap length 0:00:03.00

Peak level 70.4 %
Extraction speed 1.8 X
Track quality 99.9 %
Test CRC 505BF52D
Copy CRC 505BF52D
Track not present in AccurateRip database
Copy OK

Track 8

Filename C:\Various Artists - 111 The Violin\08 Ferras; Schumann - Sonatas\08 Sonata No.2 For Violin And Piano In D Minor, Op.121 2. Sehr lebhaft.wav

Peak level 59.6 %
Extraction speed 2.0 X
Track quality 100.0 %
Test CRC 9D61A949
Copy CRC 9D61A949
Track not present in AccurateRip database
Copy OK

Track 9

Filename C:\Various Artists - 111 The Violin\08 Ferras; Schumann - Sonatas\09 Sonata No.2 For Violin And Piano In D Minor, Op.121 3. Leise, einfach.wav

Peak level 56.3 %
Extraction speed 2.2 X
Track quality 100.0 %
Test CRC 1BAAE672
Copy CRC 1BAAE672
Track not present in AccurateRip database
Copy OK

Track 10

Filename C:\Various Artists - 111 The Violin\08 Ferras; Schumann - Sonatas\10 Sonata No.2 For Violin And Piano In D Minor, Op.121 4. Bewegt.wav

Peak level 63.0 %
Extraction speed 2.4 X
Track quality 100.0 %
Test CRC ED7B3499
Copy CRC ED7B3499
Track not present in AccurateRip database
Copy OK


None of the tracks are present in the AccurateRip database

No errors occurred

End of status report

–– CUETools DB Plugin V2.1.6

[CTDB TOCID: 8Tb.0FvN9O1fH6.kkvUYauDaiZs-] found
Submit result: 8Tb.0FvN9O1fH6.kkvUYauDaiZs- has been confirmed
Track | CTDB Status
1 | (3/3) Accurately ripped
2 | (3/3) Accurately ripped
3 | (3/3) Accurately ripped
4 | (3/3) Accurately ripped
5 | (3/3) Accurately ripped
6 | (3/3) Accurately ripped
7 | (3/3) Accurately ripped
8 | (3/3) Accurately ripped
9 | (3/3) Accurately ripped
10 | (3/3) Accurately ripped


==== Log checksum 8D9BB0C283CE343513F020F28E62621FCD82F8F641C255E2FD0CF14F3A0C7E76 ====



CD9
Exact Audio Copy V1.1 from 23. June 2015

EAC extraction logfile from 13. August 2016, 8:16

- / Garrett; Beethoven, Sonata No.5, JS Bach, Partita No.2, Mozart, Adagio

Used drive : ATAPI BD O DH4O3S Adapter: 1 ID: 1

Read mode : Secure
Utilize accurate stream : Yes
Defeat audio cache : Yes
Make use of C2 pointers : No

Read offset correction : 696
Overread into Lead-In and Lead-Out : No
Fill up missing offset samples with silence : Yes
Delete leading and trailing silent blocks : No
Null samples used in CRC calculations : Yes
Used interface : Native Win32 interface for Win NT & 2000
Gap handling : Appended to previous track

Used output format : User Defined Encoder
Selected bitrate : 1024 kBit/s
Quality : High
Add ID3 tag : No
Command line compressor : C:\Program Files (x86)\Exact Audio Copy\Flac\flac.exe
Additional command line options : -8 -V -T "ARTIST=%artist%" -T "TITLE=%title%" -T "ALBUM=%albumtitle%" -T "DATE=%year%" -T "TRACKNUMBER=%tracknr%" -T "GENRE=%genre%" -T "PERFORMER=%albuminterpret%" -T "COMPOSER=%composer%" %haslyrics%–tag-from-file=LYRICS="%lyricsfile%"%haslyrics% -T "ALBUMARTIST=%albumartist%" -T "DISCNUMBER=%cdnumber%" -T "TOTALDISCS=%totalcds%" -T "TOTALTRACKS=%numtracks%" -T "COMMENT=%comment%" %source% -o %dest%


TOC of the extracted CD

Track | Start | Length | Start sector | End sector
––––––––––––––––––––––––––––-
1 | 0:00.33 | 10:52.00 | 33 | 48932
2 | 10:52.33 | 7:09.00 | 48933 | 81107
3 | 18:01.33 | 1:18.70 | 81108 | 87027
4 | 19:20.28 | 6:50.05 | 87028 | 117782
5 | 26:10.33 | 5:18.00 | 117783 | 141632
6 | 31:28.33 | 3:02.00 | 141633 | 155282
7 | 34:30.33 | 5:42.00 | 155283 | 180932
8 | 40:12.33 | 3:33.00 | 180933 | 196907
9 | 43:45.33 | 19:53.00 | 196908 | 286382
10 | 63:38.33 | 8:40.00 | 286383 | 325382


Track 1

Filename C:\Various Artists - 111 The Violin\09 Garrett; Beethoven, Sonata No.5, JS Bach, Partita No.2, Mozart, Adagio\01 Sonata For Violin And Piano No.5 In F, Op.24 - ''Spring'' 1. Allegro.wav

Pre-gap length 0:00:02.44

Peak level 99.9 %
Extraction speed 1.4 X
Track quality 99.9 %
Test CRC 7D827264
Copy CRC 7D827264
Accurately ripped (confidence 10) [321AB882] (AR v2)
Copy OK

Track 2

Filename C:\Various Artists - 111 The Violin\09 Garrett; Beethoven, Sonata No.5, JS Bach, Partita No.2, Mozart, Adagio\02 Sonata For Violin And Piano No.5 In F, Op.24 - ''Spring'' 2. Adagio molto espressivo.wav

Peak level 35.9 %
Extraction speed 1.7 X
Track quality 100.0 %
Test CRC F5EFDDAE
Copy CRC F5EFDDAE
Accurately ripped (confidence 10) [73583142] (AR v2)
Copy OK

Track 3

Filename C:\Various Artists - 111 The Violin\09 Garrett; Beethoven, Sonata No.5, JS Bach, Partita No.2, Mozart, Adagio\03 Sonata For Violin And Piano No.5 In F, Op.24 - ''Spring'' 3. Scherzo (Allegro molto).wav

Peak level 78.0 %
Extraction speed 1.3 X
Track quality 100.0 %
Test CRC 379C69C5
Copy CRC 379C69C5
Accurately ripped (confidence 10) [04A2B424] (AR v2)
Copy OK

Track 4

Filename C:\Various Artists - 111 The Violin\09 Garrett; Beethoven, Sonata No.5, JS Bach, Partita No.2, Mozart, Adagio\04 Sonata For Violin And Piano No.5 In F, Op.24 - ''Spring'' 4. Rondo (Allegro ma non troppo).wav

Peak level 92.1 %
Extraction speed 1.9 X
Track quality 100.0 %
Test CRC 29EBE214
Copy CRC 29EBE214
Accurately ripped (confidence 10) [0333C17A] (AR v2)
Copy OK

Track 5

Filename C:\Various Artists - 111 The Violin\09 Garrett; Beethoven, Sonata No.5, JS Bach, Partita No.2, Mozart, Adagio\05 Partita in D Minor for Solo Violin, BWV 1004 1. Allemande.wav

Pre-gap length 0:00:05.00

Peak level 31.9 %
Extraction speed 2.0 X
Track quality 100.0 %
Test CRC EC3F7E36
Copy CRC EC3F7E36
Accurately ripped (confidence 10) [FB34351C] (AR v2)
Copy OK

Track 6

Filename C:\Various Artists - 111 The Violin\09 Garrett; Beethoven, Sonata No.5, JS Bach, Partita No.2, Mozart, Adagio\06 Partita in D Minor for Solo Violin, BWV 1004 2. Corrente.wav

Peak level 45.7 %
Extraction speed 1.9 X
Track quality 100.0 %
Test CRC 76C8AABF
Copy CRC 76C8AABF
Accurately ripped (confidence 10) [9432A4A9] (AR v2)
Copy OK

Track 7

Filename C:\Various Artists - 111 The Violin\09 Garrett; Beethoven, Sonata No.5, JS Bach, Partita No.2, Mozart, Adagio\07 Partita in D Minor for Solo Violin, BWV 1004 3. Sarabande.wav

Peak level 28.6 %
Extraction speed 2.2 X
Track quality 100.0 %
Test CRC 9512B860
Copy CRC 9512B860
Accurately ripped (confidence 10) [56D9737D] (AR v2)
Copy OK

Track 8

Filename C:\Various Artists - 111 The Violin\09 Garrett; Beethoven, Sonata No.5, JS Bach, Partita No.2, Mozart, Adagio\08 Partita in D Minor for Solo Violin, BWV 1004 4. Giga.wav

Peak level 50.8 %
Extraction speed 2.1 X
Track quality 100.0 %
Test CRC 6B01AB15
Copy CRC 6B01AB15
Accurately ripped (confidence 10) [BF8244EF] (AR v2)
Copy OK

Track 9

Filename C:\Various Artists - 111 The Violin\09 Garrett; Beethoven, Sonata No.5, JS Bach, Partita No.2, Mozart, Adagio\09 Partita in D Minor for Solo Violin, BWV 1004 5. Ciaccona.wav

Peak level 92.2 %
Extraction speed 2.7 X
Track quality 100.0 %
Test CRC F068B3F4
Copy CRC F068B3F4
Accurately ripped (confidence 9) [E4D65CFE] (AR v2)
Copy OK

Track 10

Filename C:\Various Artists - 111 The Violin\09 Garrett; Beethoven, Sonata No.5, JS Bach, Partita No.2, Mozart, Adagio\10 Adagio for Violin and Orchestra in E, K.261, Adagio.wav

Pre-gap length 0:00:03.00

Peak level 36.5 %
Extraction speed 2.8 X
Track quality 100.0 %
Test CRC BA8D8E72
Copy CRC BA8D8E72
Accurately ripped (confidence 10) [95402F14] (AR v2)
Copy OK


All tracks accurately ripped

No errors occurred

End of status report

–– CUETools DB Plugin V2.1.6

[CTDB TOCID: Yxr4nOKbORuv6Hr8mh8iLxyYgks-] found
Submit result: Yxr4nOKbORuv6Hr8mh8iLxyYgks- has been confirmed
Track | CTDB Status
1 | (12/12) Accurately ripped
2 | (12/12) Accurately ripped
3 | (12/12) Accurately ripped
4 | (12/12) Accurately ripped
5 | (12/12) Accurately ripped
6 | (11/12) Accurately ripped
7 | (12/12) Accurately ripped
8 | (12/12) Accurately ripped
9 | (12/12) Accurately ripped
10 | (12/12) Accurately ripped


==== Log checksum FCFDC888A0F972EDAB4C581525F7192F4992737057FC031B46791C353FFE50FE ====


CD10
Exact Audio Copy V1.1 from 23. June 2015

EAC extraction logfile from 13. August 2016, 9:23

- / Goebel; Early Italian Violin Music

Used drive : ATAPI BD O DH4O3S Adapter: 1 ID: 1

Read mode : Secure
Utilize accurate stream : Yes
Defeat audio cache : Yes
Make use of C2 pointers : No

Read offset correction : 696
Overread into Lead-In and Lead-Out : No
Fill up missing offset samples with silence : Yes
Delete leading and trailing silent blocks : No
Null samples used in CRC calculations : Yes
Used interface : Native Win32 interface for Win NT & 2000
Gap handling : Appended to previous track

Used output format : User Defined Encoder
Selected bitrate : 1024 kBit/s
Quality : High
Add ID3 tag : No
Command line compressor : C:\Program Files (x86)\Exact Audio Copy\Flac\flac.exe
Additional command line options : -8 -V -T "ARTIST=%artist%" -T "TITLE=%title%" -T "ALBUM=%albumtitle%" -T "DATE=%year%" -T "TRACKNUMBER=%tracknr%" -T "GENRE=%genre%" -T "PERFORMER=%albuminterpret%" -T "COMPOSER=%composer%" %haslyrics%–tag-from-file=LYRICS="%lyricsfile%"%haslyrics% -T "ALBUMARTIST=%albumartist%" -T "DISCNUMBER=%cdnumber%" -T "TOTALDISCS=%totalcds%" -T "TOTALTRACKS=%numtracks%" -T "COMMENT=%comment%" %source% -o %dest%


TOC of the extracted CD

Track | Start | Length | Start sector | End sector
––––––––––––––––––––––––––––-
1 | 0:00.00 | 3:39.58 | 0 | 16482
2 | 3:39.58 | 3:44.13 | 16483 | 33295
3 | 7:23.71 | 4:40.16 | 33296 | 54311
4 | 12:04.12 | 4:32.33 | 54312 | 74744
5 | 16:36.45 | 3:57.57 | 74745 | 92576
6 | 20:34.27 | 4:49.45 | 92577 | 114296
7 | 25:23.72 | 4:41.73 | 114297 | 135444
8 | 30:05.70 | 8:40.73 | 135445 | 174517
9 | 38:46.68 | 5:48.07 | 174518 | 200624


Track 1

Filename C:\Various Artists - 111 The Violin\10 Goebel; Early Italian Violin Music\01 Sonata con tre violini (XXI from Canzoni et Sonate, 1615).wav

Pre-gap length 0:00:02.00

Peak level 73.6 %
Extraction speed 1.0 X
Track quality 99.9 %
Test CRC 0E51B337
Copy CRC 0E51B337
Track not present in AccurateRip database
Copy OK

Track 2

Filename C:\Various Artists - 111 The Violin\10 Goebel; Early Italian Violin Music\02 Sonata sopra l'aria di Ruggiero.wav

Pre-gap length 0:00:03.36

Peak level 69.6 %
Extraction speed 1.2 X
Track quality 100.0 %
Test CRC 03F8D832
Copy CRC 03F8D832
Track not present in AccurateRip database
Copy OK

Track 3

Filename C:\Various Artists - 111 The Violin\10 Goebel; Early Italian Violin Music\03 Sonate a tre violini.wav

Pre-gap length 0:00:03.41

Peak level 97.0 %
Extraction speed 1.2 X
Track quality 99.9 %
Test CRC 8872F3CF
Copy CRC 8872F3CF
Track not present in AccurateRip database
Copy OK

Track 4

Filename C:\Various Artists - 111 The Violin\10 Goebel; Early Italian Violin Music\04 Passacaglio a 4.wav

Pre-gap length 0:00:04.60

Peak level 52.9 %
Extraction speed 1.5 X
Track quality 100.0 %
Test CRC A75725A9
Copy CRC A75725A9
Track not present in AccurateRip database
Copy OK

Track 5

Filename C:\Various Artists - 111 The Violin\10 Goebel; Early Italian Violin Music\05 Sonata sopra la Monica.wav

Pre-gap length 0:00:04.29

Peak level 74.0 %
Extraction speed 1.6 X
Track quality 100.0 %
Test CRC 9395F041
Copy CRC 9395F041
Track not present in AccurateRip database
Copy OK

Track 6

Filename C:\Various Artists - 111 The Violin\10 Goebel; Early Italian Violin Music\06 Ecco a tre violini.wav

Pre-gap length 0:00:03.94

Peak level 73.0 %
Extraction speed 1.7 X
Track quality 100.0 %
Test CRC 11A6696D
Copy CRC 11A6696D
Track not present in AccurateRip database
Copy OK

Track 7

Filename C:\Various Artists - 111 The Violin\10 Goebel; Early Italian Violin Music\07 Capriccio.wav

Pre-gap length 0:00:03.42

Peak level 59.6 %
Extraction speed 1.8 X
Track quality 100.0 %
Test CRC 0C57D7B1
Copy CRC 0C57D7B1
Track not present in AccurateRip database
Copy OK

Track 8

Filename C:\Various Artists - 111 The Violin\10 Goebel; Early Italian Violin Music\08 Sonata detta la Polaca.wav

Pre-gap length 0:00:03.14

Peak level 69.0 %
Extraction speed 2.1 X
Track quality 100.0 %
Test CRC CA61E7B0
Copy CRC CA61E7B0
Track not present in AccurateRip database
Copy OK

Track 9

Filename C:\Various Artists - 111 The Violin\10 Goebel; Early Italian Violin Music\09 Sonata a tre violini.wav

Pre-gap length 0:00:04.06

Peak level 93.0 %
Extraction speed 2.2 X
Track quality 100.0 %
Test CRC B7F5C7F8
Copy CRC B7F5C7F8
Track not present in AccurateRip database
Copy OK


None of the tracks are present in the AccurateRip database

No errors occurred

End of status report

–– CUETools DB Plugin V2.1.6

[CTDB TOCID: bFC5zxqF9NEzwl_7T9arOwSfarA-] found
Submit result: bFC5zxqF9NEzwl_7T9arOwSfarA- has been confirmed
Track | CTDB Status
1 | (3/3) Accurately ripped
2 | (3/3) Accurately ripped
3 | (3/3) Accurately ripped
4 | (3/3) Accurately ripped
5 | (3/3) Accurately ripped
6 | (3/3) Accurately ripped
7 | (3/3) Accurately ripped
8 | (3/3) Accurately ripped
9 | (3/3) Accurately ripped


==== Log checksum CAF893D0C347D07E07412D89D7ECCC1CA0F47A24256FE0167CD36760F6FBF3B7 ====


all 42 log files included…

Thanks to original ripper.