Tags
Language
Tags

VA - 75 Jahre Donaueschinger Musiktage (1921-1996) (1996) (12 CDs Box Set) REPOST

Posted By: murena
VA - 75 Jahre Donaueschinger Musiktage (1921-1996) (1996) (12 CDs Box Set) REPOST

VA - 75 Jahre Donaueschinger Musiktage (1921-1996) (1996) (12 CDs Box Set)
EAC Rip | APE (Image+.cue, log) | 12CD, 15:04:39 min | 3,3 Gb | Scans->32 mb
Genre: Classical / Label: Col Legno

75 Jahre Donaueschinger Musiktage (1921-1996) - this interesting and amazing Box Set offers to meet with the most celebrated masters and composers in the history of music and get acquainted with their creativity.

Since 1990, col legno has documented the most important works of each year’s Donaueschingen festival on CD, most recently, for the spatial compositions, on SACD as well. Taken together with the Darmstadt box, this twelve-CD set, with important recordings from the years 1921 to 1996, represents an unparalleled treasure trove for music of the century. In addition, there is no overlap between the box set and the annual documentations of the DMT.

Tracklist:

CD01:
01. Paul Hindemith - Streichquartett, Op.16 - 1. Satz
02. Streichquartett, Op.16 - 2. Satz
03. Streichquartett, Op.16 - 3. Satz
04. Igor Stravinsky - Sonate F?r Klavier Nr. 2 - 1. Satz
05. Sonate F?r Klavier Nr. 2 - 2. Satz Adagietto
06. Sonate F?r Klavier Nr. 2 - 3. Satz
07. Ernst Krenek - Drei Lustige M?rsche F?r Blasorchester Op. 34 - 1. Marsch
08. Drei Lustige M?rsche F?r Blasorchester Op. 34 - 2. Marsch
09. Drei Lustige M?rsche F?r Blasorchester Op. 34 - 3. Marsch
10. Paul Hindemith - Lindberghflug
11. Hans Haass - Capriccio, Fuge Und Intermezzo F?r Mechanisches Klavier

CD02:
01. Arnold Schonberg - Serenade Op. 24 Fur Klarinette und Orchester 1. Marsch
02. Arnold Schonberg - Serenade Op. 24 Fur Klarinette und Orchester 2. Menuett
03. Arnold Schonberg - Serenade Op. 24 Fur Klarinette und Orchester 3. Variationen
04. Arnold Schonberg - Serenade Op. 24 Fur Klarinette und Orchester 4. Sonett Von Petrarca
05. Arnold Schonberg - Serenade Op. 24 Fur Klarinette und Orchester 5. Tanzscene
06. Arnold Schonberg - Serenade Op. 24 Fur Klarinette und Orchester 6. Lied (Ohne Worte)
07. Arnold Schonberg - Serenade Op. 24 Fur Klarinette und Orchester 7. Finale
08. Alban Berg - Lyrische Suite, 1st Satz
09. Alban Berg - Lyrische Suite, 2nd Satz
10. Alban Berg - Lyrische Suite, 3rd Satz
11. Alban Berg - Lyrische Suite, 4th Satz
12. Alban Berg - Lyrische Suite, 5th Satz
13. Alban Berg - Lyrische Suite, 6th Satz
14. Roman Haubenstock-Ramati - Credentials Or Think, Think Lucky

CD03:
1. John Cage - 12'55.6078 for two pianists (Prepared piano)
2. Alois Haba - Streichquartett Nr. 2 im Vierteltonsystem op.12 - 1. Andante - Allegretto
3. Streichquartett Nr.2 im Vierteltonsystem op. 12 - 2. Allegro scherzando
4. Dieter Schnebel - Diapason, Kanon ? 13 fur ungleichartige Instrumentalgruppen
5. Paul-Heinz Dittrich - Areae Sonantes fur instrumentale und vokale Gruppen
6. Friedrich Cerha - Spiegel II fur 55 Streicher

CD04:
1. Berio - Sinfonia fur acht Stimmen und Orchester: 1. Satz
2. Berio - Sinfonia fur acht Stimmen und Orchester: 2. Satz
3. Berio - Sinfonia fur acht Stimmen und Orchester: 3.-4. Satz
4. Berio - Sinfonia fur acht Stimmen und Orchester: 5. Satz
5. Liebermann - Concerto for Jazzband and Symphonic Orchestra
6. Halffter - Planto por las victimas de la violencia
7. Stravinski - Epitaphium fur das Grabmal des Prinzen Max Egon zu F?rstenberg

CD05:
1. Henri Pousseur - Quintette ? la memoire d'Anton Webern
2. Mauricio Kagel - Zwei-Mann-Orchester
3. Rolf Riehm - O Daddy fur Orchester und Tonband

CD06:
1. Brian Ferneyhough - Time and Motion Study III
2. Mathias Spahlinger - Und als wir (fur 54 Streicher)
3. Hanz Zender - Muji no Kyo
4. Hanspeter Kyburz - Cells
5. Pierre Boulez - Tombeau ? la memoire du Prince Max Egon zu Furstenberg

CD07:
1. Iannis Xenakis - Ata
2. Jorg Herchet - Komposition fur Posaune, Bariton und Orchester
3. Vinko Globokar - aus: Laboratorium 1973 fur 11 Spieler
4. Gyorgy Ligeti - Lontano

CD08:
01. Pierre Schaeffer / Pierre Henry - Orphee 53 - Spectacle lyrique 1. Prolog
02. Premier air d'Orphee
03. Premier recitativ d'Orphee
04. Les monstres
05. Parade d'Eurydice
06. Debat d'Orphee
07. Rupture finale
08. Luigi Nono - Post-Prae-Ludium per Donau
09. Micha?l Levinas - Par-de l?
10. Younghi Pagh-Paan - NIM
11. Anton Webern - Sechs Bagatellen fur Streichquartett op.9

CD09:
1. Karl Amadeus Hartmann - Adagio (2. Sinfonie)
2. Perre Boulez - Polyphonie X
3. Luigi Nono - Due Espressioni
4. Iannis Xenakis - Metastaseis
5. Krysztof Penderecki - Anaklasis
6. Gyorgy Ligeti - Atmosph?res

CD10:
1. Pierre Boulez - Poesie pour pouvoir
2. Pierre Boulez - Structures pour deux pianos, deuxi?me livre, Chapitre I
3. Chapitre II, Version 1
4. Chapitre II, Version 2
5. Karlheinz Stockhausen - Punkte

CD11:
1. Igor Stravinsky - In memoriam Dylan Thomas
2. Bernd Alois Zimmermann - Sonate fur Viola solo
3. Heinz Holliger - Pneuma
4. Helmut Lachenmann - Schwankungen am Rand
5. Andreas Raseghi - Kammerquartett, 1. Non troppo vivace
6. Kammerquartett, 2. With infinite passion and expression, Rubatissimo
7. Kammerquartett, 3. Molto lento

CD12:
1. Olivier Messiaen - Reveil des oiseaux
2. Elliott Carter - Oboenkonzert
3. Wolfgang Rihm - Frau: Stimme
4. Johannes Kalitzke - Nachtschleife

cd1
Exact Audio Copy V0.99 prebeta 4 from 23. January 2008

EAC extraction logfile from 10. June 2011, 16:20

Diverse / 75 Jahre Donaueschinger Musiktage 1921-1996 (Disc 1)

Used drive : TSSTcorpCDDVDW SE-S204N Adapter: 2 ID: 0

Read mode : Secure
Utilize accurate stream : Yes
Defeat audio cache : Yes
Make use of C2 pointers : No

Read offset correction : 6
Overread into Lead-In and Lead-Out : No
Fill up missing offset samples with silence : Yes
Delete leading and trailing silent blocks : No
Null samples used in CRC calculations : Yes
Used interface : Native Win32 interface for Win NT & 2000

Used output format : Internal WAV Routines
Sample format : 44.100 Hz; 16 Bit; Stereo

TOC of the extracted CD

Track | Start | Length | Start sector | End sector
––––––––––––––––––––––––––––-
1 | 0:00.00 | 10:29.62 | 0 | 47236
2 | 10:29.62 | 12:44.00 | 47237 | 104536
3 | 23:13.62 | 7:32.00 | 104537 | 138436
4 | 30:45.62 | 3:05.00 | 138437 | 152311
5 | 33:50.62 | 5:07.00 | 152312 | 175336
6 | 38:57.62 | 2:57.63 | 175337 | 188674
7 | 41:55.50 | 1:56.12 | 188675 | 197386
8 | 43:51.62 | 2:05.00 | 197387 | 206761
9 | 45:56.62 | 2:29.63 | 206762 | 217999
10 | 48:26.50 | 19:02.50 | 218000 | 303699
11 | 67:29.25 | 8:01.50 | 303700 | 339824

Range status and errors

Selected range

Filename C:\avaxhome\Donaueschinger Musiktage 1921-1996 (Disc 1).wav

Peak level 64.7 %
Range quality 99.9 %
Copy CRC ABAE4504
Copy OK

No errors occurred

AccurateRip summary

Track 1 not present in database
Track 2 not present in database
Track 3 not present in database
Track 4 not present in database
Track 5 not present in database
Track 6 not present in database
Track 7 not present in database
Track 8 not present in database
Track 9 not present in database
Track 10 not present in database
Track 11 not present in database

None of the tracks are present in the AccurateRip database

End of status report


cd2
Exact Audio Copy V0.99 prebeta 4 from 23. January 2008

EAC extraction logfile from 10. June 2011, 16:36

Diverse / 75 Jahre Donaueschinger Musiktage 1921-1996 (Disc 2)

Used drive : TSSTcorpCDDVDW SE-S204N Adapter: 2 ID: 0

Read mode : Secure
Utilize accurate stream : Yes
Defeat audio cache : Yes
Make use of C2 pointers : No

Read offset correction : 6
Overread into Lead-In and Lead-Out : No
Fill up missing offset samples with silence : Yes
Delete leading and trailing silent blocks : No
Null samples used in CRC calculations : Yes
Used interface : Native Win32 interface for Win NT & 2000

Used output format : Internal WAV Routines
Sample format : 44.100 Hz; 16 Bit; Stereo

TOC of the extracted CD

Track | Start | Length | Start sector | End sector
––––––––––––––––––––––––––––-
1 | 0:00.00 | 4:32.12 | 0 | 20411
2 | 4:32.12 | 7:34.50 | 20412 | 54511
3 | 12:06.62 | 4:22.50 | 54512 | 74211
4 | 16:29.37 | 3:33.00 | 74212 | 90186
5 | 20:02.37 | 7:54.25 | 90187 | 125761
6 | 27:56.62 | 2:29.50 | 125762 | 136986
7 | 30:26.37 | 5:33.25 | 136987 | 161986
8 | 35:59.62 | 3:01.00 | 161987 | 175561
9 | 39:00.62 | 5:51.00 | 175562 | 201886
10 | 44:51.62 | 3:30.25 | 201887 | 217661
11 | 48:22.12 | 5:15.50 | 217662 | 241336
12 | 53:37.62 | 4:39.63 | 241337 | 262324
13 | 58:17.50 | 6:02.12 | 262325 | 289486
14 | 64:19.62 | 13:01.13 | 289487 | 348074

Range status and errors

Selected range

Filename C:\avaxhome\Donaueschinger Musiktage 1921-1996 (Disc 2).wav

Peak level 88.5 %
Range quality 100.0 %
Copy CRC 170A2E96
Copy OK

No errors occurred

AccurateRip summary

Track 1 not present in database
Track 2 not present in database
Track 3 not present in database
Track 4 not present in database
Track 5 not present in database
Track 6 not present in database
Track 7 not present in database
Track 8 not present in database
Track 9 not present in database
Track 10 not present in database
Track 11 not present in database
Track 12 not present in database
Track 13 not present in database
Track 14 not present in database

None of the tracks are present in the AccurateRip database

End of status report


cd3
Exact Audio Copy V0.99 prebeta 4 from 23. January 2008

EAC extraction logfile from 13. June 2011, 14:44

Diverse / 75 Jahre Donaueschinger Musiktage 1921-1996 (Disc 3)

Used drive : TSSTcorpCDDVDW SE-S204N Adapter: 2 ID: 0

Read mode : Secure
Utilize accurate stream : Yes
Defeat audio cache : Yes
Make use of C2 pointers : No

Read offset correction : 6
Overread into Lead-In and Lead-Out : No
Fill up missing offset samples with silence : Yes
Delete leading and trailing silent blocks : No
Null samples used in CRC calculations : Yes
Used interface : Native Win32 interface for Win NT & 2000

Used output format : Internal WAV Routines
Sample format : 44.100 Hz; 16 Bit; Stereo

TOC of the extracted CD

Track | Start | Length | Start sector | End sector
––––––––––––––––––––––––––––-
1 | 0:00.00 | 13:20.62 | 0 | 60061
2 | 13:20.62 | 11:15.00 | 60062 | 110686
3 | 24:35.62 | 5:55.00 | 110687 | 137311
4 | 30:30.62 | 19:04.00 | 137312 | 223111
5 | 49:34.62 | 16:56.00 | 223112 | 299311
6 | 66:30.62 | 11:27.13 | 299312 | 350849

Range status and errors

Selected range

Filename C:\avaxhome\Donaueschinger Musiktage 1921-1996 (Disc 3).wav

Peak level 76.4 %
Range quality 100.0 %
Copy CRC 97274177
Copy OK

No errors occurred

AccurateRip summary

Track 1 not present in database
Track 2 not present in database
Track 3 not present in database
Track 4 not present in database
Track 5 not present in database
Track 6 not present in database

None of the tracks are present in the AccurateRip database

End of status report


cd4
Exact Audio Copy V0.99 prebeta 4 from 23. January 2008

EAC extraction logfile from 13. June 2011, 14:55

Donaueschinger Musiktage / 75 Jahre 1921 - 1996

Used drive : TSSTcorpCDDVDW SE-S204N Adapter: 2 ID: 0

Read mode : Secure
Utilize accurate stream : Yes
Defeat audio cache : Yes
Make use of C2 pointers : No

Read offset correction : 6
Overread into Lead-In and Lead-Out : No
Fill up missing offset samples with silence : Yes
Delete leading and trailing silent blocks : No
Null samples used in CRC calculations : Yes
Used interface : Native Win32 interface for Win NT & 2000

Used output format : Internal WAV Routines
Sample format : 44.100 Hz; 16 Bit; Stereo

TOC of the extracted CD

Track | Start | Length | Start sector | End sector
––––––––––––––––––––––––––––-
1 | 0:00.00 | 5:51.62 | 0 | 26386
2 | 5:51.62 | 5:06.00 | 26387 | 49336
3 | 10:57.62 | 14:44.00 | 49337 | 115636
4 | 25:41.62 | 7:08.00 | 115637 | 147736
5 | 32:49.62 | 17:01.00 | 147737 | 224311
6 | 49:50.62 | 21:22.00 | 224312 | 320461
7 | 71:12.62 | 1:23.13 | 320462 | 326699

Range status and errors

Selected range

Filename C:\avaxhome\Donaueschinger Musiktage 1921-1996 (Disc 4).wav

Peak level 93.3 %
Range quality 99.9 %
Copy CRC E9575042
Copy OK

No errors occurred

AccurateRip summary

Track 1 not present in database
Track 2 not present in database
Track 3 not present in database
Track 4 not present in database
Track 5 not present in database
Track 6 not present in database
Track 7 not present in database

None of the tracks are present in the AccurateRip database

End of status report


cd5
Exact Audio Copy V0.99 prebeta 4 from 23. January 2008

EAC extraction logfile from 13. June 2011, 15:06

Diverse / 75 Jahre Donaueschinger Musiktage 1921-1996 (Disc 5)

Used drive : TSSTcorpCDDVDW SE-S204N Adapter: 2 ID: 0

Read mode : Secure
Utilize accurate stream : Yes
Defeat audio cache : Yes
Make use of C2 pointers : No

Read offset correction : 6
Overread into Lead-In and Lead-Out : No
Fill up missing offset samples with silence : Yes
Delete leading and trailing silent blocks : No
Null samples used in CRC calculations : Yes
Used interface : Native Win32 interface for Win NT & 2000

Used output format : Internal WAV Routines
Sample format : 44.100 Hz; 16 Bit; Stereo

TOC of the extracted CD

Track | Start | Length | Start sector | End sector
––––––––––––––––––––––––––––-
1 | 0:00.00 | 13:00.50 | 0 | 58549
2 | 13:00.50 | 47:23.12 | 58550 | 271786
3 | 60:23.62 | 16:24.13 | 271787 | 345599

Range status and errors

Selected range

Filename C:\avaxhome\Donaueschinger Musiktage 1921-1996 (Disc 5).wav

Peak level 79.1 %
Range quality 100.0 %
Copy CRC 654A60D1
Copy OK

No errors occurred

AccurateRip summary

Track 1 not present in database
Track 2 not present in database
Track 3 not present in database

None of the tracks are present in the AccurateRip database

End of status report

––––––––––––––––––––––––––––––

Exact Audio Copy V0.99 prebeta 4 from 23. January 2008

EAC extraction logfile from 13. June 2011, 15:11

Diverse / 75 Jahre Donaueschinger Musiktage 1921-1996 (Disc 5)

Used drive : TSSTcorpCDDVDW SE-S204N Adapter: 2 ID: 0

Read mode : Secure
Utilize accurate stream : Yes
Defeat audio cache : Yes
Make use of C2 pointers : No

Read offset correction : 6
Overread into Lead-In and Lead-Out : No
Fill up missing offset samples with silence : Yes
Delete leading and trailing silent blocks : No
Null samples used in CRC calculations : Yes
Used interface : Native Win32 interface for Win NT & 2000

Used output format : Internal WAV Routines
Sample format : 44.100 Hz; 16 Bit; Stereo

TOC of the extracted CD

Track | Start | Length | Start sector | End sector
––––––––––––––––––––––––––––-
1 | 0:00.00 | 13:00.50 | 0 | 58549
2 | 13:00.50 | 47:23.12 | 58550 | 271786
3 | 60:23.62 | 16:24.13 | 271787 | 345599

Range status and errors

Selected range

Filename C:\avaxhome\Donaueschinger Musiktage 1921-1996 (Disc 5).wav

Peak level 79.1 %
Range quality 100.0 %
Copy CRC 654A60D1
Copy OK

No errors occurred

AccurateRip summary

Track 1 not present in database
Track 2 not present in database
Track 3 not present in database

None of the tracks are present in the AccurateRip database

End of status report


cd6
Exact Audio Copy V0.99 prebeta 4 from 23. January 2008

EAC extraction logfile from 13. June 2011, 15:48

Diverse / 75 Jahre Donaueschinger Musiktage 1921-1996 (Disc 6)

Used drive : TSSTcorpCDDVDW SE-S204N Adapter: 2 ID: 0

Read mode : Secure
Utilize accurate stream : Yes
Defeat audio cache : Yes
Make use of C2 pointers : No

Read offset correction : 6
Overread into Lead-In and Lead-Out : No
Fill up missing offset samples with silence : Yes
Delete leading and trailing silent blocks : No
Null samples used in CRC calculations : Yes
Used interface : Native Win32 interface for Win NT & 2000

Used output format : Internal WAV Routines
Sample format : 44.100 Hz; 16 Bit; Stereo

TOC of the extracted CD

Track | Start | Length | Start sector | End sector
––––––––––––––––––––––––––––-
1 | 0:00.00 | 22:40.37 | 0 | 102036
2 | 22:40.37 | 16:20.25 | 102037 | 175561
3 | 39:00.62 | 18:25.00 | 175562 | 258436
4 | 57:25.62 | 13:43.13 | 258437 | 320174
5 | 71:09.00 | 7:19.00 | 320175 | 353099

Range status and errors

Selected range

Filename C:\avaxhome\Donaueschinger Musiktage 1921-1996 (Disc 6).wav

Peak level 87.6 %
Range quality 99.9 %
Copy CRC B43E67B9
Copy OK

No errors occurred

AccurateRip summary

Track 1 not present in database
Track 2 not present in database
Track 3 not present in database
Track 4 not present in database
Track 5 not present in database

None of the tracks are present in the AccurateRip database

End of status report


cd7
Exact Audio Copy V0.99 prebeta 4 from 23. January 2008

EAC extraction logfile from 13. June 2011, 15:37

Diverse / 75 Jahre Donaueschinger Musiktage 1921-1996 (Disc 7)

Used drive : TSSTcorpCDDVDW SE-S204N Adapter: 2 ID: 0

Read mode : Secure
Utilize accurate stream : Yes
Defeat audio cache : Yes
Make use of C2 pointers : No

Read offset correction : 6
Overread into Lead-In and Lead-Out : No
Fill up missing offset samples with silence : Yes
Delete leading and trailing silent blocks : No
Null samples used in CRC calculations : Yes
Used interface : Native Win32 interface for Win NT & 2000

Used output format : Internal WAV Routines
Sample format : 44.100 Hz; 16 Bit; Stereo

TOC of the extracted CD

Track | Start | Length | Start sector | End sector
––––––––––––––––––––––––––––-
1 | 0:00.00 | 15:10.62 | 0 | 68311
2 | 15:10.62 | 29:45.00 | 68312 | 202186
3 | 44:55.62 | 22:05.25 | 202187 | 301586
4 | 67:01.12 | 10:32.13 | 301587 | 348999

Range status and errors

Selected range

Filename C:\avaxhome\Donaueschinger Musiktage 1921-1996 (Disc 7).wav

Peak level 100.0 %
Range quality 100.0 %
Copy CRC AB074FCB
Copy OK

No errors occurred

AccurateRip summary

Track 1 not present in database
Track 2 not present in database
Track 3 not present in database
Track 4 not present in database

None of the tracks are present in the AccurateRip database

End of status report


cd8
Exact Audio Copy V0.99 prebeta 4 from 23. January 2008

EAC extraction logfile from 13. June 2011, 16:20

Diverse / 75 Jahre Donaueschinger Musiktage 1921-1996 (Disc 8)

Used drive : TSSTcorpCDDVDW SE-S204N Adapter: 2 ID: 0

Read mode : Secure
Utilize accurate stream : Yes
Defeat audio cache : Yes
Make use of C2 pointers : No

Read offset correction : 6
Overread into Lead-In and Lead-Out : No
Fill up missing offset samples with silence : Yes
Delete leading and trailing silent blocks : No
Null samples used in CRC calculations : Yes
Used interface : Native Win32 interface for Win NT & 2000

Used output format : Internal WAV Routines
Sample format : 44.100 Hz; 16 Bit; Stereo

TOC of the extracted CD

Track | Start | Length | Start sector | End sector
––––––––––––––––––––––––––––-
1 | 0:00.00 | 1:15.62 | 0 | 5686
2 | 1:15.62 | 2:01.00 | 5687 | 14761
3 | 3:16.62 | 3:20.00 | 14762 | 29761
4 | 6:36.62 | 3:25.00 | 29762 | 45136
5 | 10:01.62 | 3:23.25 | 45137 | 60386
6 | 13:25.12 | 5:15.38 | 60387 | 84049
7 | 18:40.50 | 1:58.12 | 84050 | 92911
8 | 20:38.62 | 13:47.00 | 92912 | 154936
9 | 34:25.62 | 21:05.00 | 154937 | 249811
10 | 55:30.62 | 15:15.00 | 249812 | 318436
11 | 70:45.62 | 4:33.13 | 318437 | 338924

Range status and errors

Selected range

Filename C:\avaxhome\Donaueschinger Musiktage 1921-1996 (Disc 8).wav

Peak level 75.4 %
Range quality 100.0 %
Copy CRC 46118F9B
Copy OK

No errors occurred

AccurateRip summary

Track 1 not present in database
Track 2 not present in database
Track 3 not present in database
Track 4 not present in database
Track 5 not present in database
Track 6 not present in database
Track 7 not present in database
Track 8 not present in database
Track 9 not present in database
Track 10 not present in database
Track 11 not present in database

None of the tracks are present in the AccurateRip database

End of status report


cd9
Exact Audio Copy V0.99 prebeta 4 from 23. January 2008

EAC extraction logfile from 13. June 2011, 16:47

Diverse / 40 Jahre Donaueschinger Musiktage 1921-1996 (Disc 9)

Used drive : TSSTcorpCDDVDW SE-S204N Adapter: 2 ID: 0

Read mode : Secure
Utilize accurate stream : Yes
Defeat audio cache : Yes
Make use of C2 pointers : No

Read offset correction : 6
Overread into Lead-In and Lead-Out : No
Fill up missing offset samples with silence : Yes
Delete leading and trailing silent blocks : No
Null samples used in CRC calculations : Yes
Used interface : Native Win32 interface for Win NT & 2000

Used output format : Internal WAV Routines
Sample format : 44.100 Hz; 16 Bit; Stereo

TOC of the extracted CD

Track | Start | Length | Start sector | End sector
––––––––––––––––––––––––––––-
1 | 0:00.00 | 15:42.37 | 0 | 70686
2 | 15:42.37 | 16:49.25 | 70687 | 146386
3 | 32:31.62 | 12:15.00 | 146387 | 201511
4 | 44:46.62 | 8:40.00 | 201512 | 240511
5 | 53:26.62 | 8:40.50 | 240512 | 279561
6 | 62:07.37 | 8:35.38 | 279562 | 318224

Range status and errors

Selected range

Filename C:\avaxhome\Donaueschinger Musiktage 1921-1996 (Disc 9).wav

Peak level 99.6 %
Range quality 100.0 %
Copy CRC FAEDA083
Copy OK

No errors occurred

AccurateRip summary

Track 1 not present in database
Track 2 not present in database
Track 3 not present in database
Track 4 not present in database
Track 5 not present in database
Track 6 not present in database

None of the tracks are present in the AccurateRip database

End of status report


cd10
Exact Audio Copy V0.99 prebeta 4 from 23. January 2008

EAC extraction logfile from 13. June 2011, 16:58

Diverse / 75 Jahre Donaueschinger Musiktage 1950-1990 (Disc 10)

Used drive : TSSTcorpCDDVDW SE-S204N Adapter: 2 ID: 0

Read mode : Secure
Utilize accurate stream : Yes
Defeat audio cache : Yes
Make use of C2 pointers : No

Read offset correction : 6
Overread into Lead-In and Lead-Out : No
Fill up missing offset samples with silence : Yes
Delete leading and trailing silent blocks : No
Null samples used in CRC calculations : Yes
Used interface : Native Win32 interface for Win NT & 2000

Used output format : Internal WAV Routines
Sample format : 44.100 Hz; 16 Bit; Stereo

TOC of the extracted CD

Track | Start | Length | Start sector | End sector
––––––––––––––––––––––––––––-
1 | 0:00.00 | 18:51.62 | 0 | 84886
2 | 18:51.62 | 9:00.00 | 84887 | 125386
3 | 27:51.62 | 13:15.00 | 125387 | 185011
4 | 41:06.62 | 13:20.00 | 185012 | 245011
5 | 54:26.62 | 18:53.13 | 245012 | 329999

Range status and errors

Selected range

Filename C:\avaxhome\Donaueschinger Musiktage 1921-1996 (Disc 10).wav

Peak level 94.8 %
Range quality 100.0 %
Copy CRC A80CCAC8
Copy OK

No errors occurred

AccurateRip summary

Track 1 not present in database
Track 2 not present in database
Track 3 not present in database
Track 4 not present in database
Track 5 not present in database

None of the tracks are present in the AccurateRip database

End of status report


cd11
Exact Audio Copy V0.99 prebeta 4 from 23. January 2008

EAC extraction logfile from 13. June 2011, 17:11

Diverse / 75 Jahre Donaueschinger Musiktage 1921-1996 (Disc 11)

Used drive : TSSTcorpCDDVDW SE-S204N Adapter: 2 ID: 0

Read mode : Secure
Utilize accurate stream : Yes
Defeat audio cache : Yes
Make use of C2 pointers : No

Read offset correction : 6
Overread into Lead-In and Lead-Out : No
Fill up missing offset samples with silence : Yes
Delete leading and trailing silent blocks : No
Null samples used in CRC calculations : Yes
Used interface : Native Win32 interface for Win NT & 2000

Used output format : Internal WAV Routines
Sample format : 44.100 Hz; 16 Bit; Stereo

TOC of the extracted CD

Track | Start | Length | Start sector | End sector
––––––––––––––––––––––––––––-
1 | 0:00.00 | 7:51.62 | 0 | 35386
2 | 7:51.62 | 6:10.00 | 35387 | 63136
3 | 14:01.62 | 16:05.00 | 63137 | 135511
4 | 30:06.62 | 32:45.00 | 135512 | 282886
5 | 62:51.62 | 3:30.00 | 282887 | 298636
6 | 66:21.62 | 2:34.00 | 298637 | 310186
7 | 68:55.62 | 3:19.13 | 310187 | 325124

Range status and errors

Selected range

Filename C:\avaxhome\Donaueschinger Musiktage 1921-1996 (Disc 11).wav

Peak level 72.5 %
Range quality 100.0 %
Copy CRC A3C79717
Copy OK

No errors occurred

AccurateRip summary

Track 1 not present in database
Track 2 not present in database
Track 3 not present in database
Track 4 not present in database
Track 5 not present in database
Track 6 not present in database
Track 7 not present in database

None of the tracks are present in the AccurateRip database

End of status report
[свернуть]
cd12
Exact Audio Copy V0.99 prebeta 4 from 23. January 2008

EAC extraction logfile from 13. June 2011, 17:33

Diverse / 75 Jahre Donaueschinger Musiktage 1921-1996 (Disc 12)

Used drive : TSSTcorpCDDVDW SE-S204N Adapter: 2 ID: 0

Read mode : Secure
Utilize accurate stream : Yes
Defeat audio cache : Yes
Make use of C2 pointers : No

Read offset correction : 6
Overread into Lead-In and Lead-Out : No
Fill up missing offset samples with silence : Yes
Delete leading and trailing silent blocks : No
Null samples used in CRC calculations : Yes
Used interface : Native Win32 interface for Win NT & 2000

Used output format : Internal WAV Routines
Sample format : 44.100 Hz; 16 Bit; Stereo

TOC of the extracted CD

Track | Start | Length | Start sector | End sector
––––––––––––––––––––––––––––-
1 | 0:00.00 | 21:26.62 | 0 | 96511
2 | 21:26.62 | 19:00.00 | 96512 | 182011
3 | 40:26.62 | 20:14.00 | 182012 | 273061
4 | 60:40.62 | 15:17.13 | 273062 | 341849

Range status and errors

Selected range

Filename C:\avaxhome\Donaueschinger Musiktage 1921-1996 (Disc 12).wav

Peak level 95.0 %
Range quality 100.0 %
Copy CRC 773A0775
Copy OK

No errors occurred

AccurateRip summary

Track 1 not present in database
Track 2 not present in database
Track 3 not present in database
Track 4 not present in database

None of the tracks are present in the AccurateRip database

End of status report


Thanks to the original ripper.

**Follow My Music Blog**