Subcategories

VA - Cabaret: Original Sound Track Recording (1972) {1996, Remastered}

Posted By: popsakov
VA - Cabaret: Original Sound Track Recording (1972) {1996, Remastered}

VA - Cabaret: Original Sound Track Recording (1972) {1996, Remastered}
EAC Rip | FLAC (Img) + Cue + Log ~ 237 Mb | MP3 CBR320 ~ 92 Mb
Full Scans ~ 58 Mb | 00:38:28 | RAR 5% Recovery
Soundtrack, Musical | Hip-O Records #HIPD-40027

Even though he came from the theater himself, Bob Fosse, when he came to make a film of Harold Prince's musical Cabaret, did what most movie directors do, taking the 15-song score and cutting two-thirds of it to leave five songs – "Wilkommen," "Two Ladies," "Tomorrow Belongs to Me," "If You Could See Her," and "Cabaret." (In addition, "Sitting Pretty" was performed instrumentally and "Married" in German.) He then allowed the show's songwriters, John Kander and Fred Ebb, to add material to emphasize the film's two musical stars, "Mein Herr" and "Maybe This Time" for Liza Minnelli and "Money, Money" for Minnelli and Joel Grey. ("Maybe This Time" was a Kander-Ebb song Minnelli had been singing since 1964.) The film was even more successful than the show, and the soundtrack album went gold, outselling the original Broadway cast album. It is not the record you want to buy to get the complete score, of course, and even at its 38-plus-minute running time it's padded. But it contains some definitive Minnelli performances, particularly her rendition of the title song. In the show and film, the song's upbeat, devil-may-care mood is in stark contrast to the downbeat conclusion of the plot, which finds lead character Sally Bowles stranded in Nazi Germany. Coming from Minnelli, there is an added subtext, as the performance can be read as a tribute to her mother, Judy Garland. And Grey is equally impressive, particularly in "Wilkommen" and "If You Could See Her." Cabaret won Academy Awards for Minnelli and Grey, but lost the Best Picture award, and a similar judgment can be made about the soundtrack album. Their performances are outstanding, but the album as a whole is a bit skimpy. Subsequent stage productions tended to incorporate the new film songs. (The 1996 CD reissue re-sequences the songs.)

~ William Ruhlmann, All Music
VA - Cabaret: Original Sound Track Recording (1972) {1996, Remastered}


***************

VA - Cabaret: Original Sound Track Recording (1972) {1996, Remastered}

VA - Cabaret: Original Sound Track Recording (1972) {1996, Remastered}

Track List:

01. Joel Grey / Wilkommen [0:04:29.60]
02. Liza Minnelli / Mein Herr [0:03:36.15]
03. Liza Minnelli / Maybe This Time [0:03:11.20]
04. Liza Minnelli & Joel Grey / Money, Money [0:03:04.60]
05. Joel Grey / Two Ladies [0:03:11.72]
06. Greta Keller / Sitting Pretty [0:02:27.00]
07. Mark Lambert & the Nazi Youth / Tomorrow Belongs To Me [0:03:06.23]
08. Joel Grey / Tiller Girls [0:01:40.70]
09. Greta Keller / Heiraten (Married) [0:03:34.60]
10. Joel Grey / If You Could See Her [0:03:54.45]
11. Liza Minnelli / Cabaret [0:03:34.22]
12. John Kander & Fred Ebb / Finale [0:02:28.18]

Exact Audio Copy V1.3 from 2. September 2016

EAC extraction logfile from 14. October 2016, 7:05

Various / Cabaret Original Soundtrack

Used drive : HL-DT-STDVDRAM GH24NSC0 Adapter: 1 ID: 0

Read mode : Secure
Utilize accurate stream : Yes
Defeat audio cache : Yes
Make use of C2 pointers : No

Read offset correction : 6
Overread into Lead-In and Lead-Out : No
Fill up missing offset samples with silence : Yes
Delete leading and trailing silent blocks : No
Null samples used in CRC calculations : Yes
Used interface : Native Win32 interface for Win NT & 2000

Used output format : Internal WAV Routines
Sample format : 44.100 Hz; 16 Bit; Stereo


TOC of the extracted CD

Track | Start | Length | Start sector | End sector
––––––––––––––––––––––––––––-
1 | 0:00.00 | 4:29.60 | 0 | 20234
2 | 4:29.60 | 3:36.15 | 20235 | 36449
3 | 8:06.00 | 3:11.20 | 36450 | 50794
4 | 11:17.20 | 3:04.60 | 50795 | 64654
5 | 14:22.05 | 3:11.72 | 64655 | 79051
6 | 17:34.02 | 2:27.00 | 79052 | 90076
7 | 20:01.02 | 3:06.23 | 90077 | 104049
8 | 23:07.25 | 1:40.70 | 104050 | 111619
9 | 24:48.20 | 3:34.60 | 111620 | 127729
10 | 28:23.05 | 3:54.45 | 127730 | 145324
11 | 32:17.50 | 3:34.22 | 145325 | 161396
12 | 35:51.72 | 2:28.18 | 161397 | 172514


Range status and errors

Selected range

Filename C:\Music CD\Various - Cabaret Original Soundtrack.wav

Peak level 100.0 %
Extraction speed 6.5 X
Range quality 100.0 %
Test CRC 079D9904
Copy CRC 079D9904
Copy OK

No errors occurred


AccurateRip summary

Track 1 accurately ripped (confidence 12) [F21F3FD4] (AR v2)
Track 2 accurately ripped (confidence 12) [C75843DC] (AR v2)
Track 3 accurately ripped (confidence 12) [FEE00294] (AR v2)
Track 4 accurately ripped (confidence 12) [06BEC8FC] (AR v2)
Track 5 accurately ripped (confidence 12) [23885824] (AR v2)
Track 6 accurately ripped (confidence 12) [06BBABA4] (AR v2)
Track 7 accurately ripped (confidence 12) [32CE2B3B] (AR v2)
Track 8 accurately ripped (confidence 12) [CD12E8DF] (AR v2)
Track 9 accurately ripped (confidence 12) [1ADB5204] (AR v2)
Track 10 accurately ripped (confidence 12) [F4CA5406] (AR v2)
Track 11 accurately ripped (confidence 12) [D28E1714] (AR v2)
Track 12 accurately ripped (confidence 12) [4312D631] (AR v2)

All tracks accurately ripped

End of status report

–– CUETools DB Plugin V2.1.6

[CTDB TOCID: XDIgG5j1IW2H9D.apfkGChUfBWg-] found
Submit result: XDIgG5j1IW2H9D.apfkGChUfBWg- has been confirmed
Track | CTDB Status
1 | (13/34) Accurately ripped, or (18/34) differs in 287 samples @00:00:25-00:00:26, or (2/34) differs in 287 samples @00:00:25-00:00:26
2 | (34/34) Accurately ripped
3 | (34/34) Accurately ripped
4 | (34/34) Accurately ripped
5 | (34/34) Accurately ripped
6 | (34/34) Accurately ripped
7 | (32/34) Accurately ripped, or (2/34) differs in 3 samples @02:27:27
8 | (34/34) Accurately ripped
9 | (34/34) Accurately ripped
10 | (34/34) Accurately ripped
11 | (34/34) Accurately ripped
12 | (33/34) Accurately ripped
If you are sure that your rip contains errors, you can use CUETools to repair it.


==== Log checksum 16B8C9BA4C4730B7F0028F14E2B922AA2E9051BD5B2BEA3E6C9DF3E4796EE47C ====

[CUETools log; Date: 15.10.2016 2:38:00; Version: 2.1.5]
[CTDB TOCID: XDIgG5j1IW2H9D.apfkGChUfBWg-] found.
Track | CTDB Status
1 | (14/35) Accurately ripped, or (2/35) differs in 287 samples @00:00:25-00:00:26
2 | (35/35) Accurately ripped
3 | (35/35) Accurately ripped
4 | (35/35) Accurately ripped
5 | (35/35) Accurately ripped
6 | (35/35) Accurately ripped
7 | (33/35) Accurately ripped, or (2/35) differs in 3 samples @02:27:27
8 | (35/35) Accurately ripped
9 | (35/35) Accurately ripped
10 | (35/35) Accurately ripped
11 | (35/35) Accurately ripped
12 | (34/35) Accurately ripped
[AccurateRip ID: 0011c27d-00a2dd21-ab08fc0c] found.
Track [ CRC | V2 ] Status
01 [6a1d065c|f21f3fd4] (16+12/59) Accurately ripped
02 [07d0ac2a|c75843dc] (19+12/62) Accurately ripped
03 [dc8dc6fb|fee00294] (18+12/61) Accurately ripped
04 [1ad21883|06bec8fc] (17+12/62) Accurately ripped
05 [0d7750be|23885824] (18+12/61) Accurately ripped
06 [749ce374|06bbaba4] (18+12/61) Accurately ripped
07 [7e874c02|32ce2b3b] (18+12/61) Accurately ripped
08 [c7a8f07a|cd12e8df] (18+12/61) Accurately ripped
09 [327646e3|1adb5204] (16+12/59) Accurately ripped
10 [d37b6a46|f4ca5406] (15+12/58) Accurately ripped
11 [d8026422|d28e1714] (15+12/58) Accurately ripped
12 [e2f0f624|4312d631] (16+12/59) Accurately ripped
Offsetted by -2720:
01 [a5b1f5fc] (00/59) No match (V2 was not tested)
02 [190c138a] (00/62) No match (V2 was not tested)
03 [58af67bb] (00/61) No match (V2 was not tested)
04 [be856ec3] (00/62) No match (V2 was not tested)
05 [204c345e] (00/61) No match (V2 was not tested)
06 [8842ced4] (00/61) No match (V2 was not tested)
07 [0de7de82] (00/61) No match (V2 was not tested)
08 [4b68bc5a] (00/61) No match (V2 was not tested)
09 [e1cdf263] (00/59) No match (V2 was not tested)
10 [5035d466] (00/58) No match (V2 was not tested)
11 [04764a82] (00/58) No match (V2 was not tested)
12 [b20efc64] (00/59) No match (V2 was not tested)
Offsetted by -901:
01 [b90cc289] (00/59) No match
02 [cd85f335] (00/62) No match
03 [f278eaa1] (00/61) No match
04 [27724d15] (02/62) Accurately ripped
05 [0a1aa28b] (00/61) No match
06 [e31f0c9f] (00/61) No match
07 [479f4956] (00/61) No match
08 [601a1269] (00/61) No match
09 [8fbe847f] (00/59) No match
10 [5665f707] (00/58) No match
11 [c6bbfba5] (00/58) No match
12 [45f2e836] (00/59) No match
Offsetted by 484:
01 [d497fb58] (00/59) No match (V2 was not tested)
02 [13cec2ce] (04/62) Accurately ripped
03 [b8e9ad03] (04/61) Accurately ripped
04 [49bd1a1b] (04/62) Accurately ripped
05 [f447a53a] (04/61) Accurately ripped
06 [14e19f98] (04/61) Accurately ripped
07 [0dacb372] (04/61) Accurately ripped
08 [575e874e] (04/61) Accurately ripped
09 [86761cb3] (04/59) Accurately ripped
10 [750165b2] (04/58) Accurately ripped
11 [7d469d66] (04/58) Accurately ripped
12 [1ed6e9bc] (04/59) Accurately ripped

Track Peak [ CRC32 ] [W/O NULL] [ LOG ]
– 100,0 [079D9904] [3272E862] CRC32
01 100,0 [1AC911DE] [0E1ABCC9]
02 100,0 [896D106C] [16DDA692]
03 100,0 [988D29CC] [E581C520]
04 98,8 [6926E284] [EA68EC2B]
05 100,0 [FDF8FB44] [52D5EF13]
06 100,0 [D80F5661] [A80E8CBD]
07 100,0 [174EF0CF] [BF2194A9]
08 100,0 [9515A9D7] [52E87629]
09 82,2 [80AFE148] [42F7A36E]
10 100,0 [6F27C9E9] [565A3DFF]
11 100,0 [8717F4B9] [C1639BDE]
12 100,0 [21A61243] [8FFDE926]

VA - Cabaret: Original Sound Track Recording (1972) {1996, Remastered}


All thanks go to edenika

>>> My Blog <<<

DOWNLOAD: