Tags
Language
Tags
April 2024
Su Mo Tu We Th Fr Sa
31 1 2 3 4 5 6
7 8 9 10 11 12 13
14 15 16 17 18 19 20
21 22 23 24 25 26 27
28 29 30 1 2 3 4

VA - Classical Discovery: History of Classical Music (2009) (12 CDs Box Set)

Posted By: murena
VA - Classical Discovery: History of Classical Music (2009) (12 CDs Box Set)

VA - Classical Discovery: History of Classical Music (2009) (12 CDs Box Set)
EAC Rip | FLAC (Image+.cue, log) | 3,8 Gb | Scans->7,8 mb
MP3 320 kbps | 12 CDs, 15:08:50 min | 2,1 Gb
Genre: Classical / Label: Berlin Classics

Classical Discovery offers an ideal package, providing an overview of classical music and its history in an entertaining and easy-to-understand form. In a lavishly presented cloth-bound book, accompanied by 12 CDs with over 900 minutes of playing time, Classical Discovery tells the story of the classics in word, music, and images from its earliest days until modern times. With Classical Discovery, anyone can gain entry to the world of classical music, whether for the first time or to gain new insights and perspectives.

VA - Classical Discovery: History of Classical Music (2009) (12 CDs Box Set)

CDs:
CD01: Early Music - Gregorianische Gesange, Hildegard Von Bingen, Walther Von Der Vogelweide, Dufay, Palestrina, Lasso, Dowland
CD02-03: Baroque - Monteverdi, Schütz, J.S. Bach, Handel, Telemann, Vivaldi, Scarlatti, Rameau
CD04-06: Classical Period - Quantz, Gluck, J.C. Bach, C.P.E. Bach, Haydn, Mozart, Beethoven
CD07-10: Romantic Period - Schubert, Mendelssohn, Chopin, Schumann, Wagner, Brahms, Tchaikovsky, Mahler
CD11-12: Modern Music - Debussy, Schoenberg, Ravel, Berg, Orff, Messiaen, Britten, Gubaidulina

VA - Classical Discovery: History of Classical Music (2009) (12 CDs Box Set)



CD 1: Early Music
01. Gregorianische Gesange - Introitus Misericordia Domini
02. Hildegard Von Bingen - О Spectabilis Viri
03. Zisterzienser Hymnar - Ave Maris Stella
04. Walther Von Der Vogelweide - Unter Der Linden
05. Anonym Aus Bohmen - Caldy Valdy
06. Anonym - Kyrie Rondello
07. G. Dufay - Fragmenta Missarum
08. G. Dufay - Missa "Ave Regina Coelorum"
09. J. Ockeghem - Missa Mi Mi
10. H. Isaac - Missa Carminum
11. L. De Milan - Fantasia
12. G. P. Da Palestrina - Ave Maria A 5 Voci
13. G. P. Da Palestrina - О Magnum Mysterium (Prima Pars)
14. G. P. Da Palestrina - Missa О Magnum Mysterium
15. O. Di Lasso - Prophetiae Sibyllarum
16. C. Negri - Le Gratie D'amore
17. L. Marenzio - Madrigali Spirituali
18. J. Dowland - In Darkness Let Me Dwell
19. J. Dowland - Flow Not So Fast, Ye Fountains
20. L. Allegri - La Notte D'amore
21. T. Morley - Thyris And Milla

CD 2: Baroque
01. H. L. Hassler - Lustgarten Neuer Teutscher
02. C. Monteverdi - Marienvesper
03. S. Scheidt - Concertus Sacri: Concertus V: "Hodie Completi Sunt"
04. J. H. Schein - Fontana D'Israel
05. H. Schutz - Kleine Geistliche Konzerte
06. H. Schutz - Geistliche Chormusik
07. Also Hat Gott Die Welt Geliebt SWV 380
08. H. Schutz - Johannes-Passion SWV 481
09. J. S. Bach - Toccata Und Fuge D-Moll BWV 565
10. J. S. Bach - Gottes Zeit Ist Die Allerbeste Zeit BWV 106 (Actus Tragicus)
11. M. Marais - Prelude Fur Viola Da Gamba Und Cembalo
12. J. S. Bach - Orgelkonzert G-Dur BWV 592
13. G. F. Handel - Wassermusik Suite Nr. 2 D-Dur HWV 349
14. J. S. Bach - Brandenburgisches Konzert Nr. 2 F-Dur BWV 1047
15. J. S. Bach - Violinkonzert A-Moll BWV 1041
16. J. S. Bach - Partita Nr. 2 D-Moll In D Minor BWV

CD 3: Baroque
01. J. S. Bach - Cellosuke Nr. 1 G-Dur BWV 1007
02. J. S. Bach - Johannes-Passion BWV 245
03. G. P. Telemann - Triosonate C-Moll Fur Flote, Viola Da Gamba Und В. C., Trompetenkonzert D-Dur TWV 54:D3
04. A. Vivaldi - Die Vier Jahreszeiten
05. Konzert Nr. 1 RV 269 "Fruhling"
06. J. S. Bach - Kantate Also Hat Gott Die Welt Geliebt BWV 68
07. J. S. Bach - Matthaus-Passion BWV 244
08. A. Vivaldi - Flotenkonzert F-Dur "La Tempesta Di Mare" RV 433 Op. 10 Nr. 1
09. F. Couperin - Menuets Croises
10. D. Scarlatti - Sonate D-Dur L.164/K.491
11. J. P. Rameau - La Poule
12. J. S. Bach - Weihnachts-Oratorium BWV 248
13. G. P. Telemann - Kanarienvogel-Kantate TWV 20:37
14. G. F. Handel - Israel In Agypten HWV 54
15. G. F. Handel - Concerto Grosso Op. 6 Nr. 5 D-Dur
16. J. S. Bach - Goldberg-Variationen BWV 988 (Aria)
17. J. S. Bach - Goldberg-Variationen BWV 988
18. G. F. Handel - Der Messias HWV 56
19. G. F. Handel - Orgelkonzert Nr. 8 A-Dur Op. 7/2 HWV 307
20. J. S. Bach - Die Kunst Der Fuge BWV 1080

CD 4: Classical Period
01. J. J. Quantz - Flotenkonzert Nr. 161 G-Dur QV 5:161
02. J. Haydn - Sinfonie Nr. 6 D-Dur Hob. 1:6 "Le Matin"
03. C. W. Gluck - Orfeo Ed Euridice (Reigen Seliger Geister)
04. C. W. Gluck - Orfeo Ed Euridice (Che Puro Ciel)
05. J. Haydn - Cellokonzert Nr. 1 C-Dur Hob. VIIb:l (Allegro Molto)
06. J. S. Bach - Sinfonie D-Dur Op. 18 Nr. 4 (Allegro Con Spirito)
07. J. S. Bach - Sinfonie D-Dur Op. 18 Nr. 4 (Andante)
08. J. S. Bach - Sinfonie D-Dur Op. 18 Nr. 4 (Rondo: Presto)
09. C. P. E. Bach - Sinfonia C-Dur Wq 182 Nr. 3 (Allegro Assai)
10. C. P. E. Bach - Sinfonia C-Dur Wq 182 Nr. 3 (Adagio)
11. C. P. E. Bach - Sinfonia C-Dur Wq 182 Nr. 3 (Allegretto)
12. W. A. Mozart - Sinfonie Nr. 28 C-Dur KV 200
13. W. A. Mozart - Klaviersonate Nr. 11 A-Dur KV 331
14. J. Haydn - Klavierkonzert D-Dur Hob XVIII:11
15. W. A. Mozart - Klavierkonzert Nr. 21 C-Dur KV 467

CD 5: Classical Period
01. W. A. Mozart - Le Nozze Di Figaro KV 492 (Nr. 3: Bravo, Signor Padrone!)
02. W. A. Mozart - Le Nozze Di Figaro KV 492 (Nr. 10: Non Piu Andrai, Farfellone Amoroso)
03. W. A. Mozart - Don Giovanni KV 527 (La Ci Darem La Mano)
04. W. A. Mozart - Don Giovanni KV 527 (Madamina, Il Catalogo E Questo
05. W. A. Mozart - Sinfonie Nr. 40 G-Moll KV 550
06. J. Haydn - Sinfonie Nr. 94 G-Dur Hob. I:94
07. W. A. Mozart - Klarinettenkonzert A-Dur KV 622
08. W. A. Mozart - Die Zauberflote KV 620 (Der Vogelfanger Bin Ich Ja)
09. W. A. Mozart - Die Zauberflote KV 620 (Ein Madchen Oder Weibchen)
10. W. A. Mozart - Die Zauberflote KV 620 (Dies Bildnis Ist Bezaubernd Schon)
11. W. A. Mozart - Requiem KV 626
12. J. Haydn - Klaviersonate C-Dur Hob. XVI:50
13. J. Haydn - Streichquartett Nr. 62 C-Dur Hob. III:77
14. L. Van Beethoven - Violinsonate F-Dur Op. 24

CD 6: Classical Period
01. L. Van Beethoven - Klaviersonate Nr. 14 Cis-Moll Op. 27 Nr. 2 "Mondscheinsonate"
02. L. Van Beethoven - Sinfonie Nr. 3 Es-Dur Op. 55 "Eroica"
03. L. Van Beethoven - Violinkonzert D-Dur Op. 61
04. L. Van Beethoven - Sinfonie Nr. 5 C-Moll Op. 67
05. L. Van Beethoven - Klavierkonzert Nr. 5 Op. 73
06. L. Van Beethoven - Sinfonie Nr. 9 D-Moll Op. 125

CD 7: Romantic Period
01. G. Rossini - Il Barbiere Di Siviglia
02. N. Paganini - Violinkonzert Nr. 1 D-Dur Op. 6
03. С. M. Von Weber - Der Freischutz J. 277
04. F. Schubert - Klavierquintett A-Dur D 667
05. F. Schubert - Sinfonie Nr. 7 H-Moll D 759
06. F. Schubert - Die Winterreise D 911
07. F. Mendelssohn Bartholdy - Lied Ohne Worte Op. 19 Nr. 1
08. H. Berlioz - Symphonie Fantastique, Episode De La Vie D'un Artiste
09. F. Chopin - Fantaisie-Impromptu Cis-Moll
10. R. Schumann - Carnaval Op. 9
11. F. Chopin - Nocturne H-Dur Op. 32 Nr. 1 B. 106
12. R. Schumann - Kinderszenen Op. 15
13. R. Schumann - Kreisleriana Op. 16
14. F. Chopin - Prelude Op. 28 Nr. 15 Des-Dur
15. F. Hensel - Wandrers Nachtlied ("Der Du Von Dem Himmel Bist")

CD 8: Romantic Period
01. F. Mendelssohn Bartholdy - Sinfonie Nr. 3 A-Moll Op. 56
02. M. I. Glinka - Ruslan Und Ludmilla
03. G. Donizetti - Don Pasquale
04. F. Mendelssohn Bartholdy - Violinkonzert E-Moll Op. 64
05. F. Von Flotow - Martha Oder Der Markt Zu Richmond
06. R. Wagner - Lohengrin WWV 75
07. J. Strauss - Radetzky-Marsch Op. 228
08. F. Liszt - Annees De Pelerinage (Deuxieme Annee - Italie) S 161
09. O. Nicolai - Die Lustigen Weiber Von Windsor
10. R. Schumann - Sinfonie Nr. 3 Es-Dur Op. 97
11. F. Liszt - Grandes Etudes De Paganini S 141
12. R. Wagner - Tristan Und Isolde WWV 90
13. R. Wagner - Tristan Und Isolde WWV 90 (Isoldes Liebestod, 3. Aufzug)
14. C. Gounod / J. S. Bach - Ave Maria (1859)
15. J. Offenbach - Salon Pitzelberger (Vorspiel)
16. J. Offenbach - Salon Pitzelberger (Nr. 1 Couplet)

CD 9: Romantic Period
01. J. Strauss (Sohn) - An Der Schonen Blauen Donau, Walzer
02. J. Brahms - Ein Deutsches Requiem Op. 45
03. G. Verdi - Aida
04. C. Saint-Saens - Cellokonzert Nr. 1 A-Moll Op. 33
05. G. Bizet - Carmen
06. G. Verdi - Messa Da Requiem
07. B. Smetana - Ma Vlast (Mein Vaterland)
08. M. Mussorgsky - Bilder Einer Ausstellung (Promenade)
09. M. Mussorgsky - Bilder Einer Ausstellung (Nr. 2. Das Alte Schlob)
10. E. Grieg - Peer Gynt-Suite Nr. 2 Op. 55
11. P. Tschaikowsky - Violinkonzert D-Dur Op. 35
12. A. Dvorak - Slawische Tanze Op. 46

CD 10: Romantic Period
01. R. Wagner - Parsifal WWV 111
02. A. Bruckner - Sinfonie Nr. 7 E-Dur WAB 107
03. J. Strauss (Sohn) - Der Zigeunerbaron
04. J. Brahms - Sinfonie Nr. 4 E-Moll Op. 98
05. C. Franck - Sonate Fur Violine Und Klavier A-Dur
06. J. Brahms - Vier Klavierstiucke Op. 119
07. A. Dvorak - Sinfonie Nr. 9 E-Moll Op. 95
08. J. Sibelius - "Lemminkainen"-Suite Op. 22
09. N. Rimski-Korsakow - Skazka O Care Saltane (Das Marchen Vom Zaren Saltan)
10. G. Mahler - Sinfonie Nr. 5 Cis-Moll
11. F. Lehar - Die Lustige Witwe

CD 11: Modern Music
01. C. Debussy - Suite Bergamasque Fur Klavier
02. E. Elgar - Enigma Variationen Op. 36
03. C. Ives - Central Park In The Dark
04. A. Schonberg - Funf Orchesterstucke Op. 16
05. S. Rachmaninoff - Prelude Gis-Moll
06. M. Reger - Vier Tondichtungen Nach Arnold Bocklin Op. 128
07. I. Strawinsky - Le Sacre Du Printemps
08. J. Sibelius - Sinfonie Nr. 5 Es-Dur Op. 82
09. M. Ravel - La Valse (Роеme Choreographique Pour Orchestre)
10. A. Berg - Wozzeck
11. G. Puccini - Turandot
12. G. Gershwin - Konzert For Klavier Und Orchester In F-Dur

CD 12: Modern Music
01. A. Schonberg - Variationen Fur Orchester Op. 31 (Thema Molto Moderato)
02. A. Schonberg - Variationen Fur Orchester Op. 31 (Variation 9: L'istesso Tempo, Aber Etwas Langsamer)
03. D. Schostakowitsch - Suite Aus Der Oper
04. H. Distler - Die Weihnachtsgeschichte
05. A. Berg - Violinkonzert
06. C. Orff - Carmina Burana
07. H. Eisler - Funf Stucke Fur Orchester
08. R. Strauss - Vier Letzte Lieder
09. L. Bernstein - Four Anniversaries
10. O. Messiaen - Le Merle Noir (Die Schwarze Amsel)
11. K. Penderecki - Threnos. Den Opfern Von Hiroshima
12. B. Britten - War Requiem Op. 66
13. L. Nono - Ricorda Cosa Ti Hanno Fatto In Auschwitz
14. M. Theodorakis - Sadduzaer-Passion
15. S. Gubaidulina - Die Sieben Worte
16. A. Schnittke - Klaviersonate Nr. 1 Op. 197
17. T. Rilley - Barabas



Отчёт EAC CD1
Exact Audio Copy V1.0 beta 3 from 29. August 2011

Отчёт EAC об извлечении, выполненном 30. октября 2013, 10:32

Die Geschichte der klassischen Musik / [CD01] Alte Musik

Дисковод: TSSTcorpDVD+-RW TS-L632H Adapter: 1 ID: 0

Режим чтения : Достоверность
Использование точного потока : Да
Отключение кэша аудио : Да
Использование указателей C2 : Нет

Коррекция смещения при чтении : 6
Способность читать области Lead-in и Lead-out : Нет
Заполнение пропущенных сэмплов тишиной : Да
Удаление блоков с тишиной в начале и конце : Нет
При вычислениях CRC использовались нулевые сэмплы : Да
Интерфейс : Встроенный Win32-интерфейс для Win NT/2000

Выходной формат : Пользовательский кодировщик
Выбранный битрейт : 128 kBit/s
Качество : Высокий
Добавление ID3-тега : Нет
Утилита сжатия : C:\Program Files\Exact Audio Copy\Flac\flac.exe
Дополнительные параметры : -V -8 %source%

TOC извлечённого CD

Трек | Старт | Длительность | Начальный сектор | Конечный сектор
––––––––––––––––––––––––––––––––––-
1 | 0:00.00 | 3:49.51 | 0 | 17225
2 | 3:49.51 | 4:57.48 | 17226 | 39548
3 | 8:47.24 | 2:17.51 | 39549 | 49874
4 | 11:05.00 | 3:15.73 | 49875 | 64572
5 | 14:20.73 | 2:20.28 | 64573 | 75100
6 | 16:41.26 | 3:21.74 | 75101 | 90249
7 | 20:03.25 | 4:08.46 | 90250 | 108895
8 | 24:11.71 | 7:44.48 | 108896 | 143743
9 | 31:56.44 | 5:06.50 | 143744 | 166743
10 | 37:03.19 | 2:23.46 | 166744 | 177514
11 | 39:26.65 | 2:56.34 | 177515 | 190748
12 | 42:23.24 | 3:47.07 | 190749 | 207780
13 | 46:10.31 | 3:36.02 | 207781 | 223982
14 | 49:46.33 | 4:33.01 | 223983 | 244458
15 | 54:19.34 | 2:09.30 | 244459 | 254163
16 | 56:28.64 | 1:31.57 | 254164 | 261045
17 | 58:00.46 | 3:57.74 | 261046 | 278894
18 | 61:58.45 | 3:42.20 | 278895 | 295564
19 | 65:40.65 | 2:32.53 | 295565 | 307017
20 | 68:13.43 | 3:48.73 | 307018 | 324190
21 | 72:02.41 | 1:45.24 | 324191 | 332089

Характеристики диапазона извлечения и сообщения об ошибках

Выбранный диапазон

Имя файла C:\Users\MASTER\Downloads\_раздачи\Classical Discovery (Berlin Classics) 12 CD\Die Geschichte der klassischen Musik - [CD01] Alte Musik.wav

Пиковый уровень 100.0 %
Скорость извлечения 4.4 X
Качество диапазона 99.9 %
CRC теста 2991E65F
CRC копии 2991E65F
Копирование… OK

Ошибок не произошло

AccurateRip: сводка

Трек 1 : извлечено точно (доверие 1) [57747884] (AR v1)
Трек 2 : извлечено точно (доверие 1) [D52BFFAD] (AR v1)
Трек 3 : извлечено точно (доверие 1) [BB8C2B6B] (AR v1)
Трек 4 : извлечено точно (доверие 1) [AD27B810] (AR v1)
Трек 5 : извлечено точно (доверие 1) [AD72B0CD] (AR v1)
Трек 6 : извлечено точно (доверие 1) [7BD6033E] (AR v1)
Трек 7 : извлечено точно (доверие 1) [AC8856AC] (AR v1)
Трек 8 : извлечено точно (доверие 1) [05CD4056] (AR v1)
Трек 9 : извлечено точно (доверие 1) [3ACB7FDB] (AR v1)
Трек 10 : извлечено точно (доверие 1) [C0EBD8AB] (AR v1)
Трек 11 : извлечено точно (доверие 1) [5DBB6474] (AR v1)
Трек 12 : извлечено точно (доверие 1) [6EB2526A] (AR v1)
Трек 13 : извлечено точно (доверие 1) [1898F522] (AR v1)
Трек 14 : извлечено точно (доверие 1) [1FCD6F75] (AR v1)
Трек 15 : извлечено точно (доверие 1) [5B61FA86] (AR v1)
Трек 16 : извлечено точно (доверие 1) [C9A870B3] (AR v1)
Трек 17 : извлечено точно (доверие 1) [FA6135E5] (AR v1)
Трек 18 : извлечено точно (доверие 1) [0D05CD0E] (AR v1)
Трек 19 : извлечено точно (доверие 1) [A9A39514] (AR v1)
Трек 20 : извлечено точно (доверие 1) [299B29AE] (AR v1)
Трек 21 : извлечено точно (доверие 1) [6C8890EF] (AR v1)

Все треки извлечены точно

Конец отчёта

==== Контрольная сумма отчёта 9EFCDB7C32DF28FFAB48150AA734FB432F3BF7CB50ECE3930E30CC4FFF1786A9 ====


Отчёт EAC CD2
- / [CD02] Barock

Дисковод: TSSTcorpDVD+-RW TS-L632H Adapter: 1 ID: 0

Режим чтения : Достоверность
Использование точного потока : Да
Отключение кэша аудио : Да
Использование указателей C2 : Нет

Коррекция смещения при чтении : 6
Способность читать области Lead-in и Lead-out : Нет
Заполнение пропущенных сэмплов тишиной : Да
Удаление блоков с тишиной в начале и конце : Нет
При вычислениях CRC использовались нулевые сэмплы : Да
Интерфейс : Встроенный Win32-интерфейс для Win NT/2000

Выходной формат : Пользовательский кодировщик
Выбранный битрейт : 128 kBit/s
Качество : Высокий
Добавление ID3-тега : Нет
Утилита сжатия : C:\Program Files\Exact Audio Copy\Flac\flac.exe
Дополнительные параметры : -V -8 %source%

TOC извлечённого CD

Трек | Старт | Длительность | Начальный сектор | Конечный сектор
––––––––––––––––––––––––––––––––––-
1 | 0:00.00 | 2:19.07 | 0 | 10431
2 | 2:19.07 | 2:12.10 | 10432 | 20341
3 | 4:31.17 | 5:40.53 | 20342 | 45894
4 | 10:11.70 | 3:32.58 | 45895 | 61852
5 | 13:44.53 | 3:36.03 | 61853 | 78055
6 | 17:20.56 | 2:52.50 | 78056 | 91005
7 | 20:13.31 | 5:21.04 | 91006 | 115084
8 | 25:34.35 | 1:59.48 | 115085 | 124057
9 | 27:34.08 | 9:06.37 | 124058 | 165044
10 | 36:40.45 | 2:15.36 | 165045 | 175205
11 | 38:56.06 | 2:28.57 | 175206 | 186362
12 | 41:24.63 | 2:00.54 | 186363 | 195416
13 | 43:25.42 | 4:14.40 | 195417 | 214506
14 | 47:40.07 | 5:44.01 | 214507 | 240307
15 | 53:24.08 | 6:20.14 | 240308 | 268821
16 | 59:44.22 | 15:05.04 | 268822 | 336700

Характеристики диапазона извлечения и сообщения об ошибках

Выбранный диапазон

Имя файла C:\Users\MASTER\Downloads\_раздачи\Classical Discovery (Berlin Classics) 12 CD\CD 2 Barock\Die Geschichte der klassischen Musik - [CD02] Barock.wav

Пиковый уровень 100.0 %
Скорость извлечения 4.5 X
Качество диапазона 100.0 %
CRC копии BB198EA7
Копирование… OK

Ошибок не произошло

AccurateRip: сводка

Трек 1 : извлечено точно (доверие 1) [501D8E9D] (AR v1)
Трек 2 : извлечено точно (доверие 1) [6E2BE108] (AR v1)
Трек 3 : извлечено точно (доверие 1) [DC7EF71D] (AR v1)
Трек 4 : извлечено точно (доверие 1) [6C9CF671] (AR v1)
Трек 5 : извлечено точно (доверие 1) [9565E75B] (AR v1)
Трек 6 : извлечено точно (доверие 1) [FAF8673C] (AR v1)
Трек 7 : извлечено точно (доверие 1) [38DCF15A] (AR v1)
Трек 8 : извлечено точно (доверие 1) [B91184CF] (AR v1)
Трек 9 : извлечено точно (доверие 1) [13CB5346] (AR v1)
Трек 10 : извлечено точно (доверие 1) [AC34BCEA] (AR v1)
Трек 11 : извлечено точно (доверие 1) [60C952CC] (AR v1)
Трек 12 : извлечено точно (доверие 1) [F8FB46AB] (AR v1)
Трек 13 : извлечено точно (доверие 1) [E222E56E] (AR v1)
Трек 14 : извлечено точно (доверие 1) [0D0A256A] (AR v1)
Трек 15 : извлечено точно (доверие 1) [9363E03A] (AR v1)
Трек 16 : извлечено точно (доверие 1) [5A31BD71] (AR v1)

Все треки извлечены точно

Конец отчёта

==== Контрольная сумма отчёта 60587E68AE7E92F07F96981A67B80D1CC8A24D97BD4D8D5B0F93F727CCD142F2 ====


Отчёт EAC CD3
Exact Audio Copy V1.0 beta 3 from 29. August 2011

Отчёт EAC об извлечении, выполненном 30. октября 2013, 12:42

- / [CD03] Barock

Дисковод: TSSTcorpDVD+-RW TS-L632H Adapter: 1 ID: 0

Режим чтения : Достоверность
Использование точного потока : Да
Отключение кэша аудио : Да
Использование указателей C2 : Нет

Коррекция смещения при чтении : 6
Способность читать области Lead-in и Lead-out : Нет
Заполнение пропущенных сэмплов тишиной : Да
Удаление блоков с тишиной в начале и конце : Нет
При вычислениях CRC использовались нулевые сэмплы : Да
Интерфейс : Встроенный Win32-интерфейс для Win NT/2000

Выходной формат : Пользовательский кодировщик
Выбранный битрейт : 128 kBit/s
Качество : Высокий
Добавление ID3-тега : Нет
Утилита сжатия : C:\Program Files\Exact Audio Copy\Flac\flac.exe
Дополнительные параметры : -V -8 %source%

TOC извлечённого CD

Трек | Старт | Длительность | Начальный сектор | Конечный сектор
––––––––––––––––––––––––––––––––––-
1 | 0:00.00 | 2:37.40 | 0 | 11814
2 | 2:37.40 | 1:49.42 | 11815 | 20031
3 | 4:27.07 | 2:06.27 | 20032 | 29508
4 | 6:33.34 | 1:52.06 | 29509 | 37914
5 | 8:25.40 | 3:22.18 | 37915 | 53082
6 | 11:47.58 | 6:07.54 | 53083 | 80661
7 | 17:55.37 | 8:51.65 | 80662 | 120551
8 | 26:47.27 | 2:48.72 | 120552 | 133223
9 | 29:36.24 | 3:11.52 | 133224 | 147600
10 | 32:48.01 | 3:02.43 | 147601 | 161293
11 | 35:50.44 | 3:02.25 | 161294 | 174968
12 | 38:52.69 | 8:53.74 | 174969 | 215017
13 | 47:46.68 | 2:45.15 | 215018 | 227407
14 | 50:32.08 | 3:06.39 | 227408 | 241396
15 | 53:38.47 | 1:52.25 | 241397 | 249821
16 | 55:30.72 | 5:25.65 | 249822 | 274261
17 | 60:56.62 | 2:27.55 | 274262 | 285341
18 | 63:24.42 | 4:07.12 | 285342 | 303878
19 | 67:31.54 | 2:46.45 | 303879 | 316373
20 | 70:18.24 | 3:32.51 | 316374 | 332324

Характеристики диапазона извлечения и сообщения об ошибках

Выбранный диапазон

Имя файла C:\Users\MASTER\Downloads\_раздачи\Classical Discovery (Berlin Classics) 12 CD\CD 3 - Barock\Die Geschichte der klassischen Musik - [CD03] Barock.wav

Пиковый уровень 100.0 %
Скорость извлечения 4.6 X
Качество диапазона 100.0 %
CRC копии F2D6B7EB
Копирование… OK

Ошибок не произошло

AccurateRip: сводка

Трек 1 : извлечено точно (доверие 1) [474EB90B] (AR v1)
Трек 2 : извлечено точно (доверие 1) [70CD4B00] (AR v1)
Трек 3 : извлечено точно (доверие 1) [13929043] (AR v1)
Трек 4 : извлечено точно (доверие 1) [D2272AF4] (AR v1)
Трек 5 : извлечено точно (доверие 1) [081CFC1E] (AR v1)
Трек 6 : извлечено точно (доверие 1) [5CE6A484] (AR v1)
Трек 7 : извлечено точно (доверие 1) [E284847A] (AR v1)
Трек 8 : извлечено точно (доверие 1) [5A20A074] (AR v1)
Трек 9 : извлечено точно (доверие 1) [E8F1E032] (AR v1)
Трек 10 : извлечено точно (доверие 1) [0AC63AA3] (AR v1)
Трек 11 : извлечено точно (доверие 1) [F1BB98F7] (AR v1)
Трек 12 : извлечено точно (доверие 1) [852F2CEB] (AR v1)
Трек 13 : извлечено точно (доверие 1) [CDD9E7DD] (AR v1)
Трек 14 : извлечено точно (доверие 1) [0C5EE0FA] (AR v1)
Трек 15 : извлечено точно (доверие 1) [C3BD81AF] (AR v1)
Трек 16 : извлечено точно (доверие 1) [4F4386DB] (AR v1)
Трек 17 : извлечено точно (доверие 1) [60244CA6] (AR v1)
Трек 18 : извлечено точно (доверие 1) [07479831] (AR v1)
Трек 19 : извлечено точно (доверие 1) [1360A9AA] (AR v1)
Трек 20 : извлечено точно (доверие 1) [AD5FC1F5] (AR v1)

Все треки извлечены точно

Конец отчёта

==== Контрольная сумма отчёта 8A56B39B68190B34EA5FBB673ACF42098DC78B91862C0ADE71E659878E12CB2F ====


Отчёт EAC CD4
Exact Audio Copy V1.0 beta 3 from 29. August 2011

Отчёт EAC об извлечении, выполненном 30. октября 2013, 13:28

- / [CD04] Klassik

Дисковод: TSSTcorpDVD+-RW TS-L632H Adapter: 1 ID: 0

Режим чтения : Достоверность
Использование точного потока : Да
Отключение кэша аудио : Да
Использование указателей C2 : Нет

Коррекция смещения при чтении : 6
Способность читать области Lead-in и Lead-out : Нет
Заполнение пропущенных сэмплов тишиной : Да
Удаление блоков с тишиной в начале и конце : Нет
При вычислениях CRC использовались нулевые сэмплы : Да
Интерфейс : Встроенный Win32-интерфейс для Win NT/2000

Выходной формат : Пользовательский кодировщик
Выбранный битрейт : 128 kBit/s
Качество : Высокий
Добавление ID3-тега : Нет
Утилита сжатия : C:\Program Files\Exact Audio Copy\Flac\flac.exe
Дополнительные параметры : -V -8 %source%

TOC извлечённого CD

Трек | Старт | Длительность | Начальный сектор | Конечный сектор
––––––––––––––––––––––––––––––––––-
1 | 0:00.00 | 5:32.14 | 0 | 24913
2 | 5:32.14 | 4:07.46 | 24914 | 43484
3 | 9:39.60 | 7:48.06 | 43485 | 78590
4 | 17:27.66 | 6:36.46 | 78591 | 108336
5 | 24:04.37 | 6:56.30 | 108337 | 139566
6 | 31:00.67 | 4:03.62 | 139567 | 157853
7 | 35:04.54 | 3:28.43 | 157854 | 173496
8 | 38:33.22 | 2:39.54 | 173497 | 185475
9 | 41:13.01 | 2:53.53 | 185476 | 198503
10 | 44:06.54 | 3:02.38 | 198504 | 212191
11 | 47:09.17 | 2:34.23 | 212192 | 223764
12 | 49:43.40 | 5:16.52 | 223765 | 247516
13 | 55:00.17 | 3:25.53 | 247517 | 262944
14 | 58:25.70 | 7:47.16 | 262945 | 297985
15 | 66:13.11 | 6:16.11 | 297986 | 326196

Характеристики диапазона извлечения и сообщения об ошибках

Выбранный диапазон

Имя файла C:\Users\MASTER\Downloads\_раздачи\Classical Discovery (Berlin Classics) 12 CD\CD 4 - Klassik\Die Geschichte der klassischen Musik - [CD04] Klassik.wav

Пиковый уровень 100.0 %
Скорость извлечения 4.6 X
Качество диапазона 100.0 %
CRC копии BD507163
Копирование… OK

Ошибок не произошло

AccurateRip: сводка

Трек 1 : извлечено точно (доверие 1) [C6EBA5F3] (AR v1)
Трек 2 : извлечено точно (доверие 1) [5F875319] (AR v1)
Трек 3 : извлечено точно (доверие 1) [7BE92D2E] (AR v1)
Трек 4 : извлечено точно (доверие 1) [3BD700BD] (AR v1)
Трек 5 : извлечено точно (доверие 1) [BA0E9C14] (AR v1)
Трек 6 : извлечено точно (доверие 1) [1308F2AC] (AR v1)
Трек 7 : извлечено точно (доверие 1) [74D042A1] (AR v1)
Трек 8 : извлечено точно (доверие 1) [C573CF34] (AR v1)
Трек 9 : извлечено точно (доверие 1) [F998BECD] (AR v1)
Трек 10 : извлечено точно (доверие 1) [B84CF030] (AR v1)
Трек 11 : извлечено точно (доверие 1) [D237DA05] (AR v1)
Трек 12 : извлечено точно (доверие 1) [0E34BB98] (AR v1)
Трек 13 : извлечено точно (доверие 1) [982DECB1] (AR v1)
Трек 14 : извлечено точно (доверие 1) [E8C33B20] (AR v1)
Трек 15 : извлечено точно (доверие 1) [27A33D56] (AR v1)

Все треки извлечены точно

Конец отчёта

==== Контрольная сумма отчёта 23986DEDF9D36B7593EF1A9BE6030C11D52FD6695C44FBD2753C8DEEB60D8327 ====


Отчёт EAC CD5
Exact Audio Copy V1.0 beta 3 from 29. August 2011

Отчёт EAC об извлечении, выполненном 30. октября 2013, 14:09

- / [CD05] Klassik

Дисковод: TSSTcorpDVD+-RW TS-L632H Adapter: 1 ID: 0

Режим чтения : Достоверность
Использование точного потока : Да
Отключение кэша аудио : Да
Использование указателей C2 : Нет

Коррекция смещения при чтении : 6
Способность читать области Lead-in и Lead-out : Нет
Заполнение пропущенных сэмплов тишиной : Да
Удаление блоков с тишиной в начале и конце : Нет
При вычислениях CRC использовались нулевые сэмплы : Да
Интерфейс : Встроенный Win32-интерфейс для Win NT/2000

Выходной формат : Пользовательский кодировщик
Выбранный битрейт : 128 kBit/s
Качество : Высокий
Добавление ID3-тега : Нет
Утилита сжатия : C:\Program Files\Exact Audio Copy\Flac\flac.exe
Дополнительные параметры : -V -8 %source%

TOC извлечённого CD

Трек | Старт | Длительность | Начальный сектор | Конечный сектор
––––––––––––––––––––––––––––––––––-
1 | 0:00.00 | 3:27.73 | 0 | 15597
2 | 3:27.73 | 3:40.65 | 15598 | 32162
3 | 7:08.63 | 3:17.25 | 32163 | 46962
4 | 10:26.13 | 5:22.15 | 46963 | 71127
5 | 15:48.28 | 8:06.33 | 71128 | 107610
6 | 23:54.61 | 6:18.11 | 107611 | 135971
7 | 30:12.72 | 7:20.70 | 135972 | 169041
8 | 37:33.67 | 2:47.20 | 169042 | 181586
9 | 40:21.12 | 3:41.18 | 181587 | 198179
10 | 44:02.30 | 4:12.14 | 198180 | 217093
11 | 48:14.44 | 4:35.19 | 217094 | 237737
12 | 52:49.63 | 8:02.39 | 237738 | 273926
13 | 60:52.27 | 7:23.45 | 273927 | 307196
14 | 68:15.72 | 6:01.03 | 307197 | 334274

Характеристики диапазона извлечения и сообщения об ошибках

Выбранный диапазон

Имя файла C:\Users\MASTER\Downloads\_раздачи\Classical Discovery (Berlin Classics) 12 CD\CD 5 - Klassik\Die Geschichte der klassischen Musik - [CD05] Klassik.wav

Пиковый уровень 100.0 %
Скорость извлечения 4.6 X
Качество диапазона 100.0 %
CRC копии 4590856F
Копирование… OK

Ошибок не произошло

AccurateRip: сводка

Трек 1 отсутствует в базе данных
Трек 2 отсутствует в базе данных
Трек 3 отсутствует в базе данных
Трек 4 отсутствует в базе данных
Трек 5 отсутствует в базе данных
Трек 6 отсутствует в базе данных
Трек 7 отсутствует в базе данных
Трек 8 отсутствует в базе данных
Трек 9 отсутствует в базе данных
Трек 10 отсутствует в базе данных
Трек 11 отсутствует в базе данных
Трек 12 отсутствует в базе данных
Трек 13 отсутствует в базе данных
Трек 14 отсутствует в базе данных

Ни одного трека нет в базе AccurateRip

Конец отчёта

==== Контрольная сумма отчёта 6821B8D4F00E5C2CC1CA55BB7984C3B76DC1D3B03CEDED857310C68E0D5A2166 ====


Отчёт EAC CD6
Exact Audio Copy V1.0 beta 3 from 29. August 2011

Отчёт EAC об извлечении, выполненном 30. октября 2013, 14:41

- / [CD06] Klassik

Дисковод: TSSTcorpDVD+-RW TS-L632H Adapter: 1 ID: 0

Режим чтения : Достоверность
Использование точного потока : Да
Отключение кэша аудио : Да
Использование указателей C2 : Нет

Коррекция смещения при чтении : 6
Способность читать области Lead-in и Lead-out : Нет
Заполнение пропущенных сэмплов тишиной : Да
Удаление блоков с тишиной в начале и конце : Нет
При вычислениях CRC использовались нулевые сэмплы : Да
Интерфейс : Встроенный Win32-интерфейс для Win NT/2000

Выходной формат : Пользовательский кодировщик
Выбранный битрейт : 128 kBit/s
Качество : Высокий
Добавление ID3-тега : Нет
Утилита сжатия : C:\Program Files\Exact Audio Copy\Flac\flac.exe
Дополнительные параметры : -V -8 %source%

TOC извлечённого CD

Трек | Старт | Длительность | Начальный сектор | Конечный сектор
––––––––––––––––––––––––––––––––––-
1 | 0:00.00 | 5:36.10 | 0 | 25209
2 | 5:36.10 | 15:20.14 | 25210 | 94223
3 | 20:56.24 | 11:09.23 | 94224 | 144421
4 | 32:05.47 | 8:01.73 | 144422 | 180569
5 | 40:07.45 | 10:59.04 | 180570 | 229998
6 | 51:06.49 | 24:54.26 | 229999 | 342074

Характеристики диапазона извлечения и сообщения об ошибках

Выбранный диапазон

Имя файла C:\Users\MASTER\Downloads\_раздачи\Classical Discovery (Berlin Classics) 12 CD\CD 6 - Klassik\Die Geschichte der klassischen Musik - [CD06] Klassik.wav

Пиковый уровень 100.0 %
Скорость извлечения 4.6 X
Качество диапазона 99.9 %
CRC копии 47EAFBE1
Копирование… OK

Ошибок не произошло

AccurateRip: сводка

Трек 1 : извлечено точно (доверие 1) [86C5DF7E] (AR v1)
Трек 2 : извлечено точно (доверие 1) [4D32BC12] (AR v1)
Трек 3 : извлечено точно (доверие 1) [8D358E42] (AR v1)
Трек 4 : извлечено точно (доверие 1) [3005E953] (AR v1)
Трек 5 : извлечено точно (доверие 1) [00B990D6] (AR v1)
Трек 6 : извлечено точно (доверие 1) [7F3E69A1] (AR v1)

Все треки извлечены точно

Конец отчёта

==== Контрольная сумма отчёта 79FA34F3604C737A021301E319135AB8331C6AA6460FD085122765A03B82847F ====


Отчёт EAC CD7
Exact Audio Copy V1.0 beta 3 from 29. August 2011

Отчёт EAC об извлечении, выполненном 30. октября 2013, 15:13

- / [CD07] Romantik

Дисковод: TSSTcorpDVD+-RW TS-L632H Adapter: 1 ID: 0

Режим чтения : Достоверность
Использование точного потока : Да
Отключение кэша аудио : Да
Использование указателей C2 : Нет

Коррекция смещения при чтении : 6
Способность читать области Lead-in и Lead-out : Нет
Заполнение пропущенных сэмплов тишиной : Да
Удаление блоков с тишиной в начале и конце : Нет
При вычислениях CRC использовались нулевые сэмплы : Да
Интерфейс : Встроенный Win32-интерфейс для Win NT/2000

Выходной формат : Пользовательский кодировщик
Выбранный битрейт : 128 kBit/s
Качество : Высокий
Добавление ID3-тега : Нет
Утилита сжатия : C:\Program Files\Exact Audio Copy\Flac\flac.exe
Дополнительные параметры : -V -8 %source%

TOC извлечённого CD

Трек | Старт | Длительность | Начальный сектор | Конечный сектор
––––––––––––––––––––––––––––––––––-
1 | 0:00.00 | 5:02.19 | 0 | 22668
2 | 5:02.19 | 8:40.51 | 22669 | 61719
3 | 13:42.70 | 2:32.16 | 61720 | 73135
4 | 16:15.11 | 7:38.32 | 73136 | 107517
5 | 23:53.43 | 11:29.33 | 107518 | 159225
6 | 35:23.01 | 5:43.55 | 159226 | 185005
7 | 41:06.56 | 3:12.16 | 185006 | 199421
8 | 44:18.72 | 10:33.61 | 199422 | 246957
9 | 54:52.58 | 5:00.72 | 246958 | 269529
10 | 59:53.55 | 1:10.59 | 269530 | 274838
11 | 61:04.39 | 5:00.38 | 274839 | 297376
12 | 66:05.02 | 3:21.72 | 297377 | 312523
13 | 69:26.74 | 2:18.54 | 312524 | 322927
14 | 71:45.53 | 5:15.14 | 322928 | 346566
15 | 77:00.67 | 2:56.67 | 346567 | 359833

Характеристики диапазона извлечения и сообщения об ошибках

Выбранный диапазон

Имя файла C:\Users\MASTER\Downloads\_раздачи\Classical Discovery (Berlin Classics) 12 CD\CD 7 - Romantik\Die Geschichte der klassischen Musik - [CD07] Romantik.wav

Пиковый уровень 100.0 %
Скорость извлечения 4.7 X
Качество диапазона 100.0 %
CRC копии 67B8E48B
Копирование… OK

Ошибок не произошло

AccurateRip: сводка

Трек 1 : извлечено точно (доверие 1) [0AA7CCED] (AR v1)
Трек 2 : извлечено точно (доверие 1) [386F647F] (AR v1)
Трек 3 : извлечено точно (доверие 1) [D1C13B65] (AR v1)
Трек 4 : извлечено точно (доверие 1) [1C770FB9] (AR v1)
Трек 5 : извлечено точно (доверие 1) [2B513C2A] (AR v1)
Трек 6 : извлечено точно (доверие 1) [F15D2248] (AR v1)
Трек 7 : извлечено точно (доверие 1) [1CBCEC03] (AR v1)
Трек 8 : извлечено точно (доверие 1) [6C96D90D] (AR v1)
Трек 9 : извлечено точно (доверие 1) [E6489402] (AR v1)
Трек 10 : извлечено точно (доверие 1) [C7366FE4] (AR v1)
Трек 11 : извлечено точно (доверие 1) [0F27C15E] (AR v1)
Трек 12 : извлечено точно (доверие 1) [41FF56A6] (AR v1)
Трек 13 : извлечено точно (доверие 1) [3EF44DA3] (AR v1)
Трек 14 : извлечено точно (доверие 1) [7EF7459A] (AR v1)
Трек 15 : извлечено точно (доверие 1) [A79053E7] (AR v1)

Все треки извлечены точно

Конец отчёта

==== Контрольная сумма отчёта 5A9A17C079CE1CE735623609E575DC1FA3967F278D77DD6D04D5B0D9B065CE40 ====


Отчёт EAC CD8
Exact Audio Copy V1.0 beta 3 from 29. August 2011

Отчёт EAC об извлечении, выполненном 30. октября 2013, 16:03

- / [CD08] Romantik

Дисковод: TSSTcorpDVD+-RW TS-L632H Adapter: 1 ID: 0

Режим чтения : Достоверность
Использование точного потока : Да
Отключение кэша аудио : Да
Использование указателей C2 : Нет

Коррекция смещения при чтении : 6
Способность читать области Lead-in и Lead-out : Нет
Заполнение пропущенных сэмплов тишиной : Да
Удаление блоков с тишиной в начале и конце : Нет
При вычислениях CRC использовались нулевые сэмплы : Да
Интерфейс : Встроенный Win32-интерфейс для Win NT/2000

Выходной формат : Пользовательский кодировщик
Выбранный битрейт : 128 kBit/s
Качество : Высокий
Добавление ID3-тега : Нет
Утилита сжатия : C:\Program Files\Exact Audio Copy\Flac\flac.exe
Дополнительные параметры : -V -8 %source%

TOC извлечённого CD

Трек | Старт | Длительность | Начальный сектор | Конечный сектор
––––––––––––––––––––––––––––––––––-
1 | 0:00.00 | 4:51.25 | 0 | 21849
2 | 4:51.25 | 5:42.51 | 21850 | 47550
3 | 10:34.01 | 2:59.45 | 47551 | 61020
4 | 13:33.46 | 7:35.14 | 61021 | 95159
5 | 21:08.60 | 2:46.04 | 95160 | 107613
6 | 23:54.64 | 4:58.16 | 107614 | 129979
7 | 28:53.05 | 2:52.27 | 129980 | 142906
8 | 31:45.32 | 6:28.47 | 142907 | 172053
9 | 38:14.04 | 4:38.63 | 172054 | 192966
10 | 42:52.67 | 5:52.73 | 192967 | 219439
11 | 48:45.65 | 4:50.23 | 219440 | 241212
12 | 53:36.13 | 11:45.50 | 241213 | 294137
13 | 65:21.63 | 7:31.67 | 294138 | 328029
14 | 72:53.55 | 3:06.61 | 328030 | 342040
15 | 76:00.41 | 2:23.56 | 342041 | 352821
16 | 78:24.22 | 0:21.30 | 352822 | 354426

Характеристики диапазона извлечения и сообщения об ошибках

Выбранный диапазон

Имя файла C:\Users\MASTER\Downloads\_раздачи\Classical Discovery (Berlin Classics) 12 CD\CD 8 - Romantik\Die Geschichte der klassischen Musik - [CD08] Romantik.wav

Пиковый уровень 100.0 %
Скорость извлечения 4.7 X
Качество диапазона 99.9 %
CRC копии F1ADA927
Копирование… OK

Ошибок не произошло

AccurateRip: сводка

Трек 1 : извлечено точно (доверие 1) [E7ABB542] (AR v1)
Трек 2 : извлечено точно (доверие 1) [82512435] (AR v1)
Трек 3 : извлечено точно (доверие 1) [23A0FBE1] (AR v1)
Трек 4 : извлечено точно (доверие 1) [9A078F76] (AR v1)
Трек 5 : извлечено точно (доверие 1) [EBB3C5C4] (AR v1)
Трек 6 : извлечено точно (доверие 1) [B44E8313] (AR v1)
Трек 7 : извлечено точно (доверие 1) [F880B0A7] (AR v1)
Трек 8 : извлечено точно (доверие 1) [A61A3E5F] (AR v1)
Трек 9 : извлечено точно (доверие 1) [CEA70159] (AR v1)
Трек 10 : извлечено точно (доверие 1) [A9FD25B1] (AR v1)
Трек 11 : извлечено точно (доверие 1) [ADDAA193] (AR v1)
Трек 12 : извлечено точно (доверие 1) [BEA22D43] (AR v1)
Трек 13 : извлечено точно (доверие 1) [45AA67EA] (AR v1)
Трек 14 : извлечено точно (доверие 1) [57969E56] (AR v1)
Трек 15 : извлечено точно (доверие 1) [D829F0C6] (AR v1)
Трек 16 : извлечено точно (доверие 1) [29897E66] (AR v1)

Все треки извлечены точно

Конец отчёта

==== Контрольная сумма отчёта F7E1B342D49FD5F3FCFC79F80214A3231B3DA8AE25FF916B9693976A9F355010 ====


Отчёт EAC CD9
Exact Audio Copy V1.0 beta 3 from 29. August 2011

Отчёт EAC об извлечении, выполненном 30. октября 2013, 16:28

- / [CD09] Romantik

Дисковод: TSSTcorpDVD+-RW TS-L632H Adapter: 1 ID: 0

Режим чтения : Достоверность
Использование точного потока : Да
Отключение кэша аудио : Да
Использование указателей C2 : Нет

Коррекция смещения при чтении : 6
Способность читать области Lead-in и Lead-out : Нет
Заполнение пропущенных сэмплов тишиной : Да
Удаление блоков с тишиной в начале и конце : Нет
При вычислениях CRC использовались нулевые сэмплы : Да
Интерфейс : Встроенный Win32-интерфейс для Win NT/2000

Выходной формат : Пользовательский кодировщик
Выбранный битрейт : 128 kBit/s
Качество : Высокий
Добавление ID3-тега : Нет
Утилита сжатия : C:\Program Files\Exact Audio Copy\Flac\flac.exe
Дополнительные параметры : -V -8 %source%

TOC извлечённого CD

Трек | Старт | Длительность | Начальный сектор | Конечный сектор
––––––––––––––––––––––––––––––––––-
1 | 0:00.00 | 10:12.54 | 0 | 45953
2 | 10:12.54 | 11:00.44 | 45954 | 95497
3 | 21:13.23 | 7:53.18 | 95498 | 130990
4 | 29:06.41 | 5:38.35 | 130991 | 156375
5 | 34:45.01 | 3:33.18 | 156376 | 172368
6 | 38:18.19 | 5:41.57 | 172369 | 198000
7 | 44:00.01 | 12:52.74 | 198001 | 255974
8 | 56:53.00 | 0:42.39 | 255975 | 259163
9 | 57:35.39 | 4:09.11 | 259164 | 277849
10 | 61:44.50 | 5:15.12 | 277850 | 301486
11 | 66:59.62 | 6:13.63 | 301487 | 329524
12 | 73:13.50 | 3:56.58 | 329525 | 347282

Характеристики диапазона извлечения и сообщения об ошибках

Выбранный диапазон

Имя файла C:\Users\MASTER\Downloads\_раздачи\Classical Discovery (Berlin Classics) 12 CD\CD 9 - Romantik\Die Geschichte der klassischen Musik - [CD09] Romantik.wav

Пиковый уровень 99.9 %
Скорость извлечения 4.5 X
Качество диапазона 100.0 %
CRC копии F701FF40
Копирование… OK

Ошибок не произошло

AccurateRip: сводка

Трек 1 : извлечено точно (доверие 1) [12F30869] (AR v1)
Трек 2 : извлечено точно (доверие 1) [2ECF72B9] (AR v1)
Трек 3 : извлечено точно (доверие 1) [5956ECD1] (AR v1)
Трек 4 : извлечено точно (доверие 1) [CE9157A2] (AR v1)
Трек 5 : извлечено точно (доверие 1) [2C0AA225] (AR v1)
Трек 6 : извлечено точно (доверие 1) [F24D8ABC] (AR v1)
Трек 7 : извлечено точно (доверие 1) [9B47C12E] (AR v1)
Трек 8 : извлечено точно (доверие 1) [F2D3F59D] (AR v1)
Трек 9 : извлечено точно (доверие 1) [9A3CFACC] (AR v1)
Трек 10 : извлечено точно (доверие 1) [9987F4F3] (AR v1)
Трек 11 : извлечено точно (доверие 1) [0E1727CF] (AR v1)
Трек 12 : извлечено точно (доверие 1) [F5B6F8FD] (AR v1)

Все треки извлечены точно

Конец отчёта

==== Контрольная сумма отчёта D5380251D6546612E8F97AED0D71748EDA04F84CF865880FB3910F36E47733B7 ====


Отчёт EAC CD10
Exact Audio Copy V1.0 beta 3 from 29. August 2011

Отчёт EAC об извлечении, выполненном 30. октября 2013, 16:54

- / [CD010] Romantik

Дисковод: TSSTcorpDVD+-RW TS-L632H Adapter: 1 ID: 0

Режим чтения : Достоверность
Использование точного потока : Да
Отключение кэша аудио : Да
Использование указателей C2 : Нет

Коррекция смещения при чтении : 6
Способность читать области Lead-in и Lead-out : Нет
Заполнение пропущенных сэмплов тишиной : Да
Удаление блоков с тишиной в начале и конце : Нет
При вычислениях CRC использовались нулевые сэмплы : Да
Интерфейс : Встроенный Win32-интерфейс для Win NT/2000

Выходной формат : Пользовательский кодировщик
Выбранный битрейт : 128 kBit/s
Качество : Высокий
Добавление ID3-тега : Нет
Утилита сжатия : C:\Program Files\Exact Audio Copy\Flac\flac.exe
Дополнительные параметры : -V -8 %source%

TOC извлечённого CD

Трек | Старт | Длительность | Начальный сектор | Конечный сектор
––––––––––––––––––––––––––––––––––-
1 | 0:00.00 | 10:14.05 | 0 | 46054
2 | 10:14.05 | 10:19.52 | 46055 | 92531
3 | 20:33.57 | 1:17.64 | 92532 | 98370
4 | 21:51.46 | 10:49.26 | 98371 | 147071
5 | 32:40.72 | 7:11.34 | 147072 | 179430
6 | 39:52.31 | 1:29.07 | 179431 | 186112
7 | 41:21.38 | 11:46.08 | 186113 | 239070
8 | 53:07.46 | 9:01.31 | 239071 | 279676
9 | 62:09.02 | 3:15.49 | 279677 | 294350
10 | 65:24.51 | 9:42.01 | 294351 | 338001
11 | 75:06.52 | 2:45.16 | 338002 | 350392

Характеристики диапазона извлечения и сообщения об ошибках

Выбранный диапазон

Имя файла C:\Users\MASTER\Downloads\_раздачи\Classical Discovery (Berlin Classics) 12 CD\CD 10 - Romantik\Die Geschichte der klassischen Musik - [CD010] Romantik.wav

Пиковый уровень 100.0 %
Скорость извлечения 4.7 X
Качество диапазона 99.9 %
CRC копии 8341E8EA
Копирование… OK

Ошибок не произошло

AccurateRip: сводка

Трек 1 : извлечено точно (доверие 1) [95456579] (AR v1)
Трек 2 : извлечено точно (доверие 1) [1290CB83] (AR v1)
Трек 3 : извлечено точно (доверие 1) [5BB5AD18] (AR v1)
Трек 4 : извлечено точно (доверие 1) [D8C401A2] (AR v1)
Трек 5 : извлечено точно (доверие 1) [A6F8FD8F] (AR v1)
Трек 6 : извлечено точно (доверие 1) [0B1D4F71] (AR v1)
Трек 7 : извлечено точно (доверие 1) [E567DC12] (AR v1)
Трек 8 : извлечено точно (доверие 1) [16848E43] (AR v1)
Трек 9 : извлечено точно (доверие 1) [C06665BA] (AR v1)
Трек 10 : извлечено точно (доверие 1) [922134BB] (AR v1)
Трек 11 : извлечено точно (доверие 1) [C83AFF33] (AR v1)

Все треки извлечены точно

Конец отчёта

==== Контрольная сумма отчёта E1E4F0DF9B0DFBF080874AB1F4D262BD0A469DB56A117E5B435E2E2D1A515F92 ====


Отчёт EAC CD11
Exact Audio Copy V1.0 beta 3 from 29. August 2011

Отчёт EAC об извлечении, выполненном 30. октября 2013, 17:19

- / [CD011] Moderne

Дисковод: TSSTcorpDVD+-RW TS-L632H Adapter: 1 ID: 0

Режим чтения : Достоверность
Использование точного потока : Да
Отключение кэша аудио : Да
Использование указателей C2 : Нет

Коррекция смещения при чтении : 6
Способность читать области Lead-in и Lead-out : Нет
Заполнение пропущенных сэмплов тишиной : Да
Удаление блоков с тишиной в начале и конце : Нет
При вычислениях CRC использовались нулевые сэмплы : Да
Интерфейс : Встроенный Win32-интерфейс для Win NT/2000

Выходной формат : Пользовательский кодировщик
Выбранный битрейт : 128 kBit/s
Качество : Высокий
Добавление ID3-тега : Нет
Утилита сжатия : C:\Program Files\Exact Audio Copy\Flac\flac.exe
Дополнительные параметры : -V -8 %source%

TOC извлечённого CD

Трек | Старт | Длительность | Начальный сектор | Конечный сектор
––––––––––––––––––––––––––––––––––-
1 | 0:00.00 | 4:56.26 | 0 | 22225
2 | 4:56.26 | 3:37.46 | 22226 | 38546
3 | 8:33.72 | 9:36.69 | 38547 | 81815
4 | 18:10.66 | 2:15.48 | 81816 | 91988
5 | 20:26.39 | 2:31.16 | 91989 | 103329
6 | 22:57.55 | 4:32.02 | 103330 | 123731
7 | 27:29.57 | 4:48.47 | 123732 | 145378
8 | 32:18.29 | 14:31.46 | 145379 | 210749
9 | 46:50.00 | 14:00.17 | 210750 | 273766
10 | 60:50.17 | 5:17.65 | 273767 | 297606
11 | 66:08.07 | 3:35.25 | 297607 | 313756
12 | 69:43.32 | 6:36.14 | 313757 | 343470

Характеристики диапазона извлечения и сообщения об ошибках

Выбранный диапазон

Имя файла C:\Users\MASTER\Downloads\_раздачи\Classical Discovery (Berlin Classics) 12 CD\CD 11 - Moderne\Die Geschichte der klassischen Musik - [CD011] Moderne.wav

Пиковый уровень 100.0 %
Скорость извлечения 4.6 X
Качество диапазона 99.9 %
CRC копии 50D89839
Копирование… OK

Ошибок не произошло

AccurateRip: сводка

Трек 1 : извлечено точно (доверие 1) [18972AF0] (AR v1)
Трек 2 : извлечено точно (доверие 1) [6CE73B50] (AR v1)
Трек 3 : извлечено точно (доверие 1) [EE794FA8] (AR v1)
Трек 4 : извлечено точно (доверие 1) [90AB79ED] (AR v1)
Трек 5 : извлечено точно (доверие 1) [7C1B3862] (AR v1)
Трек 6 : извлечено точно (доверие 1) [346F412C] (AR v1)
Трек 7 : извлечено точно (доверие 1) [D6CEB331] (AR v1)
Трек 8 : извлечено точно (доверие 1) [633D8ACD] (AR v1)
Трек 9 : извлечено точно (доверие 1) [9456799E] (AR v1)
Трек 10 : извлечено точно (доверие 1) [322A5978] (AR v1)
Трек 11 : извлечено точно (доверие 1) [0582EEB6] (AR v1)
Трек 12 : извлечено точно (доверие 1) [DFDEB594] (AR v1)

Все треки извлечены точно

Конец отчёта

==== Контрольная сумма отчёта 166045861E98265DD9F9BF4455346611F4D1E407BB7938C63D0289ACC1A9EB07 ====


Отчёт EAC CD12
Exact Audio Copy V1.0 beta 3 from 29. August 2011

Отчёт EAC об извлечении, выполненном 30. октября 2013, 17:48

- / [CD12] Moderne

Дисковод: TSSTcorpDVD+-RW TS-L632H Adapter: 1 ID: 0

Режим чтения : Достоверность
Использование точного потока : Да
Отключение кэша аудио : Да
Использование указателей C2 : Нет

Коррекция смещения при чтении : 6
Способность читать области Lead-in и Lead-out : Нет
Заполнение пропущенных сэмплов тишиной : Да
Удаление блоков с тишиной в начале и конце : Нет
При вычислениях CRC использовались нулевые сэмплы : Да
Интерфейс : Встроенный Win32-интерфейс для Win NT/2000

Выходной формат : Пользовательский кодировщик
Выбранный битрейт : 128 kBit/s
Качество : Высокий
Добавление ID3-тега : Нет
Утилита сжатия : C:\Program Files\Exact Audio Copy\Flac\flac.exe
Дополнительные параметры : -V -8 %source%

TOC извлечённого CD

Трек | Старт | Длительность | Начальный сектор | Конечный сектор
––––––––––––––––––––––––––––––––––-
1 | 0:00.00 | 1:15.14 | 0 | 5638
2 | 1:15.14 | 1:04.40 | 5639 | 10478
3 | 2:19.54 | 2:13.54 | 10479 | 20507
4 | 4:33.33 | 1:11.43 | 20508 | 25875
5 | 5:45.01 | 10:58.28 | 25876 | 75253
6 | 16:43.29 | 2:30.05 | 75254 | 86508
7 | 19:13.34 | 3:29.26 | 86509 | 102209
8 | 22:42.60 | 2:59.33 | 102210 | 115667
9 | 25:42.18 | 2:35.53 | 115668 | 127345
10 | 28:17.71 | 6:36.48 | 127346 | 157093
11 | 34:54.44 | 8:30.30 | 157094 | 195373
12 | 43:24.74 | 4:10.55 | 195374 | 214178
13 | 47:35.54 | 11:07.16 | 214179 | 264219
14 | 58:42.70 | 4:09.14 | 264220 | 282908
15 | 62:52.09 | 4:30.32 | 282909 | 303190
16 | 67:22.41 | 6:41.02 | 303191 | 333267
17 | 74:03.43 | 5:31.32 | 333268 | 358124

Характеристики диапазона извлечения и сообщения об ошибках

Выбранный диапазон

Имя файла C:\Users\MASTER\Downloads\_раздачи\Classical Discovery (Berlin Classics) 12 CD\CD 12 - Moderne\Die Geschichte der klassischen Musik - [CD012] Moderne.wav

Пиковый уровень 100.0 %
Скорость извлечения 4.7 X
Качество диапазона 100.0 %
CRC копии 8CC14388
Копирование… OK

Ошибок не произошло

AccurateRip: сводка

Трек 1 : извлечено точно (доверие 1) [31F6701D] (AR v1)
Трек 2 : извлечено точно (доверие 1) [E4524E19] (AR v1)
Трек 3 : извлечено точно (доверие 1) [F76D0311] (AR v1)
Трек 4 : извлечено точно (доверие 1) [8570C645] (AR v1)
Трек 5 : извлечено точно (доверие 1) [10EC3CFD] (AR v1)
Трек 6 : извлечено точно (доверие 1) [C81F86D3] (AR v1)
Трек 7 : извлечено точно (доверие 1) [02A72A14] (AR v1)
Трек 8 : извлечено точно (доверие 1) [F65D1913] (AR v1)
Трек 9 : извлечено точно (доверие 1) [660C3CD0] (AR v1)
Трек 10 : извлечено точно (доверие 1) [352C0C2E] (AR v1)
Трек 11 : извлечено точно (доверие 1) [2D59697B] (AR v1)
Трек 12 : извлечено точно (доверие 1) [1C51A6FB] (AR v1)
Трек 13 : извлечено точно (доверие 1) [3F8E94A1] (AR v1)
Трек 14 : извлечено точно (доверие 1) [0FBC827E] (AR v1)
Трек 15 : извлечено точно (доверие 1) [1039CC73] (AR v1)
Трек 16 : извлечено точно (доверие 1) [F28AC9A2] (AR v1)
Трек 17 : извлечено точно (доверие 1) [CA9B9811] (AR v1)

Все треки извлечены точно

Конец отчёта

==== Контрольная сумма отчёта D70C9B4451D260DCA568F781198FCA99549FD4817FDF2BB20C2B58F96C321DA1 ====

VA - Classical Discovery: History of Classical Music (2009) (12 CDs Box Set)


Thanks to the original ripper.