Subcategories

VA - Dream Babes Volume Four - Go Girl (2003)

Posted By: tirexiss
VA - Dream Babes Volume Four - Go Girl (2003)

VA - Dream Babes Volume Four - Go Girl (2003)
EAC | FLAC (tracks+.cue, log) | Covers Included | 01:00:23 | 304 MB
Genre: Pop | Label: RPM Records | Catalog: RPM 259

Although volume four of RPM's Dream Babes series of 1960s British girl group sides gets further into obscure flops than its predecessors, there's barely any drop in the quality, which remains good, though hardly great. And as with most of the rest of the songs on this series, the production's better than the singers or the material. That's not to say there aren't some pretty good cuts on this 22-song anthology, some of them explicitly derivative of the American girl group sound (like the Chantelles' cracking "I Want That Boy," a cover of an obscure U.S. single by Sadina), others taking a pop-soul approach, others mixing in some British beat music. Some of these performers are famous, but not for their music: two sides of a 1967 Twiggy single are here, as are a couple of 1968 tracks by Linda Thorson (who played Tara King on The Avengers). Highlights include the Orchids' stomping, pining adolescent girl group "Mr. Scrooge" (produced and co-written by Who/Kinks producer Shel Talmy); the Chantelles' credible emulation of slickly lush American pop-soul on "I Think of You"; and the British Invasion-cum-Everly Brothers harmonies of the McKinley Sisters' pounding "When He Comes Along" (by Geoff Stephens, author of "The Crying Game"). Plenty of other names well-known to British Invasion fans were involved in some of these sides in some capacity, like John Carter and Ken Lewis (who wrote the McKinleys' nice ballad "That Lonely Feeling"); session guitar ace Big Jim Sullivan, who plays tone pedal guitar on that track, as he had on Dave Berry's "The Crying Game"; Tim Rice and Andrew Lloyd Webber, who wrote Ross Hannaman's Marianne Faithfull-like 1967 single "Down Through Summer"; producer Mike Leander, who wrote the Breakaways' gloomy ballad "Sacred Love"; and Kenny Lynch, who wrote the Linda Thorson sides. Released for the first time here is Jacki Bond's 1967 recording of "Reviewing the Situation," cut a couple of years prior to Sandie Shaw's release of the same tune on her 1969 album of the same name.

VA - Dream Babes Volume Four - Go Girl (2003)

Track List:

01. The Chantelles - I Want That Boy (02:01) 1965
02. The Orchids - Love Hit Me (02:06) 1963
03. The Chantelles - Gonna Give Him Some Love (02:38) 1965
04. Paula Parfitt - Love Is Wonderful (03:05) 1969
05. Linda Thorson - Here I Am (02:37) 1968
06. Twiggy - When I Think Of You (02:30) 1967
07. Janie Jones - Go Go Away From Me (01:57) 1966
08. The Orchids - Mr Scrooge (02:37) 1964
09. Jacki Bond - He Say (02:15) 1966
10. The Orchids - Gonna Make Him Mine (02:17) 1963
11. The Chantelles - Please Don't Kiss Me (02:28) 1966
12. The Chantelles - I Think Of You (02:43) 1966
13. The McKinleys - When He Comes Along (02:44) 1964
14. Linda Thorson - Bad Time To Stop Loving Me (03:34) 1968
15. The Breakaways - I Can Hear Music (03:15) 1969
16. The McKinleys - That Lonely Feeling (02:28) 1965
17. Ross Hannaman - Down Through Summer (02:56) 1967
18. Janie Jones - The Time Has Come To Choose (03:57) 1968 (1997)
19. The Breakaways - Sacred Love (03:21) 1967
20. Jacki Bond - Reviewing The Situation (02:56) 1967 (2003)
21. The Chantelles - Another Time Another World (03:01) 1973
22. Twiggy - Beautiful Dreams (02:48) 1967

Exact Audio Copy V1.3 from 2. September 2016

EAC extraction logfile from 20. October 2018, 20:42

Various Artists / Dream Babes Volume Four - Go Girl

Used drive : Optiarc DVD RW AD-7260S Adapter: 1 ID: 1

Read mode : Secure
Utilize accurate stream : Yes
Defeat audio cache : Yes
Make use of C2 pointers : No

Read offset correction : 48
Overread into Lead-In and Lead-Out : No
Fill up missing offset samples with silence : Yes
Delete leading and trailing silent blocks : No
Null samples used in CRC calculations : Yes
Used interface : Native Win32 interface for Win NT & 2000
Gap handling : Appended to previous track

Used output format : User Defined Encoder
Selected bitrate : 768 kBit/s
Quality : High
Add ID3 tag : No
Command line compressor : C:\Program Files (x86)\Exact Audio Copy\FLAC\FLAC.EXE
Additional command line options : -V -8 -T "Genre=%genre%" -T "Artist=%artist%" -T "Title=%title%" -T "Album=%albumtitle%" -T "Date=%year%" -T "Tracknumber=%tracknr%" -T "Comment=%comment%" %source%


TOC of the extracted CD

Track | Start | Length | Start sector | End sector
––––––––––––––––––––––––––––-
1 | 0:00.00 | 2:01.44 | 0 | 9118
2 | 2:01.44 | 2:06.39 | 9119 | 18607
3 | 4:08.08 | 2:38.63 | 18608 | 30520
4 | 6:46.71 | 3:05.09 | 30521 | 44404
5 | 9:52.05 | 2:37.49 | 44405 | 56228
6 | 12:29.54 | 2:30.70 | 56229 | 67548
7 | 15:00.49 | 1:57.30 | 67549 | 76353
8 | 16:58.04 | 2:37.60 | 76354 | 88188
9 | 19:35.64 | 2:15.06 | 88189 | 98319
10 | 21:50.70 | 2:17.17 | 98320 | 108611
11 | 24:08.12 | 2:28.30 | 108612 | 119741
12 | 26:36.42 | 2:43.15 | 119742 | 131981
13 | 29:19.57 | 2:44.16 | 131982 | 144297
14 | 32:03.73 | 3:34.36 | 144298 | 160383
15 | 35:38.34 | 3:15.17 | 160384 | 175025
16 | 38:53.51 | 2:28.37 | 175026 | 186162
17 | 41:22.13 | 2:56.55 | 186163 | 199417
18 | 44:18.68 | 3:57.00 | 199418 | 217192
19 | 48:15.68 | 3:21.01 | 217193 | 232268
20 | 51:36.69 | 2:56.74 | 232269 | 245542
21 | 54:33.68 | 3:01.19 | 245543 | 259136
22 | 57:35.12 | 2:48.11 | 259137 | 271747


Track 1

Filename D:\USERS\admin\Documents\Dream Babes Volume Four - Go Girl\01 - The Chantelles - I Want That Boy.wav

Pre-gap length 0:00:02.00

Peak level 97.8 %
Extraction speed 3.7 X
Track quality 100.0 %
Test CRC 6AF53398
Copy CRC 6AF53398
Cannot be verified as accurate (confidence 4) [343972F8], AccurateRip returned [CDF8CC92] (AR v2)
Copy OK

Track 2

Filename D:\USERS\admin\Documents\Dream Babes Volume Four - Go Girl\02 - The Orchids - Love Hit Me.wav

Pre-gap length 0:00:03.00

Peak level 100.0 %
Extraction speed 2.8 X
Track quality 99.9 %
Test CRC E3BB4F4A
Copy CRC E3BB4F4A
Cannot be verified as accurate (confidence 4) [F4F15DEB], AccurateRip returned [B4AA22B9] (AR v2)
Copy OK

Track 3

Filename D:\USERS\admin\Documents\Dream Babes Volume Four - Go Girl\03 - The Chantelles - Gonna Give Him Some Love.wav

Pre-gap length 0:00:03.00

Peak level 93.5 %
Extraction speed 4.1 X
Track quality 100.0 %
Test CRC DEAD6F41
Copy CRC DEAD6F41
Cannot be verified as accurate (confidence 4) [0DA68E12], AccurateRip returned [10C19ACE] (AR v2)
Copy OK

Track 4

Filename D:\USERS\admin\Documents\Dream Babes Volume Four - Go Girl\04 - Paula Parfitt - Love Is Wonderful.wav

Pre-gap length 0:00:03.01

Peak level 100.0 %
Extraction speed 4.1 X
Track quality 100.0 %
Test CRC 0B04D4EE
Copy CRC 0B04D4EE
Cannot be verified as accurate (confidence 4) [A63163A0], AccurateRip returned [5BF3EB0E] (AR v2)
Copy OK

Track 5

Filename D:\USERS\admin\Documents\Dream Babes Volume Four - Go Girl\05 - Linda Thorson - Here I Am.wav

Pre-gap length 0:00:03.00

Peak level 100.0 %
Extraction speed 4.4 X
Track quality 100.0 %
Test CRC D60D9957
Copy CRC D60D9957
Cannot be verified as accurate (confidence 4) [A0133DDA], AccurateRip returned [55F85BF2] (AR v2)
Copy OK

Track 6

Filename D:\USERS\admin\Documents\Dream Babes Volume Four - Go Girl\06 - Twiggy - When I Think Of You.wav

Pre-gap length 0:00:03.00

Peak level 100.0 %
Extraction speed 4.6 X
Track quality 100.0 %
Test CRC 484CF3C9
Copy CRC 484CF3C9
Cannot be verified as accurate (confidence 4) [50CCB9A1], AccurateRip returned [E075D456] (AR v2)
Copy OK

Track 7

Filename D:\USERS\admin\Documents\Dream Babes Volume Four - Go Girl\07 - Janie Jones - Go Go Away From Me.wav

Pre-gap length 0:00:03.01

Peak level 98.3 %
Extraction speed 4.5 X
Track quality 100.0 %
Test CRC 926A0782
Copy CRC 926A0782
Cannot be verified as accurate (confidence 4) [90264BE0], AccurateRip returned [27F2A54E] (AR v2)
Copy OK

Track 8

Filename D:\USERS\admin\Documents\Dream Babes Volume Four - Go Girl\08 - The Orchids - Mr Scrooge.wav

Pre-gap length 0:00:03.00

Peak level 99.3 %
Extraction speed 5.0 X
Track quality 100.0 %
Test CRC 8A936B7A
Copy CRC 8A936B7A
Cannot be verified as accurate (confidence 4) [C4733D00], AccurateRip returned [99AC672A] (AR v2)
Copy OK

Track 9

Filename D:\USERS\admin\Documents\Dream Babes Volume Four - Go Girl\09 - Jacki Bond - He Say.wav

Pre-gap length 0:00:03.01

Peak level 94.7 %
Extraction speed 3.7 X
Track quality 99.9 %
Test CRC 3C7BC264
Copy CRC 3C7BC264
Cannot be verified as accurate (confidence 4) [3BB97A50], AccurateRip returned [8374A407] (AR v2)
Copy OK

Track 10

Filename D:\USERS\admin\Documents\Dream Babes Volume Four - Go Girl\10 - The Orchids - Gonna Make Him Mine.wav

Pre-gap length 0:00:03.01

Peak level 100.0 %
Extraction speed 5.3 X
Track quality 100.0 %
Test CRC 93025E60
Copy CRC 93025E60
Cannot be verified as accurate (confidence 4) [9BAA3F35], AccurateRip returned [3BDD8347] (AR v2)
Copy OK

Track 11

Filename D:\USERS\admin\Documents\Dream Babes Volume Four - Go Girl\11 - The Chantelles - Please Don't Kiss Me.wav

Pre-gap length 0:00:03.00

Peak level 100.0 %
Extraction speed 4.0 X
Track quality 99.9 %
Test CRC 3FC4056F
Copy CRC 3FC4056F
Cannot be verified as accurate (confidence 4) [A89D959F], AccurateRip returned [7AE5FE21] (AR v2)
Copy OK

Track 12

Filename D:\USERS\admin\Documents\Dream Babes Volume Four - Go Girl\12 - The Chantelles - I Think Of You.wav

Pre-gap length 0:00:03.01

Peak level 100.0 %
Extraction speed 5.4 X
Track quality 100.0 %
Test CRC 9BE18CC0
Copy CRC 9BE18CC0
Cannot be verified as accurate (confidence 4) [DC9BEA48], AccurateRip returned [E943F2F5] (AR v2)
Copy OK

Track 13

Filename D:\USERS\admin\Documents\Dream Babes Volume Four - Go Girl\13 - The McKinleys - When He Comes Along.wav

Pre-gap length 0:00:03.00

Peak level 100.0 %
Extraction speed 5.6 X
Track quality 100.0 %
Test CRC 8D8D41FB
Copy CRC 8D8D41FB
Cannot be verified as accurate (confidence 4) [8F712A20], AccurateRip returned [3066559B] (AR v2)
Copy OK

Track 14

Filename D:\USERS\admin\Documents\Dream Babes Volume Four - Go Girl\14 - Linda Thorson - Bad Time To Stop Loving Me.wav

Pre-gap length 0:00:03.01

Peak level 100.0 %
Extraction speed 4.6 X
Track quality 99.9 %
Test CRC E01E20C7
Copy CRC E01E20C7
Cannot be verified as accurate (confidence 4) [D1F773B8], AccurateRip returned [836C1940] (AR v2)
Copy OK

Track 15

Filename D:\USERS\admin\Documents\Dream Babes Volume Four - Go Girl\15 - The Breakaways - I Can Hear Music.wav

Pre-gap length 0:00:03.01

Peak level 100.0 %
Extraction speed 4.7 X
Track quality 99.9 %
Test CRC 1F25418A
Copy CRC 1F25418A
Cannot be verified as accurate (confidence 4) [BB1BA59A], AccurateRip returned [CB331156] (AR v2)
Copy OK

Track 16

Filename D:\USERS\admin\Documents\Dream Babes Volume Four - Go Girl\16 - The McKinleys - That Lonely Feeling.wav

Pre-gap length 0:00:03.00

Peak level 99.2 %
Extraction speed 6.2 X
Track quality 100.0 %
Test CRC 7F5D5A91
Copy CRC 7F5D5A91
Cannot be verified as accurate (confidence 4) [E027E10D], AccurateRip returned [F4E5F6AE] (AR v2)
Copy OK

Track 17

Filename D:\USERS\admin\Documents\Dream Babes Volume Four - Go Girl\17 - Ross Hannaman - Down Through Summer.wav

Pre-gap length 0:00:03.00

Peak level 100.0 %
Extraction speed 6.2 X
Track quality 100.0 %
Test CRC 7AE38B13
Copy CRC 7AE38B13
Cannot be verified as accurate (confidence 4) [FB1BAC7B], AccurateRip returned [AA86FD07] (AR v2)
Copy OK

Track 18

Filename D:\USERS\admin\Documents\Dream Babes Volume Four - Go Girl\18 - Janie Jones - The Time Has Come To Choose.wav

Pre-gap length 0:00:03.00

Peak level 100.0 %
Extraction speed 5.9 X
Track quality 100.0 %
Test CRC 11A6D8F8
Copy CRC 11A6D8F8
Cannot be verified as accurate (confidence 4) [B22FEC86], AccurateRip returned [0E6A4D20] (AR v2)
Copy OK

Track 19

Filename D:\USERS\admin\Documents\Dream Babes Volume Four - Go Girl\19 - The Breakaways - Sacred Love.wav

Pre-gap length 0:00:03.01

Peak level 100.0 %
Extraction speed 6.3 X
Track quality 100.0 %
Test CRC A915C06B
Copy CRC A915C06B
Cannot be verified as accurate (confidence 4) [A124A2F1], AccurateRip returned [E359289C] (AR v2)
Copy OK

Track 20

Filename D:\USERS\admin\Documents\Dream Babes Volume Four - Go Girl\20 - Jacki Bond - Reviewing The Situation.wav

Pre-gap length 0:00:03.00

Peak level 91.8 %
Extraction speed 6.6 X
Track quality 100.0 %
Test CRC 5908D776
Copy CRC 5908D776
Cannot be verified as accurate (confidence 4) [5F9FDC3E], AccurateRip returned [10021139] (AR v2)
Copy OK

Track 21

Filename D:\USERS\admin\Documents\Dream Babes Volume Four - Go Girl\21 - The Chantelles - Another Time Another World.wav

Pre-gap length 0:00:03.01

Peak level 100.0 %
Extraction speed 5.3 X
Track quality 99.9 %
Test CRC 2A128FD2
Copy CRC 2A128FD2
Cannot be verified as accurate (confidence 4) [752665CD], AccurateRip returned [715E3F76] (AR v2)
Copy OK

Track 22

Filename D:\USERS\admin\Documents\Dream Babes Volume Four - Go Girl\22 - Twiggy - Beautiful Dreams.wav

Pre-gap length 0:00:03.00

Peak level 99.8 %
Extraction speed 7.0 X
Track quality 100.0 %
Test CRC 2B423235
Copy CRC 2B423235
Cannot be verified as accurate (confidence 4) [6C0BCE5C], AccurateRip returned [9E7A60A3] (AR v2)
Copy OK


No tracks could be verified as accurate
You may have a different pressing from the one(s) in the database

No errors occurred

End of status report

==== Log checksum FA944DC740CAA9F648AC7ECB68F9B97787DDFFEF04847405FAFC89E8495B86DC ====

Thanks to the Original ripper (ekeskog)!

Download: