Tags
Language
Tags

VA - L'Histoire du Piano Jazz (The History of Piano Jazz) (2009) (25 CDs)

Posted By: murena
VA - L'Histoire du Piano Jazz (The History of Piano Jazz) (2009) (25 CDs)

VA - L'Histoire du Piano Jazz (The History of Piano Jazz) (2009) (25 CDs)
EAC Rip | FLAC (Tracks+.cue, log) | 25 CDs, 31:56:53 min | 7,6 Gb | Scans->246 mb
Genre: Jazz; Swing, West-Coast Jazz, Bop, Free Jazz / Label: Le Chant du Monde

In this magnificent collection presented melodies performed by these masters of jazz piano: Scott Joplin, James P. Johnson, Eubie Blake, Mandy Randolph, Duke Ellington, Art Tatum, Joe Sullivan, Teddy Wilson, Count Basie, Oscar Peterson, Thelonious Monk, Nat King Cole and many, many others …

VA - L'Histoire du Piano Jazz (The History of Piano Jazz) (2009) (25 CDs)

VOLUMES:
L'Histoire Du Piano Jazz CD 1 (77:58)
L'Histoire Du Piano Jazz CD 2 (76:44)
L'Histoire Du Piano Jazz CD 3 (75:30)
L'Histoire Du Piano Jazz CD 4 (76:09)
L'Histoire Du Piano Jazz CD 5 (77:39)
L'Histoire Du Piano Jazz CD 6 (77:43)
L'Histoire Du Piano Jazz CD 7 (75:29)
L'Histoire Du Piano Jazz CD 8 (77:59)
L'Histoire Du Piano Jazz CD 9 (77:08)
L'Histoire Du Piano Jazz CD 10 (77:24)
L'Histoire Du Piano Jazz CD 11 (77:29)
L'Histoire Du Piano Jazz CD 12 (77:42)
L'Histoire Du Piano Jazz CD 13 (75:29)
L'Histoire Du Piano Jazz CD 14 (77:39)
L'Histoire Du Piano Jazz CD 15 (73:31)
L'Histoire Du Piano Jazz CD 16 (77:58)
L'Histoire Du Piano Jazz CD 17 (75:41)
L'Histoire Du Piano Jazz CD 18 (77:25)
L'Histoire Du Piano Jazz CD 19 (75:34)
L'Histoire Du Piano Jazz CD 20 (77:19)
L'Histoire Du Piano Jazz CD 21 (76:49)
L'Histoire Du Piano Jazz CD 22 (76:15)
L'Histoire Du Piano Jazz CD 23 (76:23)
L'Histoire Du Piano Jazz CD 24 (75:23)
L'Histoire Du Piano Jazz CD 25 (76:33)

L'Histoire Du Piano Jazz Vol.1 (77:58)
01. Original Rags (Scott Joplin) 2:52
02. St. Louis Rag (Tom Turpin) 2:50
03. The Cascades (Scott Joplin) 2:09
04. Frog Legs Rag (James Scott) 2:47
05. A Real Slow Rag (Scott Joplin) 3:21
06. American Beauty Rag (Joseph Lamb) 2:45
07. Desecration Rag (Felix Arndt) 3:05
08. Magnetic Rag (Scott Joplin) 3:24
09. Maple Leaf Rag (Scott Joplin) 3:11
10. Charleston Rag (Eubie Blake) 3:06
11. Blooie Blooie (Edythe Baker) 2:01
12. Cryin' Blues (Mandy Randolph) 3:00
13. Home Again Blues (Eubie Blake) 2:39
14. Arkansas Blues (Eubie Blake) 2:57
15. Sounds Of Africa (Eubie Blake) 3:12
16. Harlem Strut (James P. Johnson) 2:37
17. Arkansas Blues (James P. Johnson) 4:20
18. Carolina Shout (James P. Johnson) 2:48
19. Kitten On The Keys (Frank Banta, Jack Austin) 2:17
20. Muscle Shoals Blues (Fats Waller) 3:16
21. Hard Luck Blues (Everett Robbins) 4:25
22. Chime Blues (Fletcher Henderson) 3:31
23. Sugar Blues (Clarence Williams) 3:16
24. Snake Hips (Fats Waller) 2:27
25. Jazzin' Babies' Blues (Richard M. Jones) 2:45
26. New Orleans Joys (Jelly Roll Morton) 2:43

L'Histoire Du Piano Jazz Vol.2 (76:44)
01. The Pearls (Jelly Roll Morton) 3:15
02. Gulf Coast Blues (Clarence Johnson) 2:59
03. Mama's Got The Blues (Fats Waller) 2:54
04. Toddlin' (James P. Johnson) 2:45
05. The Fives (Hersal Thomas) 4:38
06. Chicago Stomp (Jimmy Blythe) 2:59
07. Perfect Rag (Jelly Roll Morton) 2:43
08. My Own Blues (Clarence Williams) 2:51
09. I Wonder Where My Baby Is Tonight (Frank Banta) 2:39
10. Fifth Street Blues (Charles "cow Cow" Davenport) 1:52
11. Squeeze Me (Fats Waller) 3:03
12. Boll Weevil Blues (Eubie Blake) 4:01
13. Hock Shop Blues (Cliff Jackson) 4:00
14. Dead Man Blues (Jelly Roll Morton) 4:17
15. Changes (Vee Lawnhurst) 2:58
16. All That I Had Is Gone (James P. Johnson) 2:47
17. Snowy Morning Blues (James P. Johnson) 2:42
18. Cow Cow Blues (Charles "cow Cow" Davenport) 3:08
19. Mr. Jelly Lord (Jelly Roll Morton) 2:52
20. Davis Street Blues (Sugar Underwood) 3:13
21. Dew-drop Alley (Sugar Underwood) 3:17
22. In A Mist (Bix Beiderbecke) 2:46
23. Down Out Blues (Lemuel Fowler) 4:28
24. Gin Mill Blues (Lemuel Fowler) 3:24


L'Histoire Du Piano Jazz Vol.3 (75:30)
01. Black Beauty (Duke Ellington) 3:02
02. Swampy River (Duke Ellington) 2:46
03. Weather Bird (Louis Armstrong, Earl Hines) 2:44
04. Blues In Thirds (Earl Hines) 2:53
05. Chimes In Blues (Earl Hines) 2:56
06. A Monday Date (Earl Hines) 3:12
07. Pinetop's Boogie Wooge (Pinetop Smith) 3:13
08. Riffs (James P. Johnson) 3:11
09. Too Low (Clarence Williams) 2:58
10. Glad Rag Doll (Earl Hines) 2:59
11. Handful Of Keys (Fats Waller) 2:48
12. Numb Fumblin' (Fats Waller) 2:50
13. Lover Come Back To Me (Arthur Schutt) 3:01
14. Chime Blues (Charles "cow Cow" Davenport) 3:14
15. Detroit Rocks (Montana Taylor) 3:20
16. Barrel House Woman (Will Ezell) 3:07
17. Freakish (Jelly Roll Morton) 2:58
18. Beau Koo Jack (Earl Hines) 2:44
19. Smashing Thirds (Fats Waller) 3:11
20. Dearborn Street Breakdown (Charles Avery) 3:17
21. Thirty-one Blues (Bob Call) 2:39
22. You've Got To Be Modernistic (James P. Johnson) 3:11
23. I've Found A New Baby (Clarence Williams, James P. Johnson) 2:53
24. Number 29 (Wesley Wallace) 3:15
25. Night Life (Mary Lou Williams) 2:54


L'Histoire Du Piano Jazz Vol.4 (76:09)
01. Memories Of You (Garland Wilson) 3:04
02. Lots O' Fingers (Duke Ellington) 2:15
03. Pratt City Blues (Jabo Williams) 3:20
04. Tiger Rag (Art Tatum) 2:21
05. Gin Mill Blues (Joe Sullivan) 3:12
06. Little Rock Getaway (Joe Sullivan) 2:59
07. Rosetta (Teddy Wilson) 3:09
08. Somebody Loves Me (Teddy Wilson) 3:07
09. St. Louis Blues (Herman Chittison) 3:24
10. Moonglow (Art Tatum) 2:38
11. Alligator Crawl (Fats Waller) 2:44
12. Viper's Drag (Fats Waller) 2:59
13. Clothes Line Ballet (Fats Waller) 3:00
14. Texas Stomp (Dot Rice) 3:27
15. Liza (Teddy Wilson) 2:57
16. Barrelhouse (Jess Stacy) 3:01
17. In The Dark / Flashes (Jess Stacy) 3:14
18. Cheek To Cheek (Joe Turner) 2:44
19. Mr. Freddie Blues (Meade Lux Lewis) 3:01
20. Overhand (Mary Lou Williams) 2:48
21. Farish Street Jive (Little Brother Montgomery) 2:34
22. Honky Tonk Train Blues (Meade Lux Lewis) 3:01
23. China Stomp (chinatown) (Lionel Hampton) 2:49
24. Swing Session (Duke Ellington) 1:47
25. Stardust (Fats Waller) 3:11
26. Keepin' Out Of Mischief Now (Fats Waller) 3:07


L'Histoire Du Piano Jazz Vol.5 (77:39)
01. Ain't Misbehavin' (Teddy Weatherford) 2:18
02. Piano Stomp (shine) (Lionel Hampton) 2:56
03. Where Or When (Teddy Wilson) 3:24
04. Don't Blame Me (Teddy Wilson) 3:02
05. Gone With The Wind (Art Tatum) 2:53
06. Morning Air (Willie "the Lion" Smith) 2:57
07. Ramblin' (Jess Stacy) 3:05
08. My Own Blues (Herman Chittison) 2:51
09. Don't Blame Me (Nat King Cole) 2:24
10. With Plenty Of Money And You (Nat King Cole) 2:13
11. Boogie Woogie (Count Basie) 3:05
12. The Dirty Dozens (Count Basie) 3:05
13. The Lion And The Lamb (Willie "the Lion" Smith, Joe Bushkin) 3:00
14. St. Louis Stomp (Rufus Perryman) 3:18
15. Boogie Woogie Prayer (Meade Lux Lewis) 4:58
16. Roll 'em Pete (Pete Johnson) 2:52
17. I Ain't Got Nobody (Count Basie) 3:51
18. Blue Boogie ("clipple" Clarence Lofton) 2:54
19. Boogie Woogie Stomp (Albert Ammons) 3:38
20. Suitcase Blues (Albert Ammons) 3:51
21. Passionette (Willie "the Lion" Smith) 2:47
22. Echoes Of Spring (Willie "the Lion" Smith) 2:45
23. Candlelights (Jess Stacy) 3:18
24. Dupree Blues (Count Basie) 3:08
25. Oh! Red (Count Basie) 2:53


L'Histoire Du Piano Jazz Vol.6 (77:43)
01. Red Wagon (Count Basie) 2:56
02. Blue Lou (Nat King Cole) 3:00
03. Far Ago Blues (Meade Lux Lewis) 4:06
04. Informal Blues (Duke Ellington) 2:44
05. Two Against One (Nat King Cole) 2:59
06. Wizzin' The Wizz (Lionel Hampton) 2:26
07. Tea For Two (Art Tatum) 2:36
08. Lone Star Blues (Pete Johnson) 3:08
09. The Fives (Jimmy Yancey) 3:06
10. Between Sets (Billy Kyle) 2:33
11. Rib Town Shuffle (Nat King Cole) 2:44
12. Blueberry Rhyme (James P. Johnson) 3:26
13. Over The Rainbow (Art Tatum) 3:50
14. South Side Shuffle (Art Hodes) 3:01
15. Margie (Mary Lou Williams) 2:28
16. Rosetta (Earl Hines) 3:07
17. State Street Special (Jimmy Yancey) 2:41
18. The Crave (Jelly Roll Morton) 3:08
19. Organ Grinder Blues (Art Hodes) 3:28
20. Humoresque (Art Tatum) 3:07
21. Child Of A Disordered Brain (Earl Hines) 2:37
22. Central Avenue Breakdown (Lionel Hampton, Nat King Cole) 3:04
23. I Can't Get Started Without You (James Bushkin) 3:01
24. Blue Because Of You (Nat King Cole) 3:00
25. Begin The Beguine (Art Tatum) 2:44
26. St. Louis Blues (Art Tatum) 2:28


L'Histoire Du Piano Jazz Vol.7 (75:29)
01. Rosetta (Art Tatum) 2:52
02. Yancey's Bugle Call (Jimmy Yancey) 2:43
03. Times Square Blues (Clarence Profit) 2:55
04. Rocco's Boogie Woogie (Maurice Rocco) 2:44
05. Mr. J.b. Blues (Duke Ellington) 3:05
06. Pitter Panther Patter (Duke Ellington) 3:10
07. This Side Up (Nat King Cole) 2:47
08. Anitra's Dance (Donald Lambert) 2:41
09. Fudge Wudge (Nat King Cole) 3:48
10. Windy City Boogie Woogie (Nat King Cole) 2:25
11. Early Morning Blues (Nat King Cole) 2:44
12. Andy's Blues (Joe Sullivan) 3:02
13. My Melancholy Baby (Earl Hines) 2:31
14. On The Sunny Side Of The Street (Earl Hines) 2:36
15. Rosetta (Teddy Wilson) 2:50
16. Body And Soul (Teddy Wilson) 3:16
17. China Boy (Teddy Wilson) 2:42
18. Hold 'em Hootie (Jay Mcshann) 2:41
19. Vine Street Boogie (Jay Mcshann) 2:37
20. Basement Boogie (Pete Johnson) 2:57
21. Death Ray Boogie (Pete Johnson) 3:02
22. Georgia On My Mind (Fats Waller) 3:00
23. Honeysuckle Rose (Fats Waller) 3:24
24. Solitude (Duke Ellington) 3:30
25. Sixth Avenue Express (Pete Johnson, Albert Ammons) 2:44
26. Foot Pedal Boogie (Albert Ammons, Pete Johnson) 2:27


L'Histoire Du Piano Jazz Vol.8 (77:59)
01. The Man I Love (Herman Chittison) 3:18
02. Way Back Blues (Count Basie) 3:28
03. When A Woman Loves A Man (Mel Powell) 2:44
04. I Got Rhythm (Art Tatum) 2:17
05. Prelude In C Sharp Minor (Nat King Cole) 2:56
06. The Man I Love (Nat King Cole) 3:24
07. Zonky (Nat Jaffe) 2:29
08. Dark Eyes (Art Tatum) 4:42
09. Lulu's Mood (Freddie Washington) 2:38
10. Cecil Boogie (Cecil Gant) 2:20
11. Carolina Shout (James P. Johnson) 2:37
12. Gliss Me Again (Johnny Guarnieri) 3:27
13. Erroll's Bounce (Erroll Garner) 3:06
14. Boogie Woogie Boogie (Erroll Garner) 3:18
15. Mad Monk (Billy Taylor) 2:39
16. Lover (Art Tatum) 4:02
17. For "miss Black" (Mel Powell) 2:19
18. Hommage À Fats Waller (Mel Powell) 2:33
19. Frankie And Johnny (Duke Ellington) 2:38
20. Dancers In Love (Duke Ellington) 2:21
21. Boogin' With Big Sid (Sammy Price) 3:08
22. This Way Out (Nat King Cole) 2:56
23. I Found A New Baby (Lennie Tristano) 2:50
24. Buddy Bolden's Blues (Don Ewell) 3:11
25. Drawing Room Blues (Duke Ellington, Billy Strayhorn) 3:38
26. Tonk (Billy Strayhorn, Duke Ellington) 2:46


L'Histoire Du Piano Jazz Vol.9 (77:08)
01. Mellow Mood (Dodo Marmarosa) 3:15
02. Cheek To Cheek (Teddy Wilson) 2:30
03. All Of Me (Teddy Wilson) 2:32
04. Railroad Blues (Luckey Roberts) 2:36
05. What Is This Thing Called Love? (Lennie Tristano) 2:53
06. Memories Of You (Erroll Garner) 3:07
07. Sweet Lorraine (Kenny Kersey) 2:57
08. Parlor Social (Don Ewell) 2:54
09. All God's Chillun' Got Rhythm (Mary Lou Williams) 2:46
10. Hesitation Boogie (Mary Lou Williams) 2:45
11. A Night In Tunisia (Lennie Tristano) 3:08
12. Out On A Limb (Lennie Tristano) 2:41
13. Untitled Blues (Lennie Tristano) 3:30
14. There Was Nobody Looking (Duke Ellington) 2:56
15. Exactly Like You (Johnny Guarnieri) 2:59
16. I Should Care (Bud Powell) 3:02
17. Off Minor (Bud Powell) 2:23
18. Out Of Nowhere (Art Tatum) 2:52
19. Have You Met Miss Jones? (George Shearing) 2:56
20. Trio (Erroll Garner) 3:06
21. Crazy Rhythm (Nat King Cole) 1:45
22. Erroll's Bounce (Erroll Garner) 3:00
23. Shine On, Harvest Moon (Count Basie) 2:24
24. Blue Boy (Lennie Tristano) 2:51
25. Coolin' Off With Ulanov (Lennie Tristano) 2:54
26. Loose Nut (Erroll Garner) 2:58
27. Play, Piano, Play (Erroll Garner) 3:15


L'Histoire Du Piano Jazz Vol.10 (77:24)
01. Blues In My Shower (Nat King Cole) 2:54
02. Rhythm Itch (Sir Charles Thompson) 2:55
03. April In Paris (Thelonious Monk) 3:24
04. Off Minor (Thelonious Monk) 3:03
05. Ruby My Dear (Thelonious Monk) 3:10
06. Well You Needn't (Thelonious Monk) 3:00
07. Mood Indigo (Duke Ellington) 2:06
08. Bopmatism (Dodo Marmarosa) 2:58
09. Cosmo Street (Dodo Marmarosa) 3:31
10. Oscar's Boogie (Oscar Peterson) 2:44
11. Bop's Your Uncle (George Shearing) 2:41
12. Over The Rainbow (Art Tatum) 3:29
13. Cherchez La Femme (Erroll Garner) 2:38
14. Bopelbaby (Al Haig) 2:42
15. Haig'n Haig (Al Haig) 2:40
16. Judy (Lennie Tristano) 2:57
17. Celia (Bud Powell) 3:01
18. Cherokee (indian Love Song) (Bud Powell) 3:40
19. All God's Chillun Got Rhythm (Bud Powell) 3:03
20. Strictly Confidential (Bud Powell) 3:11
21. Bop Look And Listen (George Shearing) 2:58
22. September In The Rain (George Shearing) 3:15
23. Sweet Georgia Brown (Oscar Peterson) 3:03
24. Fairyland (George Wallington) 2:47
25. Moonglow (Erroll Garner) 2:38
26. Aunt Hagar's Blues (Art Tatum) 2:42


L'Histoire Du Piano Jazz Vol.11 (77:29)
01. Dardanella (Art Tatum) 2:53
02. Somebody Loves Me (Art Tatum) 2:47
03. Sweet Lorraine (Art Tatum) 2:40
04. Conception (George Shearing) 2:55
05. Ornithology (Bud Powell) 2:24
06. You Go To My Head (Bud Powell) 3:16
07. Indiana (Dave Brubeck) 2:35
08. I Let A Song Go Out Of My Heart (Erroll Garner) 3:01
09. Blue Skies (Art Tatum) 2:52
10. Dancing In The Dark (Art Tatum) 2:57
11. Relaxin' (Willie "the Lion" Smith) 3:26
12. April In Paris (Bud Powell) 3:11
13. Opus Caprice (Al Haig) 2:22
14. Stars Fell On Alabama (Al Haig) 3:35
15. Oscar's Blues (Oscar Peterson) 3:13
16. Candlelights (Ralph Sutton) 4:23
17. Sweet Lorraine (Ralph Sutton) 2:36
18. Robbin's Nest (Oscar Peterson) 3:16
19. Tea For Two (Bud Powell) 3:33
20. Diane (Earl Hines) 4:16
21. Rosetta (Earl Hines) 3:55
22. Carnegie Blues (Oscar Peterson) 8:17
23. Cotton Trail (Duke Ellington, Billy Strayhorn) 2:50


L'Histoire Du Piano Jazz Vol.12 (77:42)
01. The C Jam Blues (Billy Strayhorn, Duke Ellington) 2:57
02. Penthouse Serenade (Erroll Garner) 2:58
03. Dusk In Sandi (Bud Powell) 2:16
04. Oblivion (Bud Powell) 2:12
05. Just One Of Those Things (Bud Powell) 3:53
06. Body And Soul (Spaulding Givens) 3:38
07. Blue Moon (Henri Renaud) 3:06
08. A Night In Tunisia (Bud Powell) 4:17
09. It Could Happen To You (Bud Powell) 2:25
10. Un Poco Loco (Bud Powell) 4:46
11. Ask Me Now (Thelonious Monk) 3:16
12. There Will Never Be Another You (Wynton Kelly) 3:02
13. D And E (John Lewis) 2:59
14. Bluesology (John Lewis) 2:51
15. Another Hair-do (Hampton Hawes) 4:18
16. The Surrey With The Fringe On Top (Ahmad Jamal) 2:51
17. At A Perfume Counter (Dave Brubeck) 2:55
18. I Didn't Know What Time It Was (George Wallington) 2:21
19. You Go To My Head (Oscar Peterson) 3:57
20. Tea For Two (Oscar Peterson) 12:55
21. Dancing In The Dark (Erroll Garner) 3:38


L'Histoire Du Piano Jazz Vol.13 (75:29)
01. Nichols And Dimes (Herbie Nichols) 2:35
02. 's Wonderful (Herbie Nichols) 2:50
03. Who's Blues (Herbie Nichols) 2:45
04. Caravan (Bernard Peiffer) 3:12
05. Jalousie (Bernard Peiffer) 2:58
06. Softly As In A Morning Sunrise (John Lewis) 3:32
07. Don't Blame Me (Bernard Peiffer) 2:44
08. Ahmad's Blues (Ahmad Jamal) 2:56
09. Aki And Ukthay (Ahmad Jamal) 3:07
10. Bee's Knees (Ralph Sutton) 3:06
11. Lullaby Of Birdland (George Shearing) 2:45
12. Somebody Loves Me (Nat King Cole) 3:06
13. Taking A Chance On Love (Al Haig) 2:16
14. Jumpin' Jacques (Hampton Hawes) 2:53
15. Tenderly (Oscar Peterson) 5:36
16. Horace-scope (Horace Silver) 3:51
17. Safari (Horace Silver) 2:52
18. Little Rootie Tootie (Thelonious Monk) 3:07
19. Monk's Dream (Thelonious Monk) 3:08
20. Sweet And Lovely (Thelonious Monk) 3:36
21. Ecaroh (Horace Silver) 3:14
22. Prelude To A Kiss (Horace Silver) 2:52
23. Quicksilver (Horace Silver) 3:04
24. It Ain't Necessarily So (Oscar Peterson) 3:12


L'Histoire Du Piano Jazz Vol.14 (77:39)
01. Bemsha Swing (Thelonious Monk) 3:11
02. These Foolish Things (Thelonious Monk) 2:48
03. Trinkle Tinkle (Thelonious Monk) 2:50
04. Would You Like To Take A Walk? (Art Tatum) 3:35
05. Just One Of Those Things (Art Tatum) 3:19
06. All The Things You Are (John Lewis) 3:16
07. Rose Of The Rio Grande (John Lewis) 2:16
08. Blue Bird (Hampton Hawes) 4:16
09. Jazz Et Jazz (Bernard Peiffer) 3:02
10. Avalon (Erroll Garner) 4:14
11. Caravan (Erroll Garner) 7:04
12. Stardust (Dave Brubeck) 6:29
13. Liza (Bernard Peiffer) 2:54
14. Tiny's Blues (Bud Powell) 6:11
15. Janet (Duke Ellington) 2:13
16. All Too Soon (Duke Ellington) 3:07
17. Day Dream (Spaulding Givens) 2:42
18. The Man I Love (Oscar Peterson) 6:19
19. Seven Come Eleven (Oscar Peterson) 4:58
20. Nice Work If You Can Get It (André Previn) 2:43


L'Histoire Du Piano Jazz Vol.15 (73:31)
01. You Go To My Head (Raymond Fol) 3:12
02. Delaunay's Dilemma (John Lewis) 4:00
03. Jeepers Creepers (Dave Brubeck) 7:26
04. Burt Covers Bud (Bud Powell) 3:06
05. You'd Be So Nice To Come Home To (Bud Powell) 2:39
06. The Nearness Of You (Oscar Peterson) 10:43
07. Odd Number (Hank Jones) 3:34
08. Love For Sale (Oscar Peterson) 3:51
09. Minority (Hank Jones) 3:04
10. Alone Together (Oscar Peterson) 5:41
11. The Pink Elephant (Reinhold Svensson) 2:34
12. How About You (Horace Silver) 3:45
13. I Remember You (Horace Silver) 3:56
14. Opus De Funk (Horace Silver) 3:30
15. Opus One (Paul Bley) 4:14
16. Kinda Dukish (Duke Ellington) 2:32
17. The Eye Opener (Russ Freeman) 3:03
18. Night Time (Duke Ellington) 2:34
19. Too Marvellous For Words (Art Tatum) 2:57


L'Histoire Du Piano Jazz Vol.16 (77:58)
01. Tea For Two (Art Tatum) 3:34
02. 111 East Ontario (Junior Mance) 3:02
03. Hot Springs (Junior Mance) 2:39
04. Autumn In New York (Al Haig) 5:14
05. Mighty Lak' A Rose (Al Haig) 4:56
06. Just One Of Those Things (Walter Jr. Bishop) 2:43
07. Crazy Rhythm (Art Tatum) 2:58
08. Angel Eyes (Oscar Peterson) 2:59
09. Smoke Gets In Your Eyes (Thelonious Monk) 4:33
10. Buttercup (Bud Powell) 3:02
11. Evidence (Thelonious Monk) 3:05
12. We See (Thelonious Monk) 2:36
13. It Never Entered My Mind (Bud Powell) 2:59
14. A Foggy Day (Bud Powell) 3:48
15. Without Reservation (George Wallington) 2:50
16. Blues In C (Art Tatum) 8:05
17. 7-11 Jump (Erroll Garner) 7:19
18. Misty (Erroll Garner) 2:48
19. Makin' Whoopee (Mel Powell) 4:53
20. Quin And Sonic (Mel Powell) 3:43


L'Histoire Du Piano Jazz Vol.17 (75:41)
01. Blue Monk (Thelonious Monk) 7:39
02. When I'm Without You (Lou Levy) 3:33
03. Lullaby Of Birdland (Barbara Carroll) 2:56
04. Albuquerque Social Swim (Dick Twardzik) 3:08
05. Easy To Love (Jimmy Jones) 3:15
06. Midi 1/4 (Martial Solal) 2:52
07. Love For Sale (Walter Jr. Bishop) 5:37
08. All The Things You Are (Jimmy Rowles) 4:22
09. Cheek To Cheek (Bernard Peiffer) 3:30
10. Just You Just Me (Bernard Peiffer) 3:28
11. Deep Night (Bud Powell) 3:41
12. Round About Midnight (Bud Powell) 5:07
13. Groovin' Doctor (Nisse Engström) 3:35
14. Django (John Lewis) 7:05
15. Shadrack (Toshiko Akiyoshi) 2:44
16. East Thirty-second (Lennie Tristano) 4:33
17. Line Up (Lennie Tristano) 3:34
18. Requiem (Lennie Tristano) 4:50


L'Histoire Du Piano Jazz Vol.18 (77:25)
01. Turkish Mambo (Lennie Tristano) 3:39
02. La Ronde (extrait) (John Lewis) 1:49
03. Tenderly (Bud Powell) 3:17
04. All The Things You Are (Bud Powell) 3:33
05. Epistrophy (Bud Powell) 3:03
06. It's You Or No One (Claude Williamson) 3:29
07. Lament (Hazel Scott) 4:47
08. Bouncing With Bud (René Urtreger) 2:47
09. A La Bud (René Urtreger) 2:14
10. I've Got You Under My Skin (Pete Jolly) 3:36
11. Sleep (Erroll Garner) 5:48
12. Don't Be That Way (Ray Bryant) 4:41
13. Radioactivity (Billy Taylor) 3:46
14. Cherokee (Lorraine Geller) 3:39
15. A Bit Of Soul (Ray Charles) 2:21
16. Willow Weep For Me (Bud Powell) 4:44
17. Willow Grove (willow Groove) (Bud Powell) 4:26
18. Stairway To The Stars (Bud Powell) 4:59
19. Ridikool (Martial Solal) 2:46
20. I Hear Music (Hampton Hawes) 3:28
21. Dance Line (Herbie Nichols) 4:24


L'Histoire Du Piano Jazz Vol.19 (75:34)
01. The Third World (Herbie Nichols) 4:12
02. It Didn't Happen (Herbie Nichols) 4:17
03. Wonder Why (Horace Silver) 5:27
04. Barbara's Carol (Barbara Carroll) 4:43
05. All The Things You Are (Hampton Hawes) 5:00
06. Hamp's Blues (Hampton Hawes) 3:42
07. So In Love (Hampton Hawes) 3:59
08. Softly As In A Morning Sunrise (John Lewis) 7:57
09. Caravan (Thelonious Monk) 5:58
10. I Got It Bad (and That Ain't Good) (Thelonious Monk) 5:55
11. It Don't Mean A Thing (Thelonious Monk) 4:40
12. Hallelujah (Art Tatum) 4:56
13. Lady Sings The Blues (Herbie Nichols) 4:25
14. Red Top (Erroll Garner) 3:08
15. Baby, Baby All The Time (Oscar Peterson) 7:06


L'Histoire Du Piano Jazz Vol.20 (77:19)
01. A Night In Tunisia (Duke Jordan) 5:09
02. That Old Devil Moon (Ahmad Jamal) 3:45
03. The Darktown Strutter's Ball (Earl Hines) 2:21
04. Section Blues (Hampton Hawes) 4:14
05. Stella By Starlight (Hampton Hawes) 4:54
06. Coolin' The Blues (Hampton Hawes) 4:19
07. Just One Of Those Things (Art Tatum) 7:16
08. Way Cross Town (Carl Perkins) 3:51
09. Collard Greens And Black-eyed Peas (André Previn) 7:58
10. Cheek To Cheek (Lou Levy) 3:47
11. Art's Blues (Art Simmons) 3:24
12. Just You Just Me (Thelonious Monk) 8:00
13. The Spinning Song (Herbie Nichols) 4:57
14. Celia (Phineas Jr. Newborn) 3:07
15. Ahmad's Blues (Red Garland) 7:24
16. But Not For Me (Martial Solal) 2:42


L'Histoire Du Piano Jazz Vol.21 (76:49)
01. Chuckles (Eddie Costa) 4:59
02. Love Me Or Leave Me (Martial Solal) 2:50
03. The Man I Love (Erroll Garner) 8:12
04. Warmeland (John Lewis) 4:45
05. Pilgrim's Progress (Dave Brubeck) 9:15
06. How High The Moon (Oscar Peterson) 9:04
07. How About You? (Oscar Peterson) 4:58
08. Humoresque (Art Tatum) 3:34
09. A Morning In Paris (John Lewis) 2:57
10. I Should Care (Bud Powell) 3:42
11. Azure (Cecil Taylor) 7:31
12. Conception (Bill Evans) 4:47
13. No Cover, No Minimum (Bill Evans) 8:11
14. My Romance (Bill Evans) 1:55


L'Histoire Du Piano Jazz Vol.22 (76:15)
01. Easy Living (Bill Evans) 3:53
02. I Love You (Bill Evans) 3:55
03. Get Happy (Eddie Costa) 4:15
04. Blues For Bessie (Bud Powell) 5:41
05. Coscrane (Bud Powell) 3:46
06. Serenade In Blue (Pilgrim's Progress) 4:03
07. Overtime (Phineas Jr. Newborn) 3:44
08. For Heaven's Sake (Horace Silver) 5:11
09. Blues #4 (Hampton Hawes) 6:18
10. I Surrender, Dear (Thelonious Monk) 5:32
11. Out Of Nowhere (Eddie Costa) 14:20
12. Yesterdays (Eddie Costa) 11:14
13. Saucer Eye (Randy Weston) 4:17


L'Histoire Du Piano Jazz Vol.23 (76:23)
01. Things Ain't What They Used To Be (Carl Perkins) 4:47
02. You'd Be So Nice To Come Home To (Erroll Garner) 6:24
03. Two Sleepy People (Dave Brubeck) 3:34
04. Like Someone In Love (Bud Powell) 4:57
05. Shaw 'nuff (Bud Powell) 3:18
06. Little Girl Blue (John Lewis) 4:31
07. Cubano Chant (Ray Bryant) 4:00
08. Round About Midnight (Thelonious Monk) 6:42
09. I Should Care (Thelonious Monk) 3:14
10. Functional (Thelonious Monk) 9:44
11. Chicago Breakdown (Don Ewell) 3:38
12. Bud On Bach (Bud Powell) 1:08
13. Relaxin' At Camarillo (Tommy Flanagan) 3:20
14. Eclypso (Tommy Flanagan) 6:17
15. Colombine (John Lewis) 5:26
16. Harlequin (John Lewis) 5:12


L'Histoire Du Piano Jazz Vol.24 (75:23)
01. Bewitched, Bothered And Bewildered (Kenny Drew) 4:13
02. The Golden Striker (Oscar Peterson) 5:15
03. Four Bars With Tag (Ellis Larkins) 3:47
04. Melancholy Mood (Horace Silver) 6:36
05. You Can't Get Away (Wynton Kelly) 6:27
06. Guys And Dolls (Bill Evans) 6:46
07. Yardbird Suite (Hampton Hawes) 6:43
08. Up Blues (Hampton Hawes) 5:12
09. Whisper Not (Wynton Kelly) 7:12
10. Autumn Leaves (Hank Jones) 11:00
11. Nothin' (Luckey Roberts) 3:16
12. Back Home (Phineas Jr. Newborn) 5:21
13. The Minstrels (Mose Allison) 3:27


L'Histoire Du Piano Jazz Vol.25 (76:33)
01. John's Abbey (Bud Powell) 5:40
02. Sail 'em (Ronnell Bright) 3:45
03. A-tisket, A-tasket (Red Garland) 7:07
04. Unidentified Piano Solo (Thelonious Monk) 1:55
05. Splendid Splinter (Dave Mckenna) 2:22
06. Light Blue (Thelonious Monk) 5:18
07. This Can't Be Love (Ahmad Jamal) 4:59
08. Minority (Bill Evans) 5:22
09. Tenderly (Bill Evans) 3:33
10. Peace Piece (Bill Evans) 6:43
11. Night And Day (Bill Evans) 7:36
12. Moanin' With Hazel (Bobby Timmons) 14:10
13. Cleopatra's Dream (Bud Powell) 4:25
14. Crossing The Channel (Bud Powell) 3:29


CD 1
Exact Audio Copy V0.99 prebeta 5 from 4. May 2009

EAC extraction logfile from 18. July 2011, 0:56

Various / L'Histoire Du Piano Jazz. CD 1

Used drive : Optiarc DVD RW AD-7700H Adapter: 0 ID: 1

Read mode : Secure
Utilize accurate stream : Yes
Defeat audio cache : Yes
Make use of C2 pointers : No

Read offset correction : 48
Overread into Lead-In and Lead-Out : No
Fill up missing offset samples with silence : Yes
Delete leading and trailing silent blocks : No
Null samples used in CRC calculations : Yes
Used interface : Native Win32 interface for Win NT & 2000
Gap handling : Appended to previous track

Used output format : User Defined Encoder
Selected bitrate : 32 kBit/s
Quality : High
Add ID3 tag : No
Command line compressor : C:\Program Files (x86)\Exact Audio Copy\FLAC\FLAC.EXE
Additional command line options : -8 -V -T "ARTIST=%a" -T "TITLE=%t" -T "ALBUM=%g" -T "DATE=%y" -T "TRACKNUMBER=%n" -T "GENRE=%m" -T "COMMENT=EAC FLAC -8" %s

TOC of the extracted CD

Track | Start | Length | Start sector | End sector
––––––––––––––––––––––––––––-
1 | 0:00.00 | 2:52.68 | 0 | 12967
2 | 2:52.68 | 2:50.52 | 12968 | 25769
3 | 5:43.45 | 2:09.55 | 25770 | 35499
4 | 7:53.25 | 2:47.39 | 35500 | 48063
5 | 10:40.64 | 3:21.60 | 48064 | 63198
6 | 14:02.49 | 2:45.12 | 63199 | 75585
7 | 16:47.61 | 3:05.57 | 75586 | 89517
8 | 19:53.43 | 3:24.73 | 89518 | 104890
9 | 23:18.41 | 3:11.24 | 104891 | 119239
10 | 26:29.65 | 3:06.55 | 119240 | 133244
11 | 29:36.45 | 2:01.36 | 133245 | 142355
12 | 31:38.06 | 3:00.26 | 142356 | 155881
13 | 34:38.32 | 2:39.48 | 155882 | 167854
14 | 37:18.05 | 2:57.67 | 167855 | 181196
15 | 40:15.72 | 3:12.24 | 181197 | 195620
16 | 43:28.21 | 2:37.02 | 195621 | 207397
17 | 46:05.23 | 4:20.15 | 207398 | 226912
18 | 50:25.38 | 2:48.25 | 226913 | 239537
19 | 53:13.63 | 2:17.08 | 239538 | 249820
20 | 55:30.71 | 3:16.58 | 249821 | 264578
21 | 58:47.54 | 4:25.18 | 264579 | 284471
22 | 63:12.72 | 3:31.10 | 284472 | 300306
23 | 66:44.07 | 3:16.43 | 300307 | 315049
24 | 70:00.50 | 2:27.55 | 315050 | 326129
25 | 72:28.30 | 2:45.08 | 326130 | 338512
26 | 75:13.38 | 2:43.14 | 338513 | 350751

Track 1

Filename C:\Users\sony\Music\Rutracker_Seeds\01 - Scott Joplin - Original Rags (Scott Joplin - Original Rags).wav

Pre-gap length 0:00:02.00

Peak level 76.7 %
Track quality 100.0 %
Test CRC 3028496E
Copy CRC 3028496E
Accurately ripped (confidence 1) [C069F54B]
Copy OK

Track 2

Filename C:\Users\sony\Music\Rutracker_Seeds\02 - Tomes Turpin - St. Louis Rag (Tomes Turpin - St. Louis Rag).wav

Pre-gap length 0:00:03.00

Peak level 82.9 %
Track quality 99.9 %
Test CRC BD8FC0DD
Copy CRC BD8FC0DD
Accurately ripped (confidence 1) [835BE700]
Copy OK

Track 3

Filename C:\Users\sony\Music\Rutracker_Seeds\03 - Scott Joplin - The Cascades (Scott Joplin - The Cascades).wav

Pre-gap length 0:00:04.00

Peak level 62.1 %
Track quality 100.0 %
Test CRC 9828DBB4
Copy CRC 9828DBB4
Accurately ripped (confidence 1) [59C78988]
Copy OK

Track 4

Filename C:\Users\sony\Music\Rutracker_Seeds\04 - James Scott - Frog Legs Rag (James Scott - Frog Legs Rag).wav

Pre-gap length 0:00:04.00

Peak level 73.4 %
Track quality 100.0 %
Test CRC 5815818E
Copy CRC 5815818E
Accurately ripped (confidence 1) [CCC88E21]
Copy OK

Track 5

Filename C:\Users\sony\Music\Rutracker_Seeds\05 - Scott Joplin - A Real Slow Drag (Scott Joplin - A Real Slow Drag).wav

Pre-gap length 0:00:04.00

Peak level 58.8 %
Track quality 100.0 %
Test CRC 4E0A50BF
Copy CRC 4E0A50BF
Accurately ripped (confidence 1) [406F7366]
Copy OK

Track 6

Filename C:\Users\sony\Music\Rutracker_Seeds\06 - JosephLamb - American Beauty Rag (JosephLamb - American Beauty Rag).wav

Pre-gap length 0:00:04.00

Peak level 44.3 %
Track quality 100.0 %
Test CRC 1708488E
Copy CRC 1708488E
Accurately ripped (confidence 1) [5BCD8665]
Copy OK

Track 7

Filename C:\Users\sony\Music\Rutracker_Seeds\07 - Felix Arndt - Desecretion Rag (Felix Arndt - Desecretion Rag).wav

Pre-gap length 0:00:04.00

Peak level 95.1 %
Track quality 100.0 %
Test CRC 0A79D1B5
Copy CRC 0A79D1B5
Accurately ripped (confidence 1) [09E5B915]
Copy OK

Track 8

Filename C:\Users\sony\Music\Rutracker_Seeds\08 - Scott Joplin - Magnetic Rag (Scott Joplin - Magnetic Rag).wav

Pre-gap length 0:00:04.00

Peak level 58.4 %
Track quality 100.0 %
Test CRC E317DE0F
Copy CRC E317DE0F
Accurately ripped (confidence 1) [30186E0D]
Copy OK

Track 9

Filename C:\Users\sony\Music\Rutracker_Seeds\09 - Scott Joplin - Mapple Leaf Rag (Scott Joplin - Mapple Leaf Rag).wav

Pre-gap length 0:00:03.00

Peak level 80.2 %
Track quality 100.0 %
Test CRC 2392D165
Copy CRC 2392D165
Accurately ripped (confidence 1) [94BE9C21]
Copy OK

Track 10

Filename C:\Users\sony\Music\Rutracker_Seeds\10 - Eubie Blake - Charleston Rag (Eubie Blake - Charleston Rag).wav

Pre-gap length 0:00:04.00

Peak level 80.9 %
Track quality 100.0 %
Test CRC 2EDD1103
Copy CRC 2EDD1103
Accurately ripped (confidence 1) [7F0D79D4]
Copy OK

Track 11

Filename C:\Users\sony\Music\Rutracker_Seeds\11 - Edythe Baker - Bloie Bloie (Edythe Baker - Bloie Bloie).wav

Pre-gap length 0:00:04.00

Peak level 70.9 %
Track quality 100.0 %
Test CRC 150ABB67
Copy CRC 150ABB67
Accurately ripped (confidence 1) [7DA85450]
Copy OK

Track 12

Filename C:\Users\sony\Music\Rutracker_Seeds\12 - Mandy Randolph - Cryin' Blues (Mandy Randolph - Cryin' Blues).wav

Pre-gap length 0:00:04.00

Peak level 59.4 %
Track quality 100.0 %
Test CRC 04C2F5CB
Copy CRC 04C2F5CB
Accurately ripped (confidence 1) [44F27E35]
Copy OK

Track 13

Filename C:\Users\sony\Music\Rutracker_Seeds\13 - Eubie Blake - Home Again Blues (Eubie Blake - Home Again Blues).wav

Pre-gap length 0:00:04.00

Peak level 60.9 %
Track quality 100.0 %
Test CRC 07576D4B
Copy CRC 07576D4B
Accurately ripped (confidence 1) [A6E0ACC6]
Copy OK

Track 14

Filename C:\Users\sony\Music\Rutracker_Seeds\14 - Eubie Blake - Arkansas Blues (Eubie Blake - Arkansas Blues).wav

Pre-gap length 0:00:03.00

Peak level 62.7 %
Track quality 100.0 %
Test CRC 39712C25
Copy CRC 39712C25
Accurately ripped (confidence 1) [8EA7F4AA]
Copy OK

Track 15

Filename C:\Users\sony\Music\Rutracker_Seeds\15 - Eubie Blake - Sound Of Africa (Eubie Blake - Sound Of Africa).wav

Pre-gap length 0:00:03.00

Peak level 81.7 %
Track quality 100.0 %
Test CRC E09616D9
Copy CRC E09616D9
Accurately ripped (confidence 1) [4300FA9A]
Copy OK

Track 16

Filename C:\Users\sony\Music\Rutracker_Seeds\16 - James P. Johnson - Harlem Strut (James P. Johnson - Harlem Strut).wav

Pre-gap length 0:00:04.00

Peak level 70.5 %
Track quality 100.0 %
Test CRC E3B0BBE4
Copy CRC E3B0BBE4
Accurately ripped (confidence 1) [AED1946B]
Copy OK

Track 17

Filename C:\Users\sony\Music\Rutracker_Seeds\17 - James P. Johnson - Arkansas Blues (James P. Johnson - Arkansas Blues).wav

Pre-gap length 0:00:03.00

Peak level 74.3 %
Track quality 100.0 %
Test CRC 7C6268A1
Copy CRC 7C6268A1
Accurately ripped (confidence 1) [6A5065D0]
Copy OK

Track 18

Filename C:\Users\sony\Music\Rutracker_Seeds\18 - James P. Johnson - Carolina Shout (James P. Johnson - Carolina Shout).wav

Pre-gap length 0:00:03.00

Peak level 62.4 %
Track quality 99.9 %
Test CRC 3B21E0E5
Copy CRC 3B21E0E5
Accurately ripped (confidence 1) [6EED056F]
Copy OK

Track 19

Filename C:\Users\sony\Music\Rutracker_Seeds\19 - Frank Banta, Jack Austin - Kitten On The Keys (Frank Banta, Jack Austin - Kitten On The Keys).wav

Pre-gap length 0:00:04.00

Peak level 75.2 %
Track quality 100.0 %
Test CRC F23CB8E0
Copy CRC F23CB8E0
Accurately ripped (confidence 1) [E1D1E58C]
Copy OK

Track 20

Filename C:\Users\sony\Music\Rutracker_Seeds\20 - Fats Waller - Muscle Shoals Blues (Fats Waller - Muscle Shoals Blues).wav

Pre-gap length 0:00:03.00

Peak level 80.1 %
Track quality 100.0 %
Test CRC 2DDFACE3
Copy CRC 2DDFACE3
Accurately ripped (confidence 1) [0D9C3DD9]
Copy OK

Track 21

Filename C:\Users\sony\Music\Rutracker_Seeds\21 - Everett Robbins - Hard Luck Blues (Everett Robbins - Hard Luck Blues).wav

Pre-gap length 0:00:04.00

Peak level 71.4 %
Track quality 100.0 %
Test CRC F00FC0A9
Copy CRC F00FC0A9
Accurately ripped (confidence 1) [6C8BA4A5]
Copy OK

Track 22

Filename C:\Users\sony\Music\Rutracker_Seeds\22 - Fletcher Henderson - Chime Blues (Fletcher Henderson - Chime Blues).wav

Pre-gap length 0:00:03.00

Peak level 74.0 %
Track quality 100.0 %
Test CRC AAE87430
Copy CRC AAE87430
Accurately ripped (confidence 1) [4885AD78]
Copy OK

Track 23

Filename C:\Users\sony\Music\Rutracker_Seeds\23 - Clarence Williams - Sugar Blues (Clarence Williams - Sugar Blues).wav

Pre-gap length 0:00:03.00

Peak level 75.4 %
Track quality 99.9 %
Test CRC 5CA20EC3
Copy CRC 5CA20EC3
Accurately ripped (confidence 1) [16EBFA1E]
Copy OK

Track 24

Filename C:\Users\sony\Music\Rutracker_Seeds\24 - Fats Waller - Snake Hips (Fats Waller - Snake Hips).wav

Pre-gap length 0:00:03.00

Peak level 68.0 %
Track quality 99.9 %
Test CRC BB66FCA9
Copy CRC BB66FCA9
Accurately ripped (confidence 1) [18CCD807]
Copy OK

Track 25

Filename C:\Users\sony\Music\Rutracker_Seeds\25 - Richard M. Jones - Jazzin Babies Blues (Richard M. Jones - Jazzin Babies Blues).wav

Pre-gap length 0:00:03.00

Peak level 81.7 %
Track quality 100.0 %
Test CRC EB8765BA
Copy CRC EB8765BA
Accurately ripped (confidence 1) [7BF5434F]
Copy OK

Track 26

Filename C:\Users\sony\Music\Rutracker_Seeds\26 - Jelly Roll Morton - New Orleans Joys (Jelly Roll Morton - New Orleans Joys).wav

Pre-gap length 0:00:03.00

Peak level 74.3 %
Track quality 100.0 %
Test CRC D070DF3D
Copy CRC D070DF3D
Accurately ripped (confidence 1) [D9176579]
Copy OK

All tracks accurately ripped

No errors occurred

End of status report


CD 2
Exact Audio Copy V0.99 prebeta 5 from 4. May 2009

EAC extraction logfile from 18. July 2011, 1:36

Various / L'Histoire Du Piano Jazz. CD 2

Used drive : Optiarc DVD RW AD-7700H Adapter: 0 ID: 1

Read mode : Secure
Utilize accurate stream : Yes
Defeat audio cache : Yes
Make use of C2 pointers : No

Read offset correction : 48
Overread into Lead-In and Lead-Out : No
Fill up missing offset samples with silence : Yes
Delete leading and trailing silent blocks : No
Null samples used in CRC calculations : Yes
Used interface : Native Win32 interface for Win NT & 2000
Gap handling : Appended to previous track

Used output format : User Defined Encoder
Selected bitrate : 32 kBit/s
Quality : High
Add ID3 tag : No
Command line compressor : C:\Program Files (x86)\Exact Audio Copy\FLAC\FLAC.EXE
Additional command line options : -8 -V -T "ARTIST=%a" -T "TITLE=%t" -T "ALBUM=%g" -T "DATE=%y" -T "TRACKNUMBER=%n" -T "GENRE=%m" -T "COMMENT=EAC FLAC -8" %s

TOC of the extracted CD

Track | Start | Length | Start sector | End sector
––––––––––––––––––––––––––––-
1 | 0:00.00 | 3:15.62 | 0 | 14686
2 | 3:15.62 | 2:59.20 | 14687 | 28131
3 | 6:15.07 | 2:54.26 | 28132 | 41207
4 | 9:09.33 | 2:45.30 | 41208 | 53612
5 | 11:54.63 | 4:38.15 | 53613 | 74477
6 | 16:33.03 | 2:59.24 | 74478 | 87926
7 | 19:32.27 | 2:43.18 | 87927 | 100169
8 | 22:15.45 | 2:51.09 | 100170 | 113003
9 | 25:06.54 | 2:39.07 | 113004 | 124935
10 | 27:45.61 | 1:52.28 | 124936 | 133363
11 | 29:38.14 | 3:03.17 | 133364 | 147105
12 | 32:41.31 | 4:01.11 | 147106 | 165191
13 | 36:42.42 | 4:00.69 | 165192 | 183260
14 | 40:43.36 | 4:17.07 | 183261 | 202542
15 | 45:00.43 | 2:58.69 | 202543 | 215961
16 | 47:59.37 | 2:47.02 | 215962 | 228488
17 | 50:46.39 | 2:42.51 | 228489 | 240689
18 | 53:29.15 | 3:08.73 | 240690 | 254862
19 | 56:38.13 | 2:52.09 | 254863 | 267771
20 | 59:30.22 | 3:13.61 | 267772 | 282307
21 | 62:44.08 | 3:17.64 | 282308 | 297146
22 | 66:01.72 | 2:46.73 | 297147 | 309669
23 | 68:48.70 | 4:28.43 | 309670 | 329812
24 | 73:17.38 | 3:24.69 | 329813 | 345181

Track 1

Filename C:\Users\sony\Music\Rutracker_Seeds\01 - The Pearls - Jelly Roll Morton (The Pearls - Jelly Roll Morton).wav

Pre-gap length 0:00:02.00

Peak level 71.4 %
Track quality 100.0 %
Test CRC 198939BD
Copy CRC 198939BD
Accurately ripped (confidence 1) [E1515F4B]
Copy OK

Track 2

Filename C:\Users\sony\Music\Rutracker_Seeds\02 - Gulf Coast Blues - Clarence Johnson (Gulf Coast Blues - Clarence Johnson).wav

Pre-gap length 0:00:04.00

Peak level 80.4 %
Track quality 100.0 %
Test CRC 1820353A
Copy CRC 1820353A
Accurately ripped (confidence 1) [85331F3A]
Copy OK

Track 3

Filename C:\Users\sony\Music\Rutracker_Seeds\03 - Mama's Got the Blues - Fats Waller (Mama's Got the Blues - Fats Waller).wav

Pre-gap length 0:00:04.00

Peak level 47.9 %
Track quality 99.9 %
Test CRC F8AF303A
Copy CRC F8AF303A
Accurately ripped (confidence 1) [687B0C1C]
Copy OK

Track 4

Filename C:\Users\sony\Music\Rutracker_Seeds\04 - Todlin' - James P. Johnson (Todlin' - James P. Johnson).wav

Pre-gap length 0:00:04.00

Peak level 76.6 %
Track quality 100.0 %
Test CRC 56CE97F0
Copy CRC 56CE97F0
Accurately ripped (confidence 1) [8CD1178C]
Copy OK

Track 5

Filename C:\Users\sony\Music\Rutracker_Seeds\05 - The Fives - Hersal Thomas (The Fives - Hersal Thomas).wav

Pre-gap length 0:00:04.00

Peak level 60.4 %
Track quality 100.0 %
Test CRC 72ACF2AB
Copy CRC 72ACF2AB
Accurately ripped (confidence 1) [6F9604DC]
Copy OK

Track 6

Filename C:\Users\sony\Music\Rutracker_Seeds\06 - Chicago Stomp - Jimmy Blythe (Chicago Stomp - Jimmy Blythe).wav

Pre-gap length 0:00:04.00

Peak level 55.7 %
Track quality 99.9 %
Test CRC 04CEB52E
Copy CRC 04CEB52E
Accurately ripped (confidence 1) [2C544D4D]
Copy OK

Track 7

Filename C:\Users\sony\Music\Rutracker_Seeds\07 - Perfect Rag - Jelly Roll Morton (Perfect Rag - Jelly Roll Morton).wav

Pre-gap length 0:00:04.00

Peak level 66.9 %
Track quality 100.0 %
Test CRC 2E08019D
Copy CRC 2E08019D
Accurately ripped (confidence 1) [5274DE6F]
Copy OK

Track 8

Filename C:\Users\sony\Music\Rutracker_Seeds\08 - My Own Blues - Clarence Williams (My Own Blues - Clarence Williams).wav

Pre-gap length 0:00:04.00

Peak level 67.2 %
Track quality 100.0 %
Test CRC 7EC74B07
Copy CRC 7EC74B07
Accurately ripped (confidence 1) [47B1D426]
Copy OK

Track 9

Filename C:\Users\sony\Music\Rutracker_Seeds\09 - I Wonder Where My Baby Is Tonight - Frank Banta (I Wonder Where My Baby Is Tonight - Frank Banta).wav

Pre-gap length 0:00:04.00

Peak level 68.1 %
Track quality 100.0 %
Test CRC C6985608
Copy CRC C6985608
Accurately ripped (confidence 1) [97A0EAB4]
Copy OK

Track 10

Filename C:\Users\sony\Music\Rutracker_Seeds\10 - Fifth Street Blues - Cow Cow Davenport (Fifth Street Blues - Cow Cow Davenport).wav

Pre-gap length 0:00:04.00

Peak level 69.2 %
Track quality 100.0 %
Test CRC 205774D6
Copy CRC 205774D6
Accurately ripped (confidence 1) [B70C41FD]
Copy OK

Track 11

Filename C:\Users\sony\Music\Rutracker_Seeds\11 - Squeeze Me - Fats Waller (Squeeze Me - Fats Waller).wav

Pre-gap length 0:00:04.00

Peak level 54.0 %
Track quality 100.0 %
Test CRC D9F1418B
Copy CRC D9F1418B
Accurately ripped (confidence 1) [368DACEF]
Copy OK

Track 12

Filename C:\Users\sony\Music\Rutracker_Seeds\12 - Bo Weavil Blues - Eubie Blake (Bo Weavil Blues - Eubie Blake).wav

Pre-gap length 0:00:04.00

Peak level 59.8 %
Track quality 100.0 %
Test CRC EB8F57F0
Copy CRC EB8F57F0
Accurately ripped (confidence 1) [EEC00663]
Copy OK

Track 13

Filename C:\Users\sony\Music\Rutracker_Seeds\13 - Hock Shop Blues - Cliff Jackson (Hock Shop Blues - Cliff Jackson).wav

Pre-gap length 0:00:04.00

Peak level 72.4 %
Track quality 100.0 %
Test CRC 08E7E695
Copy CRC 08E7E695
Accurately ripped (confidence 1) [C5C2B687]
Copy OK

Track 14

Filename C:\Users\sony\Music\Rutracker_Seeds\14 - Dead Man Blues - Jelly Roll Morton (Dead Man Blues - Jelly Roll Morton).wav

Pre-gap length 0:00:04.00

Peak level 70.0 %
Track quality 100.0 %
Test CRC A8D117B7
Copy CRC A8D117B7
Accurately ripped (confidence 1) [06AA236D]
Copy OK

Track 15

Filename C:\Users\sony\Music\Rutracker_Seeds\15 - Changes - Vee Lawnhurst (Changes - Vee Lawnhurst).wav

Pre-gap length 0:00:04.00

Peak level 76.5 %
Track quality 100.0 %
Test CRC 3EEF332E
Copy CRC 3EEF332E
Accurately ripped (confidence 1) [905B649A]
Copy OK

Track 16

Filename C:\Users\sony\Music\Rutracker_Seeds\16 - All That I Had Is Gone - James P. Johnson (All That I Had Is Gone - James P. Johnson).wav

Pre-gap length 0:00:04.00

Peak level 50.2 %
Track quality 99.9 %
Test CRC E7E5E8F0
Copy CRC E7E5E8F0
Accurately ripped (confidence 1) [B07A1590]
Copy OK

Track 17

Filename C:\Users\sony\Music\Rutracker_Seeds\17 - Snowy Morning Blues - James P. Johnson (Snowy Morning Blues - James P. Johnson).wav

Pre-gap length 0:00:04.00

Peak level 59.7 %
Track quality 99.9 %
Test CRC 89456B64
Copy CRC 89456B64
Accurately ripped (confidence 1) [80F16952]
Copy OK

Track 18

Filename C:\Users\sony\Music\Rutracker_Seeds\18 - Cow Cow Blues - Cow Cow Davenport (Cow Cow Blues - Cow Cow Davenport).wav

Pre-gap length 0:00:04.00

Peak level 61.4 %
Track quality 100.0 %
Test CRC A733410D
Copy CRC A733410D
Accurately ripped (confidence 1) [2D289A39]
Copy OK

Track 19

Filename C:\Users\sony\Music\Rutracker_Seeds\19 - Mr. Jelly Lord - Jelly Roll Morton (Mr. Jelly Lord - Jelly Roll Morton).wav

Pre-gap length 0:00:04.00

Peak level 59.4 %
Track quality 100.0 %
Test CRC 6FF2C0EB
Copy CRC 6FF2C0EB
Accurately ripped (confidence 1) [283A64F6]
Copy OK

Track 20

Filename C:\Users\sony\Music\Rutracker_Seeds\20 - Davis Street Blues - Sugar Underwood (Davis Street Blues - Sugar Underwood).wav

Pre-gap length 0:00:04.00

Peak level 56.7 %
Track quality 100.0 %
Test CRC A330DAC9
Copy CRC A330DAC9
Accurately ripped (confidence 1) [A2AA6C5A]
Copy OK

Track 21

Filename C:\Users\sony\Music\Rutracker_Seeds\21 - Dew-Drop Alley - Sugar Underwood (Dew-Drop Alley - Sugar Underwood).wav

Pre-gap length 0:00:04.00

Peak level 59.1 %
Track quality 100.0 %
Test CRC 25C0DF83
Copy CRC 25C0DF83
Accurately ripped (confidence 1) [E9F7D2E3]
Copy OK

Track 22

Filename C:\Users\sony\Music\Rutracker_Seeds\22 - In A Mist - Bix Beiderbecke (In A Mist - Bix Beiderbecke).wav

Pre-gap length 0:00:04.00

Peak level 61.3 %
Track quality 100.0 %
Test CRC 508AB9DF
Copy CRC 508AB9DF
Accurately ripped (confidence 1) [42AF4B6D]
Copy OK

Track 23

Filename C:\Users\sony\Music\Rutracker_Seeds\23 - Down Out Blues - Lemuel Fowler (Down Out Blues - Lemuel Fowler).wav

Pre-gap length 0:00:04.00

Peak level 57.7 %
Track quality 100.0 %
Test CRC 877EB368
Copy CRC 877EB368
Accurately ripped (confidence 1) [CFACBC7F]
Copy OK

Track 24

Filename C:\Users\sony\Music\Rutracker_Seeds\24 - Gin Mill Blues - Lemuel Fowler (Gin Mill Blues - Lemuel Fowler).wav

Pre-gap length 0:00:04.00

Peak level 60.4 %
Track quality 100.0 %
Test CRC EA101AB1
Copy CRC EA101AB1
Accurately ripped (confidence 1) [427AEF2D]
Copy OK

All tracks accurately ripped

No errors occurred

End of status report


CD 3
Exact Audio Copy V0.99 prebeta 5 from 4. May 2009

EAC extraction logfile from 18. July 2011, 2:16

Various / L'Histoire Du Piano Jazz. CD 3

Used drive : Optiarc DVD RW AD-7700H Adapter: 0 ID: 1

Read mode : Secure
Utilize accurate stream : Yes
Defeat audio cache : Yes
Make use of C2 pointers : No

Read offset correction : 48
Overread into Lead-In and Lead-Out : No
Fill up missing offset samples with silence : Yes
Delete leading and trailing silent blocks : No
Null samples used in CRC calculations : Yes
Used interface : Native Win32 interface for Win NT & 2000
Gap handling : Appended to previous track

Used output format : User Defined Encoder
Selected bitrate : 32 kBit/s
Quality : High
Add ID3 tag : No
Command line compressor : C:\Program Files (x86)\Exact Audio Copy\FLAC\FLAC.EXE
Additional command line options : -8 -V -T "ARTIST=%a" -T "TITLE=%t" -T "ALBUM=%g" -T "DATE=%y" -T "TRACKNUMBER=%n" -T "GENRE=%m" -T "COMMENT=EAC FLAC -8" %s

TOC of the extracted CD

Track | Start | Length | Start sector | End sector
––––––––––––––––––––––––––––-
1 | 0:00.00 | 3:02.54 | 0 | 13703
2 | 3:02.54 | 2:46.40 | 13704 | 26193
3 | 5:49.19 | 2:44.49 | 26194 | 38542
4 | 8:33.68 | 2:53.35 | 38543 | 51552
5 | 11:27.28 | 2:56.32 | 51553 | 64784
6 | 14:23.60 | 3:12.03 | 64785 | 79187
7 | 17:35.63 | 3:13.42 | 79188 | 93704
8 | 20:49.30 | 3:11.08 | 93705 | 108037
9 | 24:00.38 | 2:58.73 | 108038 | 121460
10 | 26:59.36 | 2:59.39 | 121461 | 134924
11 | 29:59.00 | 2:48.36 | 134925 | 147560
12 | 32:47.36 | 2:50.63 | 147561 | 160373
13 | 35:38.24 | 3:01.08 | 160374 | 173956
14 | 38:39.32 | 3:14.14 | 173957 | 188520
15 | 41:53.46 | 3:20.24 | 188521 | 203544
16 | 45:13.70 | 3:07.02 | 203545 | 217571
17 | 48:20.72 | 2:58.01 | 217572 | 230922
18 | 51:18.73 | 2:44.17 | 230923 | 243239
19 | 54:03.15 | 3:11.13 | 243240 | 257577
20 | 57:14.28 | 3:17.65 | 257578 | 272417
21 | 60:32.18 | 2:39.53 | 272418 | 284395
22 | 63:11.71 | 3:11.49 | 284396 | 298769
23 | 66:23.45 | 2:53.68 | 298770 | 311812
24 | 69:17.38 | 3:15.45 | 311813 | 326482
25 | 72:33.08 | 2:54.48 | 326483 | 339580

Track 1

Filename C:\Users\sony\Music\Rutracker_Seeds\01 - Black Beauty - Duke Ellington (Black Beauty - Duke Ellington).wav

Pre-gap length 0:00:02.00

Peak level 71.9 %
Track quality 100.0 %
Test CRC 9F6D0B80
Copy CRC 9F6D0B80
Accurately ripped (confidence 1) [54BC91F9]
Copy OK

Track 2

Filename C:\Users\sony\Music\Rutracker_Seeds\02 - Swampy River - Duke Ellington (Swampy River - Duke Ellington).wav

Pre-gap length 0:00:04.00

Peak level 79.5 %
Track quality 100.0 %
Test CRC 1BC7AA07
Copy CRC 1BC7AA07
Accurately ripped (confidence 1) [C9225B36]
Copy OK

Track 3

Filename C:\Users\sony\Music\Rutracker_Seeds\03 - Louis Armstrong (Wheater Bird - Earl Hines).wav

Pre-gap length 0:00:04.00

Peak level 78.4 %
Track quality 100.0 %
Test CRC 35BF325D
Copy CRC 35BF325D
Accurately ripped (confidence 1) [5887D380]
Copy OK

Track 4

Filename C:\Users\sony\Music\Rutracker_Seeds\04 - Blues in Thirds - Earl Hines (Blues in Thirds - Earl Hines).wav

Pre-gap length 0:00:04.00

Peak level 79.6 %
Track quality 100.0 %
Test CRC AB305F11
Copy CRC AB305F11
Accurately ripped (confidence 1) [5BC7B95B]
Copy OK

Track 5

Filename C:\Users\sony\Music\Rutracker_Seeds\05 - Chimes in Blues - Earl Hines (Chimes in Blues - Earl Hines).wav

Pre-gap length 0:00:04.00

Peak level 78.6 %
Track quality 100.0 %
Test CRC 1F71F6DD
Copy CRC 1F71F6DD
Accurately ripped (confidence 1) [EED46099]
Copy OK

Track 6

Filename C:\Users\sony\Music\Rutracker_Seeds\06 - A Monday Date - Earl Hines (A Monday Date - Earl Hines).wav

Pre-gap length 0:00:04.00

Peak level 78.7 %
Track quality 100.0 %
Test CRC 41D5762A
Copy CRC 41D5762A
Accurately ripped (confidence 1) [C1F16F5D]
Copy OK

Track 7

Filename C:\Users\sony\Music\Rutracker_Seeds\07 - Pinetop's Boogie Wooge - Pinetop Smith (Pinetop's Boogie Wooge - Pinetop Smith).wav

Pre-gap length 0:00:04.00

Peak level 71.8 %
Track quality 100.0 %
Test CRC E8E7867E
Copy CRC E8E7867E
Accurately ripped (confidence 1) [FD34E161]
Copy OK

Track 8

Filename C:\Users\sony\Music\Rutracker_Seeds\08 - Riffs - James P. Johnson (Riffs - James P. Johnson).wav

Pre-gap length 0:00:04.00

Peak level 67.3 %
Track quality 100.0 %
Test CRC 15230D8E
Copy CRC 15230D8E
Accurately ripped (confidence 1) [E32EA4F3]
Copy OK

Track 9

Filename C:\Users\sony\Music\Rutracker_Seeds\09 - Too Low - Clarence Williams (Too Low - Clarence Williams).wav

Pre-gap length 0:00:04.00

Peak level 62.7 %
Track quality 99.9 %
Test CRC 9E525183
Copy CRC 9E525183
Accurately ripped (confidence 1) [4158B26F]
Copy OK

Track 10

Filename C:\Users\sony\Music\Rutracker_Seeds\10 - Glad Rag Doll - Earl Hines (Glad Rag Doll - Earl Hines).wav

Pre-gap length 0:00:04.00

Peak level 75.8 %
Track quality 100.0 %
Test CRC 6245F378
Copy CRC 6245F378
Accurately ripped (confidence 1) [D89E3926]
Copy OK

Track 11

Filename C:\Users\sony\Music\Rutracker_Seeds\11 - Handful of Keys - Fats Waller (Handful of Keys - Fats Waller).wav

Pre-gap length 0:00:04.00

Peak level 70.1 %
Track quality 100.0 %
Test CRC 50D61C3F
Copy CRC 50D61C3F
Accurately ripped (confidence 1) [59D6C8A4]
Copy OK

Track 12

Filename C:\Users\sony\Music\Rutracker_Seeds\12 - Numb Fumblin' - Fats Waller (Numb Fumblin' - Fats Waller).wav

Pre-gap length 0:00:04.00

Peak level 61.0 %
Track quality 100.0 %
Test CRC 4379DB31
Copy CRC 4379DB31
Accurately ripped (confidence 1) [6A6A3865]
Copy OK

Track 13

Filename C:\Users\sony\Music\Rutracker_Seeds\13 - Lover Come Back to Me - Arthur Schutt (Lover Come Back to Me - Arthur Schutt).wav

Pre-gap length 0:00:04.00

Peak level 64.2 %
Track quality 100.0 %
Test CRC D18B8E63
Copy CRC D18B8E63
Accurately ripped (confidence 1) [3CF8CB2B]
Copy OK

Track 14

Filename C:\Users\sony\Music\Rutracker_Seeds\14 - Chime Blues - Cow Cow Davenport (Chime Blues - Cow Cow Davenport).wav

Pre-gap length 0:00:04.00

Peak level 64.7 %
Track quality 100.0 %
Test CRC 3A722C31
Copy CRC 3A722C31
Accurately ripped (confidence 1) [1586CF8F]
Copy OK

Track 15

Filename C:\Users\sony\Music\Rutracker_Seeds\15 - Detroit Rocks - Arthur Montana Taylor (Detroit Rocks - Arthur Montana Taylor).wav

Pre-gap length 0:00:04.00

Peak level 79.1 %
Track quality 100.0 %
Test CRC CA34DA06
Copy CRC CA34DA06
Accurately ripped (confidence 1) [4F8121DF]
Copy OK

Track 16

Filename C:\Users\sony\Music\Rutracker_Seeds\16 - Barrel House Woman - Will Ezell (Barrel House Woman - Will Ezell).wav

Pre-gap length 0:00:04.00

Peak level 78.2 %
Track quality 100.0 %
Test CRC 2AFCD3C7
Copy CRC 2AFCD3C7
Accurately ripped (confidence 1) [070C35E1]
Copy OK

Track 17

Filename C:\Users\sony\Music\Rutracker_Seeds\17 - Freakish - Jelly Roll Morton (Freakish - Jelly Roll Morton).wav

Pre-gap length 0:00:04.00

Peak level 76.2 %
Track quality 100.0 %
Test CRC 102BF815
Copy CRC 102BF815
Accurately ripped (confidence 1) [066AD218]
Copy OK

Track 18

Filename C:\Users\sony\Music\Rutracker_Seeds\18 - Beau Koo Jack - Earl Hines (Beau Koo Jack - Earl Hines).wav

Pre-gap length 0:00:04.00

Peak level 72.5 %
Track quality 100.0 %
Test CRC DB11D349
Copy CRC DB11D349
Accurately ripped (confidence 1) [296E7B98]
Copy OK

Track 19

Filename C:\Users\sony\Music\Rutracker_Seeds\19 - Smashing Thirds - Fats Waller (Smashing Thirds - Fats Waller).wav

Pre-gap length 0:00:04.00

Peak level 65.2 %
Track quality 100.0 %
Test CRC 8F5A6D8E
Copy CRC 8F5A6D8E
Accurately ripped (confidence 1) [55EDBB9E]
Copy OK

Track 20

Filename C:\Users\sony\Music\Rutracker_Seeds\20 - Dearborn Street Breakdown - Charles Avery (Dearborn Street Breakdown - Charles Avery).wav

Pre-gap length 0:00:04.00

Peak level 70.7 %
Track quality 100.0 %
Test CRC 15A31507
Copy CRC 15A31507
Accurately ripped (confidence 1) [DA85AD7B]
Copy OK

Track 21

Filename C:\Users\sony\Music\Rutracker_Seeds\21 - Thirty - One Blues - Bob Call (Thirty - One Blues - Bob Call).wav

Pre-gap length 0:00:04.00

Peak level 68.3 %
Track quality 99.9 %
Test CRC 5F8F2428
Copy CRC 5F8F2428
Accurately ripped (confidence 1) [ED735D21]
Copy OK

Track 22

Filename C:\Users\sony\Music\Rutracker_Seeds\22 - You've Got to Be Modernistic - James P. Johnson (You've Got to Be Modernistic - James P. Johnson).wav

Pre-gap length 0:00:04.00

Peak level 71.0 %
Track quality 100.0 %
Test CRC 3BBBA6E4
Copy CRC 3BBBA6E4
Accurately ripped (confidence 1) [7E5E294A]
Copy OK

Track 23

Filename C:\Users\sony\Music\Rutracker_Seeds\23 - Clarence Williams (I've Found a New Baby - James P. Johnson).wav

Pre-gap length 0:00:04.00

Peak level 75.0 %
Track quality 100.0 %
Test CRC 88FDFD35
Copy CRC 88FDFD35
Accurately ripped (confidence 1) [B7330A41]
Copy OK

Track 24

Filename C:\Users\sony\Music\Rutracker_Seeds\24 - Number 29 - Wesley Wallace (Number 29 - Wesley Wallace).wav

Pre-gap length 0:00:04.00

Peak level 83.2 %
Track quality 99.9 %
Test CRC A39247C3
Copy CRC A39247C3
Accurately ripped (confidence 1) [3DCF3D64]
Copy OK

Track 25

Filename C:\Users\sony\Music\Rutracker_Seeds\25 - Night Life - Mary Lou Williams (Night Life - Mary Lou Williams).wav

Pre-gap length 0:00:04.00

Peak level 61.7 %
Track quality 100.0 %
Test CRC 99D29D04
Copy CRC 99D29D04
Accurately ripped (confidence 1) [EF098B33]
Copy OK

All tracks accurately ripped

No errors occurred

End of status report


CD 4
Exact Audio Copy V0.99 prebeta 5 from 4. May 2009

EAC extraction logfile from 18. July 2011, 2:56

Various / L'histoire Du Piano Jazz. CD 4

Used drive : Optiarc DVD RW AD-7700H Adapter: 0 ID: 1

Read mode : Secure
Utilize accurate stream : Yes
Defeat audio cache : Yes
Make use of C2 pointers : No

Read offset correction : 48
Overread into Lead-In and Lead-Out : No
Fill up missing offset samples with silence : Yes
Delete leading and trailing silent blocks : No
Null samples used in CRC calculations : Yes
Used interface : Native Win32 interface for Win NT & 2000
Gap handling : Appended to previous track

Used output format : User Defined Encoder
Selected bitrate : 32 kBit/s
Quality : High
Add ID3 tag : No
Command line compressor : C:\Program Files (x86)\Exact Audio Copy\FLAC\FLAC.EXE
Additional command line options : -8 -V -T "ARTIST=%a" -T "TITLE=%t" -T "ALBUM=%g" -T "DATE=%y" -T "TRACKNUMBER=%n" -T "GENRE=%m" -T "COMMENT=EAC FLAC -8" %s

TOC of the extracted CD

Track | Start | Length | Start sector | End sector
––––––––––––––––––––––––––––-
1 | 0:00.00 | 3:04.49 | 0 | 13848
2 | 3:04.49 | 2:15.49 | 13849 | 24022
3 | 5:20.23 | 3:20.74 | 24023 | 39096
4 | 8:41.22 | 2:21.25 | 39097 | 49696
5 | 11:02.47 | 3:12.56 | 49697 | 64152
6 | 14:15.28 | 2:59.28 | 64153 | 77605
7 | 17:14.56 | 3:09.16 | 77606 | 91796
8 | 20:23.72 | 3:07.54 | 91797 | 105875
9 | 23:31.51 | 3:24.60 | 105876 | 121235
10 | 26:56.36 | 2:38.23 | 121236 | 133108
11 | 29:34.59 | 2:44.65 | 133109 | 145473
12 | 32:19.49 | 2:59.19 | 145474 | 158917
13 | 35:18.68 | 3:00.24 | 158918 | 172441
14 | 38:19.17 | 3:27.56 | 172442 | 188022
15 | 41:46.73 | 2:57.24 | 188023 | 201321
16 | 44:44.22 | 3:01.60 | 201322 | 214956
17 | 47:46.07 | 3:14.32 | 214957 | 229538
18 | 51:00.39 | 2:44.21 | 229539 | 241859
19 | 53:44.60 | 3:01.53 | 241860 | 255487
20 | 56:46.38 | 2:48.44 | 255488 | 268131
21 | 59:35.07 | 2:34.53 | 268132 | 279734
22 | 62:09.60 | 3:01.07 | 279735 | 293316
23 | 65:10.67 | 2:49.10 | 293317 | 306001
24 | 68:00.02 | 1:47.73 | 306002 | 314099
25 | 69:48.00 | 3:11.58 | 314100 | 328482
26 | 72:59.58 | 3:07.48 | 328483 | 342555

Track 1

Filename C:\Users\sony\Music\Rutracker_Seeds\01 - Garland Wilson - Memories of You (Garland Wilson - Memories of You).wav

Pre-gap length 0:00:02.00

Peak level 81.6 %
Track quality 100.0 %
Test CRC 3332472C
Copy CRC 3332472C
Accurately ripped (confidence 1) [160B5AEE]
Copy OK

Track 2

Filename C:\Users\sony\Music\Rutracker_Seeds\02 - Duke Ellington - Lots O' Fingers (Duke Ellington - Lots O' Fingers).wav

Pre-gap length 0:00:04.00

Peak level 67.5 %
Track quality 100.0 %
Test CRC A838CE09
Copy CRC A838CE09
Accurately ripped (confidence 1) [35152949]
Copy OK

Track 3

Filename C:\Users\sony\Music\Rutracker_Seeds\03 - Jabo Williams - Pratt City Blues (Jabo Williams - Pratt City Blues).wav

Pre-gap length 0:00:04.00

Peak level 74.3 %
Track quality 100.0 %
Test CRC CCB539D3
Copy CRC CCB539D3
Accurately ripped (confidence 1) [3810C2DF]
Copy OK

Track 4

Filename C:\Users\sony\Music\Rutracker_Seeds\04 - Art Tatum - Tiger Rag (Art Tatum - Tiger Rag).wav

Pre-gap length 0:00:04.00

Peak level 88.9 %
Track quality 100.0 %
Test CRC E9B864D3
Copy CRC E9B864D3
Accurately ripped (confidence 1) [5891EB20]
Copy OK

Track 5

Filename C:\Users\sony\Music\Rutracker_Seeds\05 - Joe Sullivan - Gin Mill Blues (Joe Sullivan - Gin Mill Blues).wav

Pre-gap length 0:00:04.00

Peak level 87.4 %
Track quality 100.0 %
Test CRC FE6A205C
Copy CRC FE6A205C
Accurately ripped (confidence 1) [76B0D458]
Copy OK

Track 6

Filename C:\Users\sony\Music\Rutracker_Seeds\06 - Joe Sullivan - Little Rock Getaway (Joe Sullivan - Little Rock Getaway).wav

Pre-gap length 0:00:04.00

Peak level 80.1 %
Track quality 100.0 %
Test CRC 8C9B2DF1
Copy CRC 8C9B2DF1
Accurately ripped (confidence 1) [CDAC3AA5]
Copy OK

Track 7

Filename C:\Users\sony\Music\Rutracker_Seeds\07 - Teddy Wilson - Rosetta (Teddy Wilson - Rosetta).wav

Pre-gap length 0:00:04.00

Peak level 77.4 %
Track quality 100.0 %
Test CRC 60507A90
Copy CRC 60507A90
Accurately ripped (confidence 1) [34519A9D]
Copy OK

Track 8

Filename C:\Users\sony\Music\Rutracker_Seeds\08 - Teddy Wilson - Somebody Loves Me (Teddy Wilson - Somebody Loves Me).wav

Pre-gap length 0:00:04.00

Peak level 77.8 %
Track quality 100.0 %
Test CRC AF10DC1D
Copy CRC AF10DC1D
Accurately ripped (confidence 1) [E24A1EBA]
Copy OK

Track 9

Filename C:\Users\sony\Music\Rutracker_Seeds\09 - Herman Chittison - St. Louis Blues (Herman Chittison - St. Louis Blues).wav

Pre-gap length 0:00:04.00

Peak level 80.0 %
Track quality 100.0 %
Test CRC E6089E80
Copy CRC E6089E80
Accurately ripped (confidence 1) [E96EF924]
Copy OK

Track 10

Filename C:\Users\sony\Music\Rutracker_Seeds\10 - Art Tatum - Moonglow (Art Tatum - Moonglow).wav

Pre-gap length 0:00:04.00

Peak level 79.6 %
Track quality 100.0 %
Test CRC 7466A00E
Copy CRC 7466A00E
Accurately ripped (confidence 1) [74608D3A]
Copy OK

Track 11

Filename C:\Users\sony\Music\Rutracker_Seeds\11 - Fats Waller - Alligator Crawl (Fats Waller - Alligator Crawl).wav

Pre-gap length 0:00:04.00

Peak level 74.6 %
Track quality 100.0 %
Test CRC 02150D17
Copy CRC 02150D17
Accurately ripped (confidence 1) [39DB4F63]
Copy OK

Track 12

Filename C:\Users\sony\Music\Rutracker_Seeds\12 - Fats Waller - Viper's Drag (Fats Waller - Viper's Drag).wav

Pre-gap length 0:00:04.00

Peak level 81.8 %
Track quality 100.0 %
Test CRC D7916307
Copy CRC D7916307
Accurately ripped (confidence 1) [AB313957]
Copy OK

Track 13

Filename C:\Users\sony\Music\Rutracker_Seeds\13 - Fats Waller - Clothesline Ballet (Fats Waller - Clothesline Ballet).wav

Pre-gap length 0:00:04.00

Peak level 83.6 %
Track quality 99.9 %
Test CRC 2EB1F694
Copy CRC 2EB1F694
Accurately ripped (confidence 1) [420F2CE2]
Copy OK

Track 14

Filename C:\Users\sony\Music\Rutracker_Seeds\14 - Dorothy Rice - Texas Stomp (Dorothy Rice - Texas Stomp).wav

Pre-gap length 0:00:04.00

Peak level 78.9 %
Track quality 100.0 %
Test CRC EC119A88
Copy CRC EC119A88
Accurately ripped (confidence 1) [90BD16EF]
Copy OK

Track 15

Filename C:\Users\sony\Music\Rutracker_Seeds\15 - Teddy Wilson - Liza (Teddy Wilson - Liza).wav

Pre-gap length 0:00:04.00

Peak level 65.8 %
Track quality 99.9 %
Test CRC 012A6306
Copy CRC 012A6306
Accurately ripped (confidence 1) [07EA6091]
Copy OK

Track 16

Filename C:\Users\sony\Music\Rutracker_Seeds\16 - Jess Stacy - Barrelhouse (Jess Stacy - Barrelhouse).wav

Pre-gap length 0:00:04.00

Peak level 79.2 %
Track quality 100.0 %
Test CRC 555F1102
Copy CRC 555F1102
Accurately ripped (confidence 1) [836DF55D]
Copy OK

Track 17

Filename C:\Users\sony\Music\Rutracker_Seeds\17 - Flashes (Jess Stacy - In the Dark).wav

Pre-gap length 0:00:04.00

Peak level 86.6 %
Track quality 100.0 %
Test CRC 172A223B
Copy CRC 172A223B
Accurately ripped (confidence 1) [D8BAE3E8]
Copy OK

Track 18

Filename C:\Users\sony\Music\Rutracker_Seeds\18 - Joe Turner - Cheek to Cheek (Joe Turner - Cheek to Cheek).wav

Pre-gap length 0:00:04.00

Peak level 91.7 %
Track quality 100.0 %
Test CRC 3DBC2794
Copy CRC 3DBC2794
Accurately ripped (confidence 1) [11119A82]
Copy OK

Track 19

Filename C:\Users\sony\Music\Rutracker_Seeds\19 - Meade Lux Lewis - Mr. Freddie Blues (Meade Lux Lewis - Mr. Freddie Blues).wav

Pre-gap length 0:00:04.00

Peak level 70.4 %
Track quality 100.0 %
Test CRC FB92654D
Copy CRC FB92654D
Accurately ripped (confidence 1) [8B61E10C]
Copy OK

Track 20

Filename C:\Users\sony\Music\Rutracker_Seeds\20 - Mary Lou Williams - Over Hand (Mary Lou Williams - Over Hand).wav

Pre-gap length 0:00:04.00

Peak level 83.2 %
Track quality 100.0 %
Test CRC A37D36E6
Copy CRC A37D36E6
Accurately ripped (confidence 1) [14CF68CD]
Copy OK

Track 21

Filename C:\Users\sony\Music\Rutracker_Seeds\21 - Little Brother Montgomery - Farish Street Jive (Little Brother Montgomery - Farish Street Jive).wav

Pre-gap length 0:00:04.00

Peak level 66.6 %
Track quality 99.9 %
Test CRC 3CE02704
Copy CRC 3CE02704
Accurately ripped (confidence 1) [9DE9D3BA]
Copy OK

Track 22

Filename C:\Users\sony\Music\Rutracker_Seeds\22 - Meade Lux Lewis - Honky Tonk Train Blues (Meade Lux Lewis - Honky Tonk Train Blues).wav

Pre-gap length 0:00:04.00

Peak level 72.7 %
Track quality 100.0 %
Test CRC AA5804D9
Copy CRC AA5804D9
Accurately ripped (confidence 1) [5124E6DD]
Copy OK

Track 23

Filename C:\Users\sony\Music\Rutracker_Seeds\23 - Lionel Hampton - Chinatown (Lionel Hampton - Chinatown).wav

Pre-gap length 0:00:04.00

Peak level 63.0 %
Track quality 100.0 %
Test CRC E9AEC12D
Copy CRC E9AEC12D
Accurately ripped (confidence 1) [C674D647]
Copy OK

Track 24

Filename C:\Users\sony\Music\Rutracker_Seeds\24 - Duke Ellington - Swing Session (Duke Ellington - Swing Session).wav

Pre-gap length 0:00:04.00

Peak level 83.9 %
Track quality 100.0 %
Test CRC D2CA56D2
Copy CRC D2CA56D2
Accurately ripped (confidence 1) [39FCA19D]
Copy OK

Track 25

Filename C:\Users\sony\Music\Rutracker_Seeds\25 - Fats Waller - Stardust (Fats Waller - Stardust).wav

Pre-gap length 0:00:04.00

Peak level 85.2 %
Track quality 100.0 %
Test CRC 52829EF4
Copy CRC 52829EF4
Accurately ripped (confidence 1) [1109FF14]
Copy OK

Track 26

Filename C:\Users\sony\Music\Rutracker_Seeds\26 - Fats Waller - Keepin' out of Mischief Now (Fats Waller - Keepin' out of Mischief Now).wav

Pre-gap length 0:00:04.00

Peak level 76.4 %
Track quality 99.9 %
Test CRC 06374866
Copy CRC 06374866
Accurately ripped (confidence 1) [32D22F34]
Copy OK

All tracks accurately ripped

No errors occurred

End of status report


CD 5
Exact Audio Copy V0.99 prebeta 5 from 4. May 2009

EAC extraction logfile from 18. July 2011, 3:37

Various / L'histoire Du Piano Jazz. CD 5

Used drive : Optiarc DVD RW AD-7700H Adapter: 0 ID: 1

Read mode : Secure
Utilize accurate stream : Yes
Defeat audio cache : Yes
Make use of C2 pointers : No

Read offset correction : 48
Overread into Lead-In and Lead-Out : No
Fill up missing offset samples with silence : Yes
Delete leading and trailing silent blocks : No
Null samples used in CRC calculations : Yes
Used interface : Native Win32 interface for Win NT & 2000
Gap handling : Appended to previous track

Used output format : User Defined Encoder
Selected bitrate : 32 kBit/s
Quality : High
Add ID3 tag : No
Command line compressor : C:\Program Files (x86)\Exact Audio Copy\FLAC\FLAC.EXE
Additional command line options : -8 -V -T "ARTIST=%a" -T "TITLE=%t" -T "ALBUM=%g" -T "DATE=%y" -T "TRACKNUMBER=%n" -T "GENRE=%m" -T "COMMENT=EAC FLAC -8" %s

TOC of the extracted CD

Track | Start | Length | Start sector | End sector
––––––––––––––––––––––––––––-
1 | 0:00.00 | 2:18.54 | 0 | 10403
2 | 2:18.54 | 2:56.53 | 10404 | 23656
3 | 5:15.32 | 3:24.52 | 23657 | 39008
4 | 8:40.09 | 3:02.59 | 39009 | 52717
5 | 11:42.68 | 2:53.11 | 52718 | 65703
6 | 14:36.04 | 2:57.03 | 65704 | 78981
7 | 17:33.07 | 3:05.24 | 78982 | 92880
8 | 20:38.31 | 2:51.29 | 92881 | 105734
9 | 23:29.60 | 2:24.35 | 105735 | 116569
10 | 25:54.20 | 2:13.74 | 116570 | 126618
11 | 28:08.19 | 3:05.70 | 126619 | 140563
12 | 31:14.14 | 3:05.58 | 140564 | 154496
13 | 34:19.72 | 3:00.41 | 154497 | 168037
14 | 37:20.38 | 3:18.48 | 168038 | 182935
15 | 40:39.11 | 4:58.11 | 182936 | 205296
16 | 45:37.22 | 2:52.08 | 205297 | 218204
17 | 48:29.30 | 3:51.57 | 218205 | 235586
18 | 52:21.12 | 2:54.13 | 235587 | 248649
19 | 55:15.25 | 3:38.03 | 248650 | 265002
20 | 58:53.28 | 3:51.46 | 265003 | 282373
21 | 62:44.74 | 2:47.09 | 282374 | 294907
22 | 65:32.08 | 2:45.00 | 294908 | 307282
23 | 68:17.08 | 3:18.70 | 307283 | 322202
24 | 71:36.03 | 3:08.01 | 322203 | 336303
25 | 74:44.04 | 2:53.45 | 336304 | 349323

Track 1

Filename C:\Users\sony\Music\Rutracker_Seeds\01 - Teddy Weatherford - Ain't Misbehavin' (Teddy Weatherford - Ain't Misbehavin').wav

Pre-gap length 0:00:02.00

Peak level 98.2 %
Track quality 100.0 %
Test CRC 35CA239C
Copy CRC 35CA239C
Accurately ripped (confidence 1) [A1E5FAC2]
Copy OK

Track 2

Filename C:\Users\sony\Music\Rutracker_Seeds\02 - Lionel Hampton - Piano Stomp (Shine) (Lionel Hampton - Piano Stomp (Shine)).wav

Pre-gap length 0:00:04.00

Peak level 75.6 %
Track quality 100.0 %
Test CRC 02E45D3B
Copy CRC 02E45D3B
Accurately ripped (confidence 1) [122FD8DA]
Copy OK

Track 3

Filename C:\Users\sony\Music\Rutracker_Seeds\03 - Teddy Wilson - Where or when (Teddy Wilson - Where or when).wav

Pre-gap length 0:00:04.00

Peak level 77.5 %
Track quality 100.0 %
Test CRC F518E5B4
Copy CRC F518E5B4
Accurately ripped (confidence 1) [2873CA75]
Copy OK

Track 4

Filename C:\Users\sony\Music\Rutracker_Seeds\04 - Teddy Wilson - Don't Blame Me (Teddy Wilson - Don't Blame Me).wav

Pre-gap length 0:00:04.00

Peak level 78.7 %
Track quality 100.0 %
Test CRC 315C8275
Copy CRC 315C8275
Accurately ripped (confidence 1) [C1E74484]
Copy OK

Track 5

Filename C:\Users\sony\Music\Rutracker_Seeds\05 - Art Tatum - Gone With the Wind (Art Tatum - Gone With the Wind).wav

Pre-gap length 0:00:04.00

Peak level 61.4 %
Track quality 100.0 %
Test CRC BF26C62E
Copy CRC BF26C62E
Accurately ripped (confidence 1) [A4440BF5]
Copy OK

Track 6

Filename C:\Users\sony\Music\Rutracker_Seeds\06 - Willie 'the Lion' Smith - Morning Air (Willie 'the Lion' Smith - Morning Air).wav

Pre-gap length 0:00:04.00

Peak level 64.6 %
Track quality 100.0 %
Test CRC 5CEBA2DD
Copy CRC 5CEBA2DD
Accurately ripped (confidence 1) [F62A8242]
Copy OK

Track 7

Filename C:\Users\sony\Music\Rutracker_Seeds\07 - Jess Stacy - Ramblin' (Jess Stacy - Ramblin').wav

Pre-gap length 0:00:04.00

Peak level 82.0 %
Track quality 100.0 %
Test CRC 463D7FD7
Copy CRC 463D7FD7
Accurately ripped (confidence 1) [FABDFAC2]
Copy OK

Track 8

Filename C:\Users\sony\Music\Rutracker_Seeds\08 - Herman Chittison - My Own Blues (Herman Chittison - My Own Blues).wav

Pre-gap length 0:00:04.00

Peak level 80.4 %
Track quality 100.0 %
Test CRC C6A936AD
Copy CRC C6A936AD
Accurately ripped (confidence 1) [97E0B683]
Copy OK

Track 9

Filename C:\Users\sony\Music\Rutracker_Seeds\09 - Nat King Cole - Don't Blame Me (Nat King Cole - Don't Blame Me).wav

Pre-gap length 0:00:04.00

Peak level 84.2 %
Track quality 99.9 %
Test CRC C4C1D0D6
Copy CRC C4C1D0D6
Accurately ripped (confidence 1) [8762B23C]
Copy OK

Track 10

Filename C:\Users\sony\Music\Rutracker_Seeds\10 - Nat King Cole - With Plenty of Money and You (Nat King Cole - With Plenty of Money and You).wav

Pre-gap length 0:00:04.00

Peak level 75.5 %
Track quality 100.0 %
Test CRC 62ABBAD1
Copy CRC 62ABBAD1
Accurately ripped (confidence 1) [BF2D5096]
Copy OK

Track 11

Filename C:\Users\sony\Music\Rutracker_Seeds\11 - Count Basie - Boogie Woogie (Count Basie - Boogie Woogie).wav

Pre-gap length 0:00:04.00

Peak level 75.0 %
Track quality 99.9 %
Test CRC 654CD5DF
Copy CRC 654CD5DF
Accurately ripped (confidence 1) [9D916BB3]
Copy OK

Track 12

Filename C:\Users\sony\Music\Rutracker_Seeds\12 - Count Basie - The Dirty Dozens (Count Basie - The Dirty Dozens).wav

Pre-gap length 0:00:04.00

Peak level 90.0 %
Track quality 100.0 %
Test CRC 6B34AB35
Copy CRC 6B34AB35
Accurately ripped (confidence 1) [7BE785DC]
Copy OK

Track 13

Filename C:\Users\sony\Music\Rutracker_Seeds\13 - Willie 'the Lion' Smith, Joe Bushkin - The Lion and the Lamb (Willie 'the Lion' Smith, Joe Bushkin - The Lion and the Lamb).wav

Pre-gap length 0:00:04.00

Peak level 86.5 %
Track quality 100.0 %
Test CRC 257392EA
Copy CRC 257392EA
Accurately ripped (confidence 1) [6566B158]
Copy OK

Track 14

Filename C:\Users\sony\Music\Rutracker_Seeds\14 - Rufus 'speckled Red' Perryman - St. Louis Stomp (Rufus 'speckled Red' Perryman - St. Louis Stomp).wav

Pre-gap length 0:00:04.00

Peak level 78.5 %
Track quality 100.0 %
Test CRC 17DBEFEE
Copy CRC 17DBEFEE
Accurately ripped (confidence 1) [A91CD397]
Copy OK

Track 15

Filename C:\Users\sony\Music\Rutracker_Seeds\15 - Meade Lux Lewis - Boogie Woogie Prayer (Meade Lux Lewis - Boogie Woogie Prayer).wav

Pre-gap length 0:00:04.00

Peak level 68.8 %
Track quality 100.0 %
Test CRC 2FBD6F94
Copy CRC 2FBD6F94
Accurately ripped (confidence 1) [9B8C73BC]
Copy OK

Track 16

Filename C:\Users\sony\Music\Rutracker_Seeds\16 - Pete Johnson - Roll 'em Pete (Pete Johnson - Roll 'em Pete).wav

Pre-gap length 0:00:04.00

Peak level 79.4 %
Track quality 100.0 %
Test CRC BDC85C97
Copy CRC BDC85C97
Accurately ripped (confidence 1) [C1EC0F64]
Copy OK

Track 17

Filename C:\Users\sony\Music\Rutracker_Seeds\17 - Count Basie - I Ain't Got Nobody (Count Basie - I Ain't Got Nobody).wav

Pre-gap length 0:00:04.00

Peak level 51.7 %
Track quality 99.9 %
Test CRC 9CAF81C1
Copy CRC 9CAF81C1
Accurately ripped (confidence 1) [655C67EE]
Copy OK

Track 18

Filename C:\Users\sony\Music\Rutracker_Seeds\18 - Cripple Clarence Lofton - Blue Boogie (Cripple Clarence Lofton - Blue Boogie).wav

Pre-gap length 0:00:04.00

Peak level 77.9 %
Track quality 100.0 %
Test CRC E6EA57E5
Copy CRC E6EA57E5
Accurately ripped (confidence 1) [CAEA86B4]
Copy OK

Track 19

Filename C:\Users\sony\Music\Rutracker_Seeds\19 - Albert Ammons - Boogie Woogie Stomp (Albert Ammons - Boogie Woogie Stomp).wav

Pre-gap length 0:00:04.00

Peak level 57.1 %
Track quality 100.0 %
Test CRC D65E5B82
Copy CRC D65E5B82
Accurately ripped (confidence 1) [FEC741A8]
Copy OK

Track 20

Filename C:\Users\sony\Music\Rutracker_Seeds\20 - Albert Ammons - Suitcase Blues (Albert Ammons - Suitcase Blues).wav

Pre-gap length 0:00:04.00

Peak level 55.8 %
Track quality 100.0 %
Test CRC DABE5163
Copy CRC DABE5163
Accurately ripped (confidence 1) [228E2DB7]
Copy OK

Track 21

Filename C:\Users\sony\Music\Rutracker_Seeds\21 - Willie 'the Lion' Smith - Passionate (Willie 'the Lion' Smith - Passionate).wav

Pre-gap length 0:00:04.00

Peak level 81.9 %
Track quality 100.0 %
Test CRC 12CA366C
Copy CRC 12CA366C
Accurately ripped (confidence 1) [4E0D610E]
Copy OK

Track 22

Filename C:\Users\sony\Music\Rutracker_Seeds\22 - Willie 'the Lion' Smith - Echoes of Spring (Willie 'the Lion' Smith - Echoes of Spring).wav

Pre-gap length 0:00:04.00

Peak level 63.3 %
Track quality 100.0 %
Test CRC 6794C058
Copy CRC 6794C058
Accurately ripped (confidence 1) [5E0DAE96]
Copy OK

Track 23

Filename C:\Users\sony\Music\Rutracker_Seeds\23 - Jess Stacy - Candlelights (Jess Stacy - Candlelights).wav

Pre-gap length 0:00:04.00

Peak level 78.4 %
Track quality 100.0 %
Test CRC A0A681DA
Copy CRC A0A681DA
Accurately ripped (confidence 1) [C5D55BB7]
Copy OK

Track 24

Filename C:\Users\sony\Music\Rutracker_Seeds\24 - Count Basie - Dupree Blues (Count Basie - Dupree Blues).wav

Pre-gap length 0:00:04.00

Peak level 73.9 %
Track quality 100.0 %
Test CRC DA676034
Copy CRC DA676034
Accurately ripped (confidence 1) [BD1D5D29]
Copy OK

Track 25

Filename C:\Users\sony\Music\Rutracker_Seeds\25 - Count Basie - Oh! Red (Count Basie - Oh! Red).wav

Pre-gap length 0:00:04.00

Peak level 87.7 %
Track quality 100.0 %
Test CRC 916A67BC
Copy CRC 916A67BC
Accurately ripped (confidence 1) [925BB3FA]
Copy OK

All tracks accurately ripped

No errors occurred

End of status report


all 5 log files included…

Thanks to the original ripper.

**Follow My Music Blog**